#TITLE:太陽SUNSUNボンジュールアバンチュール;
#SUBTITLE:;
#ARTIST:PROJECT B-;
#TITLETRANSLIT:TAIYOU SUNSUN BONJOUR AVANTURE;
#SUBTITLETRANSLIT:;
#ARTISTTRANSLIT:;
#GENRE:;
#CREDIT:Bruce Toxsa and Ralph;
#MENUCOLOR:;
#METERTYPE:DDR X;
#BANNER:TAIYOU SUNSUN BONJOUR AVANTURE.png;
#BACKGROUND:TAIYOU SUNSUN BONJOUR AVANTURE-jacket.png;
#LYRICSPATH:;
#CDTITLE:CROSSxBEATS.png;
#MUSIC:TAIYOU SUNSUN BONJOUR AVANTURE.ogg;
#OFFSET:-0.055;
#SAMPLESTART:90.922;
#SAMPLELENGTH:12.000;
#SELECTABLE:YES;
#LISTSORT:;
#BPMS:0.000=140.000,244.000=93.500,245.333=93.720,246.667=70.000,247.000=71.540,248.000=70.000,252.000=53.000,252.500=52.000,253.500=52.500;
#STOPS:247.667=0.597
,253.500=0.580
,253.750=0.580
;
#BGCHANGES:0.000=TAIYOU SUNSUN BONJOUR AVANTURE.avi=1.200=1=0=1,
3.000=TAIYOU SUNSUN BONJOUR AVANTURE.avi=1.000=0=0=1,
257.000=TAIYOU SUNSUN BONJOUR AVANTURE-jacket.png=1.000=0=0=1,
99999=-nosongbg-=1.000=0=0=0 // don't automatically add -songbackground-
;
#ATTACKS:;

//---------------dance-single - ----------------
#NOTES:
     dance-single:
     :
     Challenge:
     17:
     0.893,1.000,0.659,0.241,1.000:
0000
0000
0000
0000
,
0000
0000
0000
0000
,
0000
0000
0000
0000
,
0000
0000
0100
0010
0000
0000
0110
0000
0000
0000
0100
0010
0000
0000
0110
0000
,
0000
0000
0001
1000
0000
0000
1001
0000
0110
0000
1001
0000
0110
0000
0000
0000
,
1000
0000
0001
0001
0000
0000
1001
0000
0000
0000
0001
0001
0000
0000
1001
0000
,
0000
0000
1000
1000
0000
0000
1001
0000
0000
0000
1000
1000
0000
0000
1001
0000
,
0000
0000
0010
0010
0000
0000
0110
0000
0000
0000
0100
0100
0000
0000
0110
0000
,
0000
0000
0000
0000
0000
0000
0001
0000
0000
1000
0000
0000
0000
0000
0000
0000
0000
0000
1001
0000
0000
0000
0000
0000
1000
0000
0000
0000
0100
0000
0000
0000
0010
0000
0000
0000
1001
0000
0000
0000
0000
0000
0000
0000
0000
0000
0000
0000
,
0100
0100
0000
0010
1000
0000
0001
0000
0100
0000
0010
0100
0010
0000
0000
0000
,
1000
0100
1000
0000
0001
0100
0001
0100
0001
0000
1000
0001
1000
0000
0000
0000
,
1000
1000
0000
0001
0100
0000
0010
0000
1000
0000
0100
1000
0100
0000
0000
0000
,
0001
0100
0001
0000
1000
0100
1000
0100
1000
0000
0001
1000
0001
0000
0000
0000
,
0010
0010
0000
0100
0010
0000
1000
0000
0001
0000
0001
0100
0001
0000
1000
0010
,
1000
0010
1000
0000
0001
0100
0001
0100
0001
0000
0010
0001
0010
0001
0010
0001
,
0010
0000
0001
0100
0001
0000
1000
0100
0000
0001
0010
1000
0000
0001
1000
0000
,
1000
0100
0001
0000
0100
0100
0000
0001
1001
0000
1001
0000
1001
0000
0000
0000
,
0100
0100
0000
0100
0110
0000
0001
0000
0001
0000
0001
0010
0100
0000
0000
0000
,
1000
0100
0010
0000
0001
0100
0001
0100
0001
0000
0010
0100
1000
0000
0000
0000
,
0010
0010
0000
0010
0110
0000
1000
0000
1000
0000
1000
0100
0001
0000
0000
0000
,
0001
0010
0100
0000
1000
0010
1000
0010
1000
0000
0100
0010
0001
0000
0000
0000
,
1000
1000
0000
1000
1100
0000
0010
0000
0001
0000
0001
0010
0001
0000
0100
0001
,
0100
0001
0100
0000
1010
1000
0010
1000
0010
0000
0100
0010
0100
0010
0100
0000
,
1001
0000
1000
0100
0010
0100
1000
0000
1001
0000
0001
0010
0100
0010
0001
0000
,
1000
0000
0000
0100
0000
0000
0010
0000
0000
0001
0000
0000
1000
0000
0000
0100
0000
0000
0010
0000
0000
0001
0000
0000
1000
0000
0000
0000
1001
0000
0000
0000
1001
0000
0000
0000
1001
0000
0000
0000
0000
0000
0000
0000
0000
0000
0000
0000
,
0100
0000
0000
0100
0000
0000
0001
1000
0001
1000
0001
1000
0001
0000
0000
0100
0000
0000
1000
0001
1000
0001
1000
0001
,
1000
0010
0100
0000
1000
1000
0000
0001
0001
0000
1001
0000
2002
0000
3003
0000
,
0210
0000
0000
0301
0100
1000
0100
0001
1001
0000
0100
0010
0100
0000
0000
0000
,
0120
0000
0000
1030
0100
0001
0100
1000
1001
0000
0010
0100
0010
0000
0000
0000
,
1002
0000
0000
0103
0010
1000
0010
0100
0010
0000
1000
0001
1001
0000
0000
0000
,
1000
0200
0000
0000
0310
0002
0000
0000
0103
0020
0000
0000
1030
0100
0010
0001
,
1000
0000
0000
0001
0100
1000
0100
0010
0001
0000
1000
0100
1001
0000
0000
0000
,
1002
0000
0000
0103
0001
0010
0100
1000
0001
0000
0001
0010
1001
0000
0000
0000
,
0210
0000
0000
0301
0010
0001
1000
0100
2000
0000
0010
0100
3010
0000
0000
0000
,
1000
0002
0000
0000
0103
0020
0000
0000
2030
0000
0000
0000
3001
0000
0000
0000
,
1100
0000
0010
0001
0100
0000
0010
1000
0100
0000
0100
0010
0001
0000
0100
0010
,
1000
0100
0010
0001
0100
0010
1000
0001
0100
1000
0010
0100
,
0001
0000
1000
0001
0100
0000
0001
1000
0100
0000
1000
0001
0100
0000
0010
1000
,
0001
0010
0100
1000
0100
0010
1001
0000
0000
MMMM
0000
0000
,
2001
0000
0000
3020
0000
0000
0230
0000
0302
0000
0000
0023
0000
0000
0230
0000
,
0302
0000
0000
2003
0000
0000
3020
0000
0230
0000
0000
0302
0000
0000
2003
0000
,
3010
0001
0100
0010
1000
0100
0010
0001
0100
1000
0010
0001
,
0010
0000
0000
0100
0000
0000
1000
0000
0000
0100
0000
0000
0001
0000
0000
0100
0000
0000
1000
0000
0000
0100
0000
0000
0010
0000
0000
0001
0000
0000
0100
0000
0000
0001
0000
0000
1000
0000
0001
0000
1000
0000
0001
0000
1000
0000
0001
0000
,
1000
0000
0000
0000
0000
0000
0010
0100
0110
0000
1001
0000
1100
0000
0101
0000
,
0011
0000
0100
0010
1000
0000
0001
0100
0010
0000
1010
0000
0101
0000
0000
0000
,
0100
0000
0010
1000
0010
1000
0010
1000
0010
0000
0100
0001
0100
0010
0100
0001
,
0100
0000
0010
1000
0010
0100
0010
1000
0100
0000
0001
0100
0001
0000
1000
0000
,
0010
0000
0001
0100
0001
0100
0001
0000
1000
0000
1000
0100
1000
0100
1000
0000
,
0010
0000
0100
0001
0100
0000
0010
0100
0010
0000
1000
0100
1000
0000
0001
0000
,
0100
0000
0001
1000
0001
1000
0001
0000
0010
1000
0000
1000
0001
1000
0001
1000
,
0010
0000
0100
0010
0100
0010
0100
0000
0001
0100
0000
0010
1000
0010
1000
0010
,
0100
0001
0100
0001
0000
1000
0100
1000
0010
1000
0010
1000
0000
0001
1000
0001
,
1000
0000
0000
0100
0000
0000
0010
0000
0000
0001
0000
0000
0010
0000
0000
0100
0000
0000
0001
0000
0000
1000
0000
0000
0010
0000
0000
0000
0110
0000
0000
0000
0110
0000
0000
0000
1001
0000
0000
1000
0000
0000
0001
0000
0000
1000
0000
0000
,
0100
0010
0100
0010
0100
0001
0100
0001
0100
0010
0100
0010
1000
0010
1000
0010
,
0100
0001
0100
0001
0000
1000
0010
1000
0001
1000
0001
1000
0100
1000
0100
1000
,
0100
0010
0001
0010
0100
0001
0100
0010
1000
0100
0010
0001
0100
0010
0100
0010
,
1000
0100
0010
0100
1000
0100
0010
0100
0001
0010
0100
0010
0001
0010
0100
0001
,
1000
0100
0001
0100
1000
0010
0001
0010
0001
0100
1000
0100
1000
0100
1000
0000
,
0010
1000
0100
1000
0010
0001
0100
0001
0010
0001
0100
1000
0100
0000
1000
0000
,
1001
0000
0001
0010
0100
1000
1001
0000
0110
0000
1000
0100
0010
0001
1001
0000
,
1001
0000
0000
1000
0000
0000
0100
0000
0000
0010
0000
0000
0011
0000
0000
0010
0000
0000
0100
0000
1000
0000
0001
0000
1000
0000
0000
0000
0110
0000
0000
0000
0110
0000
0000
0000
1001
0000
0000
0000
0000
0000
0000
0000
0000
0000
0000
0000
,
1002
0000
0103
0000
0011
0000
0011
0000
0021
0000
0130
0000
0110
0001
1000
0001
1001
0000
1100
0000
1100
0000
1001
0000
,
1002
0000
0103
0000
0011
0000
0011
0000
0021
0000
0130
0000
0110
0001
1000
0001
,
1001
0000
0000
0000
0000
0000
0000
0000
0000
0000
0000
0000
0000
0000
0000
0000
0000
0000
0000
0000
0000
0000
0000
1100
0000
0000
0000
0000
0000
0000
0000
0000
0000
0000
0000
0000
0000
0000
0000
0000
0000
0000
0000
0000
0000
0000
0000
1100
0000
0000
0000
0000
0000
0000
0000
0000
0000
0000
0000
0000
0000
0000
0000
0000
0000
0000
0000
0000
0000
0000
0000
0000
1001
0000
0000
0000
0000
0000
0000
0000
0000
0000
0000
0000
MMMM
0000
0000
0000
0000
0000
0000
0000
0000
0000
0000
0000
1001
0000
0000
0000
0000
0000
0000
0000
0000
0000
0000
0000
0000
0000
0000
0000
0000
0000
0000
0000
0000
0000
0000
1100
0000
0000
0000
0000
0000
0000
0000
0000
0000
0000
0000
0000
0000
0000
0000
0000
0000
0000
0000
0000
0000
0000
0000
1100
0000
0000
0000
0000
0000
0000
0000
0000
0000
0000
0000
0000
0000
0000
0000
0000
0000
0000
0000
0000
0000
0000
0000
0000
1001
0000
0000
0000
0000
0000
0000
0000
0000
0000
0000
0000
0000
0000
0000
0000
0000
0000
0000
0000
0000
0000
0000
0000
;

//---------------dance-double - ----------------
#NOTES:
     dance-double:
     :
     Challenge:
     17:
     0.835,0.847,0.667,0.169,0.940:
00000000
00000000
00000000
00000000
,
00000000
00000000
00000000
00000000
,
00000000
00000000
00000000
00000000
,
00000000
00000000
00001000
01000000
00000000
00000000
00010000
00000000
00000000
00000000
00001000
01000000
00000000
00000000
00010000
00000000
,
00000000
00000000
01000000
00100000
00000000
00000000
10000000
00000000
01010000
00000000
10100000
00000000
01010000
00000000
00000000
00000000
,
10000000
00000000
00010000
01000000
00000000
00000000
01010000
00000000
00000000
00000000
00010000
01000000
00000000
00000000
01010000
00000000
,
00000000
00000000
00010000
00000100
00000000
00000000
00010100
00000000
00000000
00000000
00010000
00000100
00000000
00000000
00010100
00000000
,
00000000
00000000
00000001
00001000
00000000
00000000
00001001
00000000
00000000
00000000
00000001
00001000
00000000
00000000
00001001
00000000
,
00000000
00000000
00000000
00000000
00000000
00000000
00000100
00000000
00000000
00010000
00000000
00000000
00000000
00000000
00000000
00000000
00000000
00000000
00010100
00000000
00000000
00000000
00000000
00000000
00010000
00000000
00000000
00000000
00001000
00000000
00000000
00000000
00010000
00000000
00000000
00000000
00011000
00000000
00000000
00000000
00000000
00000000
00000000
00000000
00000000
00000000
00000000
00000000
,
00010000
00010000
00000000
00001000
00001000
00000000
00011000
00000000
00010000
00000000
00001000
00100000
00010000
00000000
00000000
00000000
,
01000000
00010000
01000000
00000000
10000000
00100000
10000000
00100000
10000000
00000000
01000000
00001000
01000000
00000000
00000000
00000000
,
00100000
00001000
00000000
00100000
00001000
00000000
00010000
00000000
00000100
00000000
00001000
00000100
00001000
00000000
00000000
00000000
,
00000010
00000100
00000010
00000000
00000001
00001000
00000001
00001000
00000001
00000000
00000010
00000100
00000010
00000000
00000000
00000000
,
00001000
00010000
00000000
00001000
00010000
00000000
00001000
00000000
00010000
00000000
00001000
00100000
00001000
00000000
00100000
00010000
,
00100000
00010000
00100000
00000000
10000000
01000000
10000000
01000000
10000000
00000000
01000000
00010000
01000000
00010000
01000000
00000000
,
00100000
00000000
00001000
00100000
00001000
00000000
00000100
00010000
00000000
00000100
00010000
00000100
00000000
00010000
00001000
00000000
,
00010000
00001000
00010000
00000000
00001000
00010000
00000000
00001000
00011000
00000000
00011000
00000000
00011000
00000000
00000000
00000000
,
00100000
00001000
00000000
00010000
00000100
00000000
00001000
00000000
00000110
00000000
00000001
00000100
00001000
00000000
00000000
00000000
,
00000010
00000100
00001000
00000000
00010100
00000000
00101000
00000000
00010000
00000000
10000000
00010000
10000000
00000000
00000000
00000000
,
01000000
00010000
00000000
00100000
00001000
00000000
00010000
00000000
00011000
00000000
00000100
00010000
00001000
00000000
00000000
00000000
,
00001000
00100000
00010000
00000000
01100000
00000000
10100000
00000000
01010000
00000000
00100000
00001000
00010000
00000000
00000000
00000000
,
00010000
00000100
00000000
00001000
00000010
00000000
00000101
00000000
00001010
00000000
00000001
00000100
00001000
00000000
00000010
00010000
,
00001000
00010000
00000010
00000000
00100000
00001000
00010000
00001000
00100000
00000000
00001000
00010000
00001000
01000000
00001000
00010000
,
00001000
00010000
00001000
00000100
00000101
00000100
00001000
00010000
,
01100000
00000000
00000000
10010000
00000000
00000000
01100000
00000000
00000000
10010000
00000000
00000000
01000000
00000000
00001000
00000000
00010000
00000000
00001100
00000000
00000000
00000000
00000000
00000000
,
01100000
01100000
02200000
03300000
00011000
00011000
00022000
00033000
,
00000110
00000000
00000110
00000000
00000001
00001000
00000000
00000010
00010000
00000000
00011000
00000000
00022000
00000000
00033000
00000000
,
00110000
00000000
00000000
00001000
00010000
00001000
00010000
00001000
00010000
00000000
00001000
00000100
00000001
00000000
00000000
00000000
,
00001001
00000000
00000000
00000001
00001000
00000001
00001000
00000001
00001000
00000000
00000100
00010000
00001000
00000000
00000000
00000000
,
00011000
00000000
00000000
00001000
00100000
00001000
00100000
00001000
00100000
00000000
00010000
01000000
10000000
00000000
00000000
00000000
,
10000000
02000000
00000000
00000000
03010000
00200000
00000000
00000000
00301000
00020000
00000000
00000000
00031000
00000100
00000010
00000001
,
00000200
00000000
00000000
00000310
00001000
00000100
00001000
00000010
00000200
00000000
00000310
00001000
00000100
00000000
00000000
00000000
,
00020000
00000000
00000000
00031000
00010000
00000100
00010000
00001000
00200000
00000000
00310000
01000000
00010000
00000000
00000000
00000000
,
02000000
00000000
00000000
03010000
00100000
00010000
01000000
00010000
00200000
00000000
10300000
01000000
00010000
00000000
00000000
00000000
,
01000000
00002000
00000000
00000000
00013000
00000200
00000000
00000000
00001300
00000020
00000000
00000000
00000130
00000000
00000000
00000000
,
00001001
00000000
00000010
00001000
00000100
00000000
00000100
00010000
00001000
00000000
00001000
00100000
00010000
00000000
00010000
01000000
,
00100000
00001000
00010000
00000100
00000001
00000010
00001000
00000100
00010000
00001000
01000000
10000000
,
00100000
00000000
01000000
00010000
01000000
00000000
00001000
00100000
00001000
00000000
00010000
00000010
00010000
00000000
00000100
00000001
,
00000010
00001000
00000100
00010000
00001000
00100000
10010000
00000000
00000000
MMMMMMMM
00000000
00000000
,
01100000
00000000
00000000
00011000
00000000
00000000
00001100
00000000
00001100
00000000
00000000
00011000
00000000
00000000
01010000
00000000
,
10010000
00000000
00000000
10100000
00000000
00000000
01010000
00000000
00101000
00000000
00000000
00001010
00000000
00000000
00000110
00000000
,
00000100
00010000
00001000
00010000
00001000
00100000
00010000
10000000
01000000
00100000
00010000
00000010
,
00000100
00000001
00000100
00000010
00000100
00000001
00000100
00000010
00001000
00000100
00010000
00000100
00010000
00001000
00010000
00001000
,
00200000
00000000
00000000
00000000
00000000
00000000
00301000
00010000
00001000
00000000
00101000
00000000
00110000
00000000
10100000
00000000
,
01100000
00000000
10000000
01000000
00010000
00000000
01000000
00010000
01000000
00000000
00110000
00000000
00010100
00000000
00000000
00000000
,
00010000
00000000
00001000
00010000
00001000
00000000
00000010
00000000
00000100
00000000
00000001
00001000
00000001
00000000
00000010
00000000
,
00010000
00000000
00001000
00010000
00001000
00000000
00010000
00000000
01000000
00000000
00100000
10000000
00100000
00000000
01000000
00000000
,
00001000
00000000
00010000
00000100
00010000
00000000
00001000
00000000
00000010
00000000
00000001
00000100
00000001
00000000
00000010
00000000
,
00010000
00000000
00001000
00010000
00001000
00000000
00010000
00000000
01000000
00000000
10000000
01000000
00010000
00000000
01000000
00000000
,
10000000
01000000
10000000
01000000
10000000
00000000
00100000
00000000
00001000
00010000
00001000
00010000
00001000
00000000
00000010
00000000
,
00000100
00000001
00000100
00000001
00000100
00000000
00000010
00000000
00001000
00010000
00001000
00010000
00001000
00000000
00100000
00000000
,
10000000
01000000
10000000
01000000
10000000
00000000
00100000
00000000
00001000
01000000
00001000
01000000
00001000
00000000
00100000
00000000
,
00001000
00000000
00000000
00000100
00000000
00000000
00000010
00000000
00000000
00000000
00000000
00000000
00000010
00000000
00000000
00000100
00000000
00000000
00001000
00000000
00000000
00000000
00000000
00000000
00001000
00000000
00000000
00000000
00010000
00000000
00000000
00000000
00001000
00000000
00000000
00000000
00011000
00000000
00000000
00000000
00000000
00000000
00000000
00000000
00000000
00000000
00000000
00000000
,
00100000
00010000
00100000
00010000
00100000
00001000
00100000
00001000
00010000
00001000
00010000
00001000
00010000
00000100
00010000
00000100
,
00001000
00000010
00001000
00000010
00000100
00000001
00000100
00000001
00000100
00000010
00000100
00000010
00001000
00000010
00000100
00000000
,
00000010
00001000
00000010
00001000
00000100
00010000
00000100
00010000
00001000
01000000
00001000
00100000
00010000
01000000
00010000
00100000
,
00010000
10000000
01000000
10000000
00100000
10000000
01000000
00100000
01000000
00010000
01000000
00001000
01000000
00010000
00100000
00001000
,
00010000
00000100
00010000
00000100
00010000
00001000
00100000
00001000
00100000
00001000
01000000
00001000
00100000
00001000
00010000
00001000
,
00100000
00001000
00100000
00001000
00010000
00001000
01000000
00010000
01000000
00100000
01000000
00010000
01000000
00100000
01000000
00001000
,
00100000
00001000
00010000
00000100
00001000
00000010
00000100
00000010
00000100
00001000
00000001
00000100
00000010
00000100
00001000
00000010
,
00000100
00000000
00000000
00001000
00000000
00000000
00010000
00000000
00000000
00000000
00000000
00000000
00010000
00000000
00000000
00001000
00000000
00000000
00000100
00000000
00000000
00000000
00000000
00000000
00100000
00000000
00000000
00000000
00001000
00000000
00000000
00000000
00010000
00000000
00000000
00000000
00010100
00000000
00000000
00000000
00000000
00000000
00000000
00000000
00000000
00000000
00000000
00000000
,
00000011
00000100
00001000
00010000
11000000
00100000
00010000
00000100
00000011
00001100
00110000
11000000
,
20000000
30100000
00011000
00000110
00000002
00000013
00001100
00110000
,
10010000
00000000
01100000
00000000
01100000
00000000
10010000
MMMMMMMM
00001001
00000000
00000110
00000000
00000110
00000000
00001001
00000000
;

//---------------dance-single - ----------------
#NOTES:
     dance-single:
     :
     Hard:
     14:
     0.641,0.898,0.418,0.129,0.462: // measure 1
0000
0000
0000
0000
,  // measure 2
0000
0000
0000
0000
,  // measure 3
0000
0000
0000
0000
,  // measure 4
0000
0000
1000
0100
0000
0000
0100
0000
0000
0000
0001
0010
0000
0000
0010
0000
,  // measure 5
0000
0000
1000
0100
0000
0000
0100
0000
0110
0000
1001
0000
0110
0000
0000
0000
,  // measure 6
0000
0000
1000
1000
0000
0000
0001
0000
0000
0000
0100
0100
0000
0000
0010
0000
,  // measure 7
0000
0000
0100
0100
0000
0000
0001
0000
0000
0000
0010
0010
0000
0000
1000
0000
,  // measure 8
0000
0000
0001
0001
0000
0000
1000
0000
0000
0000
0100
0100
0000
0000
0100
0000
,  // measure 9
0000
0000
0000
0000
0000
0000
0001
0000
0000
1000
0000
0000
0000
0000
0000
0000
0000
0000
0110
0000
0000
0000
0000
0000
1000
0000
0000
0000
0001
0000
0000
0000
1000
0000
0000
0000
0001
0000
0000
0000
0000
0000
0000
0000
0000
0000
0000
0000
,  // measure 10
1000
0100
0000
1000
0100
0000
0001
0000
0100
0000
1000
0000
0100
0000
0000
0000
,  // measure 11
0001
0001
0100
1000
0110
0110
1001
0000
,  // measure 12
0001
0100
0000
0001
0100
0000
1000
0000
0100
0000
0001
0000
0100
0000
0000
0000
,  // measure 13
1000
1000
0100
0001
0110
0110
1001
0000
,  // measure 14
0010
0100
0000
0010
0100
0000
0010
0000
1000
0000
0100
0000
0001
0000
0100
0000
,  // measure 15
1000
1000
0001
0100
0100
0001
0010
0010
,  // measure 16
1000
0000
0100
0000
0010
0000
0001
0100
0000
0100
0000
0001
0000
0100
0001
0000
,  // measure 17
1000
0001
1000
0000
0001
1000
0000
0000
0110
0000
0110
0000
0110
0000
0000
0000
,  // measure 18
1000
0100
0000
1000
0100
0000
0001
0000
0100
0000
0001
0000
0100
0000
0000
0000
,  // measure 19
0001
1000
0001
0000
0010
0000
0010
0000
0010
0000
0001
1000
0001
0000
0000
0000
,  // measure 20
0001
0100
0000
0001
0100
0000
1000
0000
0100
0000
1000
0000
0100
0000
0000
0000
,  // measure 21
0010
0100
0010
0000
1000
0000
0001
0000
1000
0000
0010
0100
0010
0000
0000
0000
,  // measure 22
1000
0100
0000
1000
0100
0000
0001
0000
0001
0000
0100
0000
0100
0000
0010
0000
,  // measure 23
0010
1000
0010
0000
0100
0001
0100
0001
0100
0000
0010
0000
1000
0000
0100
0000
,  // measure 24
0001
0001
1000
1000
0010
0010
0100
0100
,  // measure 25
1000
0000
0000
0100
0000
0000
1000
0000
0000
0000
0000
0000
0001
0000
0000
0100
0000
0000
0001
0000
0000
0000
0000
0000
1000
0000
0000
0000
0001
0000
0000
0000
1000
0000
0000
0000
0001
0000
0000
0000
0000
0000
0000
0000
0000
0000
0000
0000
,  // measure 26
1000
0100
0002
0000
1003
0100
0002
0000
,  // measure 27
1003
0000
0100
0000
0001
0001
0000
1000
1000
0000
0001
0000
2002
0000
3003
0000
,  // measure 28
0100
0000
0000
0010
0100
0000
0010
0000
0001
0000
0100
0000
1000
0000
0000
0000
,  // measure 29
0010
0000
0000
0100
0010
0000
1000
0000
0100
0000
0001
0000
0100
0000
0000
0000
,  // measure 30
1000
0000
0000
0001
1000
0000
0100
0000
0001
0000
0100
0000
1000
0000
0000
0000
,  // measure 31
2000
3020
0230
0302
,  // measure 32
0013
0000
0000
0001
1000
0000
0100
0000
0001
0000
0100
0000
1000
0000
0000
0000
,  // measure 33
0010
0000
0000
1000
0100
0000
0001
0000
0100
0000
1000
0000
0100
0000
0000
0000
,  // measure 34
0001
0000
0000
0010
0001
0000
0010
0000
0100
0000
1000
0000
1100
0000
0000
0000
,  // measure 35
1200
0320
0032
0203
,  // measure 36
0310
0000
0000
0110
0000
0000
0100
0000
0001
0000
0000
1001
0000
0000
1000
0000
,  // measure 37
0100
0000
0110
0000
0110
0000
1001
0000
0000
0110
0000
0000
,  // measure 38
1000
0000
0000
1100
0000
0000
0100
0000
0010
0000
0000
0011
0000
0000
0001
0000
,  // measure 39
0010
0000
0110
0000
1001
0000
0110
0000
0000
0000
0000
0000
,  // measure 40
0010
0000
0000
1000
0000
0000
0100
0000
0100
0000
0000
0001
0000
0000
0010
0000
,  // measure 41
0010
0000
0000
0001
0000
0000
0100
0000
0100
0000
0000
1000
0000
0000
0010
0000
,  // measure 42
0100
0001
0100
0001
0100
1000
0100
1000
,  // measure 43
0010
0001
0000
0100
0001
0000
1000
0001
0000
1000
0010
0000
1000
0000
0100
0000
,  // measure 44
1001
0000
0000
0010
1000
0100
0001
0100
,  // measure 45
1000
0000
0010
0100
0010
0000
0100
0010
0100
0000
1001
0000
1001
0000
0000
0000
,  // measure 46
0010
0000
0100
0001
0100
0000
0010
0000
1000
0000
0100
1000
0100
0000
0010
0000
,  // measure 47
1000
0000
0001
1000
0001
0000
1001
0000
0010
0000
0100
0010
0100
0000
1000
0000
,  // measure 48
0001
0000
0100
0001
0100
0000
0001
0000
1000
0000
0100
1000
0100
0000
1000
0000
,  // measure 49
0001
0000
0100
1000
0100
0000
0010
0000
0001
0000
0010
0100
0010
0000
0001
0000
,  // measure 50
1000
0000
0100
0010
0100
0000
0001
0000
0001
0010
0000
0001
0010
0000
0100
0000
,  // measure 51
0001
0000
0010
0100
0010
0000
1000
0000
1000
0100
0000
0010
0100
0000
0010
0000
,  // measure 52
0100
0000
1000
0100
1000
0000
0100
0000
0001
0000
0010
0001
0010
0000
0001
0000
,  // measure 53
1000
0000
0000
0100
0000
0000
1000
0000
0000
0000
0000
0000
0010
0000
0000
0001
0000
0000
0010
0000
0000
0000
0000
0000
0010
0000
0000
0000
0100
0000
0000
0000
0100
0000
0000
0000
1001
0000
0000
0000
0000
0000
0000
0000
0000
0000
0000
0000
,  // measure 54
0100
0000
0100
1000
0100
0000
0100
0000
0001
0000
0001
0010
0001
0000
0010
0000
,  // measure 55
0001
0000
1000
0001
1000
0000
0001
0000
0100
0010
0100
0000
0010
0000
0001
0000
,  // measure 56
1000
0000
0010
1000
0010
0000
1000
0000
0001
0000
0010
0001
0010
0000
0001
0000
,  // measure 57
1000
0000
0010
1000
0010
0000
0001
0100
0001
0000
0100
0000
0001
0000
1000
0000
,  // measure 58
0100
0000
0010
0100
0010
0000
1000
0000
1000
0100
0000
1000
0100
0000
0010
0000
,  // measure 59
1000
0000
1000
0010
1000
0000
0001
0000
0001
0100
0000
0100
0001
0000
0100
0000
,  // measure 60
0010
0100
0010
0000
0100
0000
0001
0000
1000
0010
1000
0000
0010
0000
0100
0000
,  // measure 61
0001
0000
0000
0010
0000
0000
0001
0000
0000
0000
0000
0000
0100
0000
0000
1000
0000
0000
0100
0000
0000
0000
0000
0000
1001
0000
0000
0000
0100
0000
0000
0000
0010
0000
0000
0000
1001
0000
0000
0000
0000
0000
0000
0000
0000
0000
0000
0000
,  // measure 62
2001
3100
0010
0001
0120
1030
0011
0100
0011
1100
1100
0011
,  // measure 63
2001
3100
0010
0001
0120
1030
0011
0100
,  // measure 64
0011
1100
1100
0011
0011
1100
1100
0011
;

//---------------dance-double - ----------------
#NOTES:
     dance-double:
     :
     Hard:
     14:
     0.623,0.744,0.618,0.088,0.325:
00000000
00000000
00000000
00000000
,
00000000
00000000
00000000
00000000
,
00000000
00000000
00000000
00000000
,
00000000
00000000
00001100
00000000
00000000
00000000
00010100
00000000
00000000
00000000
00010000
00000100
00000000
00000000
00001100
00000000
,
00000000
00000110
00000000
00001000
00000001
00001001
00001001
00000000
,
00000100
00000000
00010000
00000100
00000000
00000000
00011000
00000000
00000000
00000000
00000100
00010000
00000000
00000000
00011000
00000000
,
00000000
00000000
00100000
00001000
00000000
00000000
00011000
00000000
00000000
00000000
00001000
00100000
00000000
00000000
00011000
00000000
,
00000000
00000000
00000100
00010000
00000000
00000000
00011000
00000000
00000000
00000000
00100000
00001000
00000000
00000000
00011000
00000000
,
00000000
00000000
00000000
00000000
00000000
00000000
00010000
00000000
00000000
00001000
00000000
00000000
00000000
00000000
00000000
00000000
00000000
00000000
00101000
00000000
00000000
00000000
00000000
00000000
00010000
00000000
00000000
00000000
00001000
00000000
00000000
00000000
00010000
00000000
00000000
00000000
00001000
00000000
00000000
00000000
00000000
00000000
00000000
00000000
00000000
00000000
00000000
00000000
,
00001000
00100000
00000000
00100000
00001000
00000000
00010000
00000000
01000000
00000000
10000000
00000000
01000000
00000000
00000000
00000000
,
10000000
00100000
00001000
00100000
10000000
00010000
10010000
00000000
,
10000000
01000000
00000000
01000000
10000000
00000000
01000000
00000000
00100000
00000000
00001000
00000000
00010000
00000000
00000000
00000000
,
00010000
00000100
00000010
00000100
00010000
00011000
00011000
00000000
,
00000100
00000001
00000000
00000001
00000100
00000000
00000010
00000000
00001000
00000000
00010000
00000000
00001000
00000000
00000100
00000000
,
00001000
00000010
00001000
00000001
00001000
00000010
00000100
00001000
,
00000010
00000000
00000100
00000000
00001000
00000000
00000000
00000100
00000000
00001000
00000000
00010000
00000000
00000000
00100000
00000000
,
10000000
01000000
10000000
00000000
00100000
00001000
00000000
00010000
00011000
00000000
00011000
00000000
00011000
00000000
00000000
00000000
,
00000100
00000010
00000000
00000000
00000110
00000000
00000000
00000000
00000001
00000000
00000100
00000000
00001000
00000000
00000000
00000000
,
00000010
00010000
00000010
00010000
00001000
00100000
00011000
00000000
,
00100000
00010000
00000000
00000000
10010000
00000000
00000000
00000000
01000000
00000000
00001000
00000000
01000000
00000000
00000000
00000000
,
10000000
00010000
10000000
00010000
10000000
01000000
11000000
00000000
,
00100000
00001000
00000000
00010000
00000100
00000000
00010000
00000000
00001000
00000000
00100000
00010000
00100000
00000000
00010000
00000000
,
01000000
00100000
01000000
00000000
00010000
00000000
10000000
00000000
00100000
00000000
00001000
00000000
00010000
00000000
00000100
00000000
,
00001000
00000100
00000011
00000000
00000001
00001000
00001100
00000000
,
00000100
00000000
00000000
00010000
00000000
00000000
00001000
00000000
00000000
00100000
00000000
00000000
00010000
00000000
00010000
00000000
00010000
00000000
10010000
00000000
00000000
00000000
00000000
00000000
,
10000000
01000000
00200000
00000000
00301000
00010000
00000200
00000000
,
00001300
00000000
00000010
00000000
00000001
00000100
00000000
00000010
00010000
00000000
00001000
00000000
00022000
00000000
00033000
00000000
,
02000000
00000000
00000000
00000000
03010000
00000000
00100000
00000000
00010000
00000000
00001000
00010000
00001000
00000000
00000000
00000000
,
00000200
00000000
00000000
00000000
00010300
00000000
00001000
00000000
00100000
00000000
00010000
00100000
00010000
00000000
00000000
00000000
,
20000000
00000000
00000000
00000000
30100000
00000000
01000000
00000000
00001000
00000000
00010000
00001000
00010000
00000000
00000000
00000000
,
00001100
00011000
01010000
10100000
,
21000000
00000000
00000000
00000000
30100000
00000000
01000000
00000000
00100000
00000000
00010000
00000100
00010000
00000000
00001000
00000000
,
00002100
00000000
00000000
00000000
00003010
00000000
00000001
00000000
00000100
00000000
00000001
00001000
00000001
00000000
00000100
00000000
,
00021000
00000000
00000000
00000000
00031000
00000000
00100000
00000000
00010000
00000000
01000000
10000000
01000000
00000000
00000000
00000000
,
11000000
01001000
00011000
00010010
,
00000101
00000000
00000000
00000010
00000000
00000000
00001000
00000000
00000100
00000000
00000000
00010000
00000000
00000000
00001000
00000000
,
01010000
00000000
10010000
00000000
10100000
00000000
10010000
00000000
00000000
00000000
00000000
00000000
,
10100000
00000000
00000000
01000000
00000000
00000000
00010000
00000000
00100000
00000000
00000000
00001000
00000000
00000000
00010000
00000000
,
00001010
00000000
00001001
00000000
00000101
00000000
00001001
00000000
00000000
00000000
00000000
00000000
,
00000100
00000000
00000000
00010100
00000000
00000000
00010000
00000000
00001000
00000000
00000000
00101000
00000000
00000000
00100000
00000000
,
00010000
00000000
00000000
01010000
00000000
00000000
01000000
00000000
00100000
00000000
00000000
10100000
00000000
00000000
10000000
00000000
,
01000000
10000000
01000000
00010000
00100000
00001000
00010000
00000100
,
00001000
00000010
00000000
00001000
00010000
00000000
00001000
00000010
00000000
00001000
00010000
00000000
00001000
00000010
00001000
00000010
,
00002000
00000000
00000000
00013000
00001000
00000010
00001000
00010000
,
00101000
00010000
00001100
00010000
00101000
00010100
00101000
00000000
,
10000000
00100000
00001000
00100000
10000000
00100000
00001000
00100000
,
00010000
00000100
00010000
00100000
00010000
00000100
00010000
00100000
,
00001000
00000010
00001000
00010000
00001000
00000010
00001000
00010000
,
00001000
01000000
00001000
00000100
00001000
01000000
00001000
00000100
,
00001000
00100000
00010000
00100000
00001000
00100000
00010000
00100000
,
00001000
00010000
00000100
00010000
00001000
00010000
00000100
00000010
,
00001000
00010000
00001000
00000010
00001000
00010000
00001000
00000010
,
00001000
00000000
00000000
00000100
00000000
00000000
00000010
00000000
00000000
00000000
00000000
00000000
00000001
00000000
00000000
00000100
00000000
00000000
00000010
00000000
00000000
00000000
00000000
00000000
00001100
00000000
00000000
00000000
00000101
00000000
00000000
00000000
00000101
00000000
00000000
00000000
00001100
00000000
00000000
00000000
00000000
00000000
00000000
00000000
00000000
00000000
00000000
00000000
,
00001000
00000000
00001000
00100000
00010000
00000000
00010000
01000000
00100000
00000000
00100000
10000000
01000000
00000000
01000000
10000000
,
00100000
00000000
01000000
00010000
00100000
00000000
00100000
00001000
00010000
00000000
00001000
00000000
00010000
00000000
00000100
00000000
,
00001000
00000010
00000100
00000001
00000100
00000010
00000100
00000001
,
00000100
00000010
00001000
00000100
00010000
00001000
00100000
00010000
,
10000000
00000000
00010000
01000000
00100000
00000000
01000000
00100000
10000000
00000000
10000000
00100000
01000000
00000000
01000000
00010000
,
00100000
00001000
00010000
00000010
00001000
00000010
00010000
00000010
,
00010000
00001000
00100000
00001000
00010000
00000100
00010000
00001000
,
00010000
00000000
00000000
00001000
00000000
00000000
00000100
00000000
00000000
00000000
00000000
00000000
00100000
00000000
00000000
00010000
00000000
00000000
00001000
00000000
00000000
00000000
00000000
00000000
11000000
00000000
00000000
00000000
01010000
00000000
00000000
00000000
01010000
00000000
00000000
00000000
11000000
00000000
00000000
00000000
00000000
00000000
00000000
00000000
00000000
00000000
00000000
00000000
,
00001000
00000100
00000010
00000000
00000001
00000100
00000010
00000000
00001100
00000101
00000101
00001100
,
00010000
00001000
00000100
00000000
00100000
00010000
00001000
00000000
,
11000000
01010000
01010000
11000000
00001100
00000101
00000101
00001100
;

//---------------dance-single - ----------------
#NOTES:
     dance-single:
     :
     Beginner:
     3:
     0.156,0.179,0.016,0.000,0.004:
0000
0000
0000
0000
,
0000
0000
0000
0000
,
0000
0000
0000
0000
,
0000
0000
0000
0000
,
0000
0000
0000
0000
,
0000
0010
0000
0010
,
0000
0010
0000
0010
,
0000
0100
0000
0100
,
0000
0100
0100
0000
,
0010
0000
0010
0000
,
0100
0100
0100
0000
,
0010
0000
0010
0000
,
0100
0100
0100
0000
,
0001
0000
0001
0000
,
1000
1000
1000
0000
,
0001
0000
0001
0000
,
1000
0000
1000
1000
,
0000
0100
0000
0100
,
0000
0100
0000
0100
,
0000
0001
0000
0001
,
0000
0001
0000
0001
,
0000
1000
0000
1000
,
0000
0010
0000
0010
,
0000
0100
0000
0100
,
0100
0000
0100
0000
,
0010
0000
0010
0000
,
0010
0010
0010
0000
,
0100
0000
0100
0100
,
0100
0000
0001
0001
,
0001
0000
1000
0000
,
0010
0010
0010
0000
,
0100
0000
0100
0100
,
0100
0000
0001
0001
,
0001
0000
1000
0000
,
0010
0010
0010
0000
,
0100
0000
0100
0000
,
0010
0000
0010
0000
,
0100
0000
0100
0000
,
0010
0000
0010
0000
,
1000
0000
0001
0000
,
1000
0000
0001
0000
,
1000
0000
1000
0000
,
1000
1000
1000
1000
,
1000
0000
0001
0000
,
0010
0010
0010
0000
,
1000
0000
1000
0000
,
0001
0000
0001
0000
,
1000
0000
1000
0000
,
0010
0000
0010
0000
,
0100
0000
0100
0000
,
0001
0000
0001
0000
,
0100
0000
0100
0000
,
0010
0000
0010
0010
,
0010
0000
0100
0000
,
0001
0000
1000
0000
,
0010
0000
0100
0000
,
0001
0000
1000
0000
,
0100
0000
0010
0000
,
0001
0000
1000
0000
,
0100
0000
0010
0000
,
0001
0000
1000
1000
,
1000
0000
0000
0000
0000
0000
0000
0000
1000
0000
0000
0000
,
1000
0000
1000
0000
,
1001
0000
1001
0000
;

//---------------dance-double - ----------------
#NOTES:
     dance-double:
     :
     Easy:
     8:
     0.333,0.359,0.225,0.361,0.012:
00000000
00000000
00000000
00000000
,
00000000
00000000
00000000
00000000
,
00000000
00000000
00000000
00000000
,
00000000
00000000
00000000
00000000
,
00000000
00000000
00000000
00000000
,
00000000
00010000
00000000
00010000
00000000
00000100
00000000
00000100
,
00000000
00010000
00000000
00010000
00000000
01000000
00000000
01000000
,
00000000
00010000
00000000
00010000
00000000
00000010
00000000
00000010
,
00000000
00010000
00000000
00010000
00001000
00000000
00011000
00000000
,
00100000
00000000
00100000
00000000
00010000
00010000
00010000
00000000
,
01000000
00000000
01000000
00000000
00001000
00001000
00001000
00000000
,
00010000
00000000
00010000
00000000
00000100
00000100
00000100
00000000
,
00001000
00000000
00001000
00000000
00000001
00000001
00000001
00000000
,
00000010
00001000
00000100
00010000
,
00001000
01000000
00100000
10000000
,
02000000
03000000
00002000
00003000
,
00010000
00000000
00001000
00000000
00010000
00010000
00010000
00000000
,
00000010
00001001
00000100
00001001
,
00000010
00010000
00001000
00010000
,
01000000
10010000
01000000
10010000
,
01000000
00001000
00010000
00001000
,
00000010
00000110
00000010
00000110
,
00001000
00101000
00001000
00101000
,
00200000
00310000
20000000
31000000
,
00200000
01300000
01100000
10010000
,
00000000
00000000
00000000
00000000
,
00000000
00000000
00000000
01100000
,
20000000
00000000
30010000
00010000
,
00000200
00000000
00010300
00010000
,
20000000
00000000
30010000
00010000
,
00000100
00010000
00000100
00000000
,
00000002
00000000
00000103
00000100
,
00020000
00000000
00030100
00000100
,
00000002
00000000
00000103
00000100
,
00010000
00001000
00000200
00000000
,
00110300
00000000
00011000
00000000
,
00001100
00000000
00110000
00000000
,
11000000
00000000
01100000
00000000
,
00110000
00000000
01100000
00000000
,
00200000
00000000
00302000
00000000
,
00023000
00000000
00030200
00000000
,
00000320
00000032
00000203
00002300
,
00003100
00000100
00010000
00010000
00001000
00001000
00100000
00100000
,
00020000
00000000
00031000
00000000
,
00011000
00101000
00110000
00000000
,
20000000
30010000
20000000
30010000
,
00200000
00301000
00200000
00301000
,
00000020
00001030
00000020
00001030
,
00000200
00010300
00000200
00010300
,
00002000
00103000
00020000
00130000
,
00002000
00103000
00020000
00130000
,
00002000
00003100
00002000
00003010
,
00000200
00000000
00000310
00001001
,
00000020
00001000
00000100
00001030
,
00000200
00010000
00001000
00010300
,
00000020
00000130
00000200
00000310
,
00002000
00003001
00000002
00001003
,
00000200
00010000
00001000
00010300
,
00020000
00001000
00000100
00031000
,
00010000
01000000
00100000
01000000
,
00020000
00000000
10030000
10010000
,
00100000
00000000
00000000
00000000
01100000
00000000
00000000
00000000
10010000
00000000
00000000
10010000
,
00100000
00000000
00001000
00001000
00001000
00000000
00100000
00100000
,
00100000
00001000
00000100
00000001
00000001
00000100
00001000
00100000
;

//---------------dance-single - ----------------
#NOTES:
     dance-single:
     :
     Easy:
     7:
     0.325,0.385,0.273,0.345,0.020:
0000
0000
0000
0000
,
0000
0000
0000
0000
,
0000
0000
0000
0000
,
0000
0000
0000
0000
,
0000
0000
0000
0000
,
0000
0001
0000
0100
0000
0001
0000
0001
,
0000
0100
0000
0001
0000
0100
0000
0010
,
0000
0001
0000
0001
0000
0100
0000
0001
,
0000
0100
0000
0010
1000
0000
0011
0000
,
1000
0000
0100
0000
0001
1000
1000
0000
,
1000
0000
0100
0000
0010
1000
1000
0000
,
0100
0000
0010
0000
0010
1000
1000
0000
,
0010
0000
0100
0000
0100
0010
0100
0000
,
0100
1000
1000
1000
,
0010
0001
0100
0100
,
0200
0300
2000
3000
,
0001
0000
1000
0000
0010
0001
0001
0000
,
0100
1001
0100
0011
,
1000
0001
1000
0010
,
0001
1001
0001
1010
,
0010
1000
0001
0010
,
0100
1001
1000
1100
,
0010
0110
0001
1001
,
0020
0030
2000
3000
,
0020
0130
0110
0110
,
0000
0000
0000
0000
,
0000
0000
0000
1010
,
2000
0000
3010
0010
,
0200
0000
0301
0010
,
2000
0000
3010
0010
,
0100
0100
0001
0000
,
0002
0000
0103
0001
,
0002
0000
0103
0100
,
0002
0000
1003
1000
,
0001
1000
0200
0300
,
1001
0000
1001
0000
,
0110
0000
1001
0000
,
1100
0000
1100
0000
,
0110
0000
0101
0000
,
0020
0000
2030
0000
,
3002
0000
0203
0000
,
0320
0032
0203
2300
,
3001
0000
0000
0001
0000
0000
0001
0000
0000
0001
0000
0000
0001
0000
0000
0000
,
0002
0000
1003
0000
,
1010
1100
1010
0000
,
2000
3100
2000
3001
,
0020
1030
0020
0130
,
0020
0030
0020
1030
,
0200
1300
0200
0300
,
2000
3000
0002
0003
,
2000
3100
0002
0103
,
2000
3010
2000
3100
,
0100
0000
1010
0101
,
0020
1000
0100
1030
,
0200
0010
0001
0310
,
0020
1030
0200
0301
,
2000
3100
0002
1003
,
0200
0010
0010
0310
,
0002
0100
0100
0103
,
1001
0000
1001
0000
,
1001
0000
1001
1001
,
1001
0000
0000
0000
1001
0000
0000
0000
0110
0000
0000
1100
,
0001
1000
0001
0000
1000
0001
1000
0000
,
0001
1000
1000
0001
0100
0010
0010
0100
;

//---------------dance-double - ----------------
#NOTES:
     dance-double:
     :
     Medium:
     11:
     0.482,0.462,0.426,0.321,0.100:
00000000
00000000
00000000
00000000
,
00000000
00000000
00000000
00000000
,
00000000
00000000
00000000
00000000
,
00000000
00001100
00000000
00001100
00000000
00001100
00000000
00001100
,
00000000
00011000
00000000
00001000
00100000
00001000
00100000
00000000
,
00000000
01100000
00000000
01100000
00000000
01010000
00000000
01010000
,
00000000
00010100
00000000
00010100
00000000
00001100
00000000
00001100
,
00000000
00000011
00000000
00000011
00000000
00000110
00000000
00000110
,
00000000
00001100
00000000
00010000
00000100
00010000
00000100
00000000
,
00100000
00000000
00100000
00010000
00100000
00010000
00100000
00000000
,
00001000
00010000
00001000
00010000
00001000
00010000
00001000
00000000
,
00000010
00000000
00000100
00000010
00000100
00000010
00000100
00000000
,
00000001
00000100
00001000
00000100
00000001
00000001
00000001
00000000
,
00001000
00000000
00010000
00001000
00010000
00001000
00010000
00000000
,
00100000
01000000
00100000
01000000
00100000
10000000
00100000
00000000
,
10000000
01000000
00100000
00010000
,
10000000
01000000
00100000
00010000
10010000
10010000
10010000
00000000
,
01000000
00100000
01000000
00000000
00001000
00010000
00001000
00000000
,
00000010
00000100
00000010
00000100
00000010
00000100
00000010
00000000
,
00001000
00000001
00001000
00000000
00000100
00010000
00000100
00000000
,
00100000
00010000
00100000
00010000
00100000
00010000
00100000
00000000
,
10000000
01000000
10000000
00000000
00010000
00100000
00010000
00000000
,
00001000
00000100
00001000
00000000
00000001
00000100
00000001
00000000
,
00000020
00001030
00000200
00010300
,
00002000
00010000
00013000
00011000
,
00100000
00100000
00200000
00000000
01300000
01000000
02000000
00000000
,
03010000
00000000
00100000
00000000
00001000
00001000
00011000
00000000
,
00000220
00000000
00000000
00000000
00000330
00000000
00000000
00000000
00000011
00000000
00000010
00001000
00000010
00000000
00000000
00000000
,
00022000
00000000
00000000
00000000
00033000
00000000
00000000
00000000
00010000
00000000
00010000
00001000
00010000
00000000
00000000
00000000
,
02200000
00000000
00000000
00000000
03300000
00000000
00000000
00000000
00010000
00000000
00010000
10000000
00010000
00000000
00000000
00000000
,
02000000
03002000
00023000
00030000
,
02200000
00000000
00000000
00000000
03300000
00000000
00000000
00000000
11000000
00000000
01000000
00010000
01000000
00000000
00000000
00000000
,
00022000
00000000
00000000
00000000
00033000
00000000
00000000
00000000
00001000
00000000
00001000
00010000
00001000
00000000
00000000
00000000
,
00000220
00000000
00000000
00000000
00000330
00000000
00000000
00000000
00001000
00000000
00001000
00000001
00001000
00000000
00000000
00000000
,
00020000
00032000
00203000
00300000
,
10010000
00000000
01100000
00000000
,
11000000
00000000
01100000
00000000
00110000
00000000
00011000
00000000
00000000
00000000
00000000
00000000
,
00001001
00000000
00000110
00000000
,
00001001
00000000
00010100
00000000
00101000
00000000
10010000
00000000
00000000
00000000
00000000
00000000
,
01000000
00000000
00000000
00100000
00000000
00000000
00010000
00000000
01000000
00000000
00000000
00100000
00000000
00000000
00001000
00000000
,
00010000
00000000
00000000
00000100
00000000
00000000
00001000
00000000
00010000
00000000
00000000
00000100
00000000
00000000
00001000
00000000
,
00000200
00000302
00000023
00002030
,
00003100
00000000
00000000
00010100
00000000
00000000
00101000
00000000
00000000
00011000
00000000
00000000
00101000
00000000
00000000
00000000
,
00020000
00000000
00031000
00001000
00010000
00010000
00001000
00100000
,
00100000
00000000
00101000
00000000
00010000
00001000
00011000
00000000
,
00002000
00003010
00000200
00000301
,
00000200
00010300
00002000
00103000
,
00200000
10300000
02000000
03010000
,
10000000
01000000
00010000
01000000
10000000
01000000
00010000
00000000
,
00020000
00030100
00020000
00130000
,
00020000
00030100
00020000
00130000
,
00011000
00010100
00011000
00101000
,
00010000
00000000
00000000
00001000
00000000
00000000
00010000
00000000
00000000
00001000
00000000
00000000
00010000
00000000
00001000
00000000
00010000
00000000
00001000
00000000
00000000
00000000
00000000
00000000
,
01000000
00010000
01000000
00000000
01000000
10000000
01000000
00000000
,
00100000
00001000
00100000
00000000
00100000
10000000
00100000
00000000
,
01000000
00010000
01000000
00000000
01000000
00001000
01000000
00000000
,
00010000
00000100
00010000
00000000
00010000
00100000
00010000
00000000
,
00000100
00010000
00000100
00000000
00000100
00000001
00000100
00000000
,
00000010
00010000
00000010
00000000
00000010
00000001
00000010
00000000
,
00000100
00010000
00001000
00000000
00001000
00100000
00010000
00000000
,
10000000
00000000
00000000
01000000
00000000
00000000
00100000
00000000
00000000
00010000
00000000
00000000
10000000
00000000
01000000
00000000
00100000
00000000
00010000
00000000
00000000
00000000
00000000
00000000
,
00001000
00000000
00000100
00000000
00000010
00000000
00000001
00000000
00001000
00000100
00000010
00000001
,
00010000
00001000
00001000
00001000
00010000
01000000
01000000
01000000
,
00200000
01000000
01000000
01300000
00000020
00000100
00000100
00000130
;

//---------------dance-single - ----------------
#NOTES:
     dance-single:
     :
     Medium:
     11:
     0.492,0.462,0.410,0.321,0.100:
0000
0000
0000
0000
,
0000
0000
0000
0000
,
0000
0000
0000
0000
,
0000
1100
0000
1100
0000
1100
0000
1100
,
0000
1001
0000
1000
0010
1000
0010
0000
,
0000
0110
0000
0110
0000
0101
0000
0101
,
0000
0101
0000
0101
0000
1100
0000
1100
,
0000
0011
0000
0011
0000
0110
0000
0110
,
0000
1100
0000
0001
0100
0001
0100
0000
,
0010
0000
0010
0001
0010
0001
0010
0000
,
1000
0001
1000
0001
1000
0001
1000
0000
,
0010
0000
0100
0010
0100
0010
0100
0000
,
0001
0100
1000
0100
0001
0001
0001
0000
,
0100
0000
1000
0100
1000
0100
1000
0000
,
0010
0001
0010
0001
0010
0100
0010
0000
,
1000
0100
0010
0001
,
1000
0100
0010
0001
1001
1001
1001
0000
,
0001
0010
0001
0000
0100
1000
0100
0000
,
0010
0001
0010
0001
0010
0001
0010
0000
,
0100
1000
0100
0000
0001
1000
0001
0000
,
0010
1000
0010
1000
0010
1000
0010
0000
,
0100
0001
0100
0000
1000
0010
1000
0000
,
0100
0001
0100
0000
1000
0001
1000
0000
,
0020
1030
0200
0301
,
2000
0001
3001
1001
,
0010
0010
0020
0000
0130
0100
0200
0000
,
0301
0000
0010
0000
1000
1000
1001
0000
,
0220
0000
0000
0000
0330
0000
0000
0000
0010
0000
0010
1000
0010
0000
0000
0000
,
2002
0000
0000
0000
3003
0000
0000
0000
0001
0000
0001
1000
0001
0000
0000
0000
,
0220
0000
0000
0000
0330
0000
0000
0000
0001
0000
0001
1000
0001
0000
0000
0000
,
0200
2300
3002
0003
,
0220
0000
0000
0000
0330
0000
0000
0000
0100
0000
0100
0001
0100
0000
0000
0000
,
2002
0000
0000
0000
3003
0000
0000
0000
1000
0000
1000
0001
1000
0000
0000
0000
,
0220
0000
0000
0000
0330
0000
0000
0000
1000
0000
1000
0001
1000
0000
0000
0000
,
0002
2003
3020
0030
,
1001
0000
0110
0000
,
1100
0000
0110
0000
0011
0000
1001
0000
0000
0000
0000
0000
,
1001
0000
0110
0000
,
1001
0000
0110
0000
1001
0000
0110
0000
0000
0000
0000
0000
,
0100
0000
0000
1000
0000
0000
0010
0000
0100
0000
0000
1000
0000
0000
0001
0000
,
0010
0000
0000
0100
0000
0000
0001
0000
0010
0000
0000
0100
0000
0000
0001
0000
,
0200
0302
0023
0032
,
0103
0000
0000
0110
0000
0000
1001
0000
0000
0011
0000
0000
1001
0000
0000
0000
,
0020
0000
0000
0031
1000
0010
1000
0000
,
1000
0000
1001
0000
0010
0001
0011
0000
,
0002
0013
0200
0301
,
0200
0310
0002
1003
,
2000
3100
0200
0310
,
0100
0001
0010
0001
0100
0001
0010
0000
,
0020
0130
0020
1030
,
0020
0130
0020
1030
,
0011
0110
0011
1001
,
0010
0000
0000
0001
0000
0000
0010
0000
0000
0001
0000
0000
0010
0000
0001
0000
0010
0000
0001
0000
0000
0000
0000
0000
,
1000
0010
1000
0010
1000
0001
1000
0001
,
0100
1000
0100
0001
0100
0001
0100
0001
,
1000
0010
1000
0010
1000
0001
1000
0001
,
0010
0001
0010
0001
0010
0100
0010
0100
,
0001
0010
0001
0100
0001
1000
0001
0100
,
0010
0100
0010
0001
0010
1000
0010
0100
,
0001
0100
0001
0100
0001
0100
1000
0000
,
0100
0000
0000
0001
0000
0000
1000
0000
0000
0001
0000
0000
0100
0000
0010
0000
1000
0000
0001
0000
0000
0000
0000
0000
,
0100
0000
0010
0000
1000
0000
0001
0000
0100
0010
1000
0001
,
0100
0010
0010
0010
0100
0010
0010
0010
,
2000
0010
0010
3010
0002
0010
0010
0013
;
