#TITLE:灼熱 Pt.2;
#SUBTITLE:Long Train Running;
#ARTIST:DJ Mass MAD Izm*;
#TITLETRANSLIT:Shakunetsu Pt.2;
#SUBTITLETRANSLIT:;
#ARTISTTRANSLIT:;
#GENRE:;
#CREDIT:;
#MENUCOLOR:;
#METERTYPE:DDR;
#BANNER:Shakunetsu Pt.2 Long Train Running.png;
#BACKGROUND:Shakunetsu Pt.2 Long Train Running-bg.png;
#LYRICSPATH:;
#CDTITLE:;
#MUSIC:Shakunetsu Pt.2 Long Train Running.mp3;
#OFFSET:-0.502;
#SAMPLESTART:23.740;
#SAMPLELENGTH:11.290;
#SELECTABLE:YES;
#LISTSORT:;
#BPMS:0.000=165.000,64.000=330.000,192.000=165.000,264.000=82.500,280.000=165.000,312.000=330.000,432.000=329.639;
#STOPS:;
#BGCHANGES:0.000=Shakunetsu Pt.2 Long Train Running.avi=1.000=1=0=1,
447.000=Shakunetsu Pt.2 Long Train Running-bg.png=1.000=0=0=1,
99999=-nosongbg-=1.000=0=0=0 // don't automatically add -songbackground-
;
#ATTACKS:;

//---------------dance-single - ----------------
#NOTES:
     dance-single:
     :
     Challenge:
     18:
     1.000,1.000,1.000,1.000,0.512:
0000
0000
0000
0000
,
0000
0000
0000
0000
,
0000
0000
0000
0000
,
0000
0000
0000
0000
,
1010
0000
0000
0110
0000
0000
1010
0000
0000
0110
0000
0000
1000
0000
0001
0000
,
0101
0000
0000
0110
0000
0000
0101
0000
0000
0110
0000
0000
0001
0000
0100
0000
,
1010
0000
0000
0110
0000
0000
1010
0000
0000
0110
0000
0000
1000
0000
0001
0000
,
0110
0000
0000
0101
0000
0000
0110
0000
0000
0101
0000
0000
0200
0000
0000
0000
,
0320
0000
0000
0000
1000
0000
0000
0000
0032
0000
0000
0100
0000
0000
0010
0000
,
2003
0000
0000
0000
0001
0000
0000
0000
3200
0000
0000
0010
0000
0000
0001
0000
,
0302
0000
0000
0000
0100
0000
0000
0000
0023
0000
0000
1000
0000
0000
0100
0000
,
2030
0000
0000
0000
0000
0000
0000
0000
0000
0000
0000
0000
0001
0000
0000
0000
0000
0000
0000
0000
0000
0000
0000
0000
3200
0000
0000
0000
0000
0000
0000
0000
0000
0010
0000
0000
0000
0000
0000
0000
0000
0000
0001
0000
0000
0000
0300
0000
,
2001
0000
0000
0000
0010
0000
0000
0000
3020
0000
0000
0100
0000
0000
1000
0000
,
0230
0000
0000
0000
0001
0000
0000
0000
0302
0000
0000
0010
0000
0000
0100
0000
,
1003
0100
0010
0021
0000
0000
0031
0010
0100
1200
0000
0000
,
1300
0100
0010
0001
0010
0100
1000
0001
0110
2001
0000
0000
,
3010
0120
1030
0210
,
0301
0010
0100
1000
0001
0010
0100
1000
,
0100
0010
0100
0010
1000
0001
1000
0001
,
1100
0110
0022
0033
,
0110
1001
0110
1001
,
0100
0010
1000
0001
0100
0010
1000
0001
,
0010
0001
0010
0001
1000
0100
1000
0100
,
0011
0110
2200
3300
,
0012
0103
0210
0301
,
1000
0001
0100
0010
1000
0001
0100
0010
,
1000
0100
1000
0100
0010
0001
0010
0001
,
1010
0110
0201
0301
,
0120
1030
0210
0301
,
1000
0010
0100
0001
0100
0010
1000
0020
,
0100
1000
0100
0031
,
0110
0000
0000
1001
0000
0000
0110
0000
,
2000
0010
0000
3002
0200
0003
0310
0000
,
1001
0000
0000
0110
0000
0000
1001
0000
,
0002
0010
0000
0203
0020
0300
0001
0000
,
1030
0000
0000
1100
0000
0000
0101
0000
,
2000
0010
0000
3002
0200
0003
0310
0000
,
1001
0000
0000
1100
0000
0000
0101
0000
,
0020
0001
0000
0230
0002
0003
0310
0000
,
1100
0000
0000
0101
0000
0000
1100
0000
,
1020
0100
0000
0031
0200
0000
0301
0000
,
1010
0000
0000
0101
0000
0000
1100
0000
,
0002
0010
0000
1003
0200
0000
1300
0000
,
0011
0000
0000
0110
0000
0000
1010
0000
,
2000
0100
0000
3010
0002
0000
0103
0000
,
1010
0000
0000
0101
0000
0000
0110
0000
,
1000
0100
0010
0001
1000
0100
0010
0001
,
0100
0010
0100
0010
2002
0000
3003
0000
,
0210
0000
0001
0000
0010
0000
0000
0000
0302
0000
0000
1000
0000
0000
0103
0000
,
0020
0000
1000
0000
1000
0000
0130
0000
2001
0000
0000
0010
0000
0000
3100
0000
,
0012
0000
0000
0000
1000
0000
0103
0000
0210
0000
0000
0001
0000
0000
0310
0000
,
1000
0100
1000
0100
2000
0000
0010
0000
0002
3000
0000
0100
0023
0000
1030
0000
,
0120
0000
1000
0000
0100
0000
0000
0000
2030
0000
0000
0001
0000
0000
3010
0000
,
0200
0000
0001
0000
0001
0000
0310
0000
1002
0000
0000
0100
0000
0000
0013
0000
,
2100
0000
0000
0000
0001
0000
3010
0000
0120
0000
0000
1000
0000
0000
0130
0000
,
0001
0010
0001
0010
0002
0000
0100
0000
2000
0003
0000
0010
3200
0000
0301
0000
,
0020
0000
0000
0000
0130
0000
0000
0000
1001
0000
0000
0110
0000
0000
1001
0000
,
1000
0100
1000
0100
0010
0000
0002
0000
0103
0000
0010
0000
1000
0000
0010
0000
,
0120
0000
0000
0000
1030
0000
0000
0000
0101
0000
0000
0110
0000
0000
0101
0000
,
1000
0010
0100
0001
0100
0000
0020
0000
1030
0000
0100
0000
0110
0000
1001
0000
,
0012
0000
0000
0000
1003
0000
0000
0000
0110
0000
0000
1001
0000
0000
0110
0000
,
1000
0001
1000
0001
1000
0100
1000
0100
0001
0010
0001
0010
0100
1000
0100
1000
,
0011
0000
0110
0000
0011
0000
0000
0000
1010
0000
0000
0101
0000
0000
1010
0000
,
0001
0100
0010
1000
0100
0000
2010
0000
3100
0001
0100
0010
0100
0000
1001
0000
,
0200
0000
0000
0000
0310
0000
0000
0000
1001
0000
0000
1010
0000
0000
1001
0000
,
0001
0100
0001
0100
0010
1000
0010
1000
0200
0000
0000
0000
0310
0000
0000
0000
,
0102
0000
1000
1003
0010
0100
0010
0000
2000
0001
3001
0010
0220
0000
0330
0000
,
2001
0000
0010
0010
3001
0100
1000
0000
0200
1000
1300
0010
0220
0000
0330
0000
,
0021
0000
0031
0001
1000
0100
0001
0000
2000
0010
3010
0100
0220
0000
0330
0000
,
1001
0000
0100
0000
0220
0000
0000
0000
0000
0000
0000
0000
0330
0000
0000
0000
0100
0000
0010
0000
0001
0000
1000
0000
0100
0010
0001
1000
0100
0010
0001
0100
,
0010
0000
0001
0100
0000
0010
1000
0000
0100
0001
0000
1000
0010
0000
0110
0000
,
1001
0000
0100
0001
0000
0100
0010
0000
1000
0010
0000
0100
0010
0000
1001
0000
,
0110
0000
1000
0010
0000
0100
0010
0000
0100
0001
0000
0100
0010
0000
0110
0000
,
1001
0000
0100
0010
0000
0100
0001
0000
0100
1000
0000
0100
0010
0000
1001
0000
,
0110
0000
0001
0100
0000
0010
1000
0000
0001
0100
0000
0010
1000
0000
0100
0000
,
0001
0000
1000
0100
0000
1000
0100
0000
0001
0100
0000
0001
0100
0000
0110
0000
,
1001
0000
0100
0010
0000
0100
0010
0000
1000
0010
0000
1000
0010
0000
1010
0000
,
0110
0000
0100
0010
0000
0100
0010
0000
1000
0001
1000
0001
0100
0010
0100
0010
,
2000
0000
3001
0100
2000
0000
3001
0100
,
0020
0000
1030
0220
0000
0330
2001
0000
,
3010
0000
1000
0100
0002
0000
1003
0100
,
0002
0000
1003
0220
0000
0330
1002
0000
,
0103
0010
0100
0001
0200
0000
0310
1000
,
0200
0000
0310
0202
0303
0010
2200
3300
,
0001
0010
0100
1000
2100
0000
3010
0100
,
0102
0000
0013
2100
0000
3010
0201
0000
,
0310
1000
0100
0001
0210
0000
0301
0010
,
2100
0000
3010
0102
0000
0013
1200
0000
,
0310
0001
0100
0010
1200
0000
0310
0001
,
0210
0000
1300
0020
0000
0130
1001
0000
,
1000
0100
0001
0100
2000
0000
3010
0100
,
0002
0000
0013
0200
0000
0310
2000
0000
,
3001
0000
0000
0000
0000
0000
0220
0000
0000
0000
0000
0030
,
0301
0010
0100
1000
0001
0010
0100
1000
,
0011
0000
1000
0100
0011
0000
1000
0100
,
0011
0000
0000
0110
0000
0000
1001
0000
,
0001
0100
0010
1000
0010
0100
0001
1000
,
0100
0000
0100
1010
0000
0100
0011
0000
,
1001
0000
0100
0010
1100
0000
0100
0010
,
0101
0000
0100
0110
0000
0000
1001
0000
,
0001
0100
0010
1000
0020
0000
0130
0001
,
1100
0000
0100
0001
0000
0100
0010
0000
,
2000
0100
3010
0001
0020
0100
1030
0100
,
2000
0010
3001
0200
0010
0301
0110
0000
,
1000
0100
0010
0001
0100
0010
1000
0100
,
0011
0000
0100
1010
0000
0100
0011
0000
,
1000
0100
0010
0001
1000
0100
0010
0001
,
0100
0010
1000
0001
0100
0010
0001
1000
,
0001
0010
0100
1000
0001
0100
0010
1000
0100
0001
0010
0100
,
1000
0100
0010
0001
1000
0100
0010
0001
2000
0002
0000
0000
,
0000
0000
0000
0000
,
0000
0000
0000
3003
;

//---------------dance-double - ----------------
#NOTES:
     dance-double:
     :
     Challenge:
     18:
     1.000,1.000,1.000,0.945,0.480:
00000000
00000000
00000000
00000000
,
00000000
00000000
00000000
00000000
,
00000000
00000000
00000000
00000000
,
00000000
00000000
00000000
00000000
,
00110000
00000000
00000000
01000000
00000000
00000000
00010000
00000000
00000000
01000000
00000000
00000000
00110000
00000000
00010000
00000000
,
00011000
00000000
00000000
00000100
00000000
00000000
00001000
00000000
00000000
00000100
00000000
00000000
00001100
00000000
00000010
00000000
,
00000101
00000000
00000000
00000010
00000000
00000000
00000100
00000000
00000000
00000010
00000000
00000000
00000110
00000000
00001000
00000000
,
00010100
00000000
00000000
00010000
00000000
00000000
00001000
00000000
00000000
00010000
00000000
00000000
00101000
00000000
00010000
00000000
,
00000200
00000000
00000000
00000000
00001300
00000000
00000000
00000000
00000020
00000000
00000000
00000100
00000000
00000000
00000130
00000000
,
00000002
00000000
00000000
00000000
00001003
00000000
00000000
00000000
00000200
00000000
00000000
00001000
00000000
00000000
00001300
00000000
,
00020000
00000000
00000000
00000000
00030100
00000000
00000000
00000000
00002000
00000000
00000000
00100000
00000000
00000000
00103000
00000000
,
00020000
00000000
00000000
00000000
10030000
00000000
00000000
00000000
02100000
00000000
00000000
00100000
00000000
00000000
03100000
00000000
,
12000000
00000000
00000000
00000000
00010000
00000000
00000000
00000000
03200000
00000000
00000000
10000000
00000000
00000000
02300000
00000000
,
03020000
00000000
00000000
00000000
00230000
00000000
00000000
00000000
10300000
00000000
00000000
01000000
00000000
00000000
00010000
00000000
,
00100000
00001000
00010000
00000200
00000000
00000000
00001300
00000010
00000100
00000020
00000000
00000000
,
00001030
00000000
00000100
00000000
00010000
00000000
00011000
00000000
00001000
00000000
00100000
00000000
00110000
00000000
00010000
00000000
01000000
00000000
02200000
00000000
00000000
03300000
00000000
00000000
,
10010000
01100000
20010000
31000000
,
11000000
00000000
02000000
00010000
03000000
00100000
00120000
00000000
,
00031000
00000000
00010000
00001000
00010000
00000000
00011000
00000000
,
00001100
00000110
00000220
00000330
,
00001001
00000110
00001002
00000103
,
00000110
00000000
00001000
00001200
00000000
00010300
00012000
00000000
,
00103000
00000000
10010000
00000000
01000000
00100000
10100000
00000000
,
01000000
01010000
00220000
00330000
,
00011000
00000000
00100000
00001000
00011000
00000000
00010100
00000000
,
00001100
00000000
00001000
00001100
00000000
00000100
00000101
00000000
,
00000001
00000010
00000100
00000010
00000001
00000000
00001001
00000000
,
00001010
00010100
00011000
00101000
,
00110000
00000000
10010000
00000000
20000000
01000000
30020000
01000000
,
12030000
00000000
03100000
02100000
00000000
03010000
00110000
00000000
,
00200000
00000000
00000000
00000000
00301000
00010000
00000100
00001000
,
00000110
00000000
00000000
00001010
00000000
00000000
00012000
00000000
,
00103000
00010000
00000000
01000000
00100000
00000000
10000000
00000000
,
11000000
00000000
00000000
01100000
00000000
00000000
00110000
00000000
,
00001000
00010000
00000000
00010000
00001000
00000000
00011000
00000000
,
00001100
00000000
00000000
00000101
00000000
00000000
00001100
00000000
,
00000100
00000010
00000000
00001000
00000010
00000000
00000100
00000000
,
00001001
00000000
00000000
00001010
00000000
00000000
00011000
00000000
,
00001000
00100000
00000000
00100000
00010000
00000000
10000000
00000000
,
11000000
00000000
00000000
01010000
00000000
00000000
11000000
00000000
,
00020000
01000000
00000000
10000000
01030000
00000000
11000000
00000000
,
02010000
00000000
00000000
00100000
00000000
00000000
13000000
00000000
,
12000000
00100000
00000000
03020000
00001000
00000000
00030200
00000000
,
00001000
00000000
00000000
00000010
00000000
00000300
00000101
00000000
,
00002000
00000010
00003000
00000200
00000001
00000300
00000020
00000000
,
00020030
00001000
00000000
00031000
00200000
00000000
00310000
00000000
,
02000000
00100000
00000000
03020000
00100000
00000000
20030000
00000000
,
31000000
00100000
00001000
00010000
00000200
00000000
00000000
00000000
,
00010300
00000000
00000000
00000000
00011000
00000000
00000000
00000000
00110000
00000000
00000000
00011000
00000000
00000000
00001010
00000000
,
00000110
00000000
00000000
00000000
00000110
00000000
00000000
00000000
00000101
00000000
00000000
00001010
00000000
00000000
00011000
00000000
,
00110000
00000000
00000000
00000000
00110000
00000000
00000000
00000000
01100000
00000000
00000000
10100000
00000000
00000000
01010000
00000000
,
00011000
00000000
00000000
00000000
00001100
00000000
00000000
00000000
00011000
00000000
00000000
00101000
00000000
00000000
01100000
00000000
,
10000000
01000000
00100000
00000000
10000000
01000000
00100000
00000000
01100000
00000000
00000000
00101000
00000000
00000000
00010100
00000000
,
00001000
00000001
00000010
00000000
00001000
00000001
00000010
00000000
00000101
00000000
00000000
00010010
00000000
00000000
00101000
00000000
,
00010000
01000000
10000000
00000000
00010000
01000000
10000000
00000000
01100000
00000000
00000000
10100000
00000000
00000000
01010000
00000000
,
00100000
00001000
00010000
00000000
00100000
00001000
00010000
00000000
00010100
00000000
00000000
00001100
00000000
00000000
00000110
00000000
,
00002001
00000000
00000000
00000000
00003010
00000000
00000100
00000000
00000001
00001000
00000010
00001000
00000001
00000000
00001100
00000000
,
00000010
00000000
00001000
00000000
00000100
00000000
00010000
00000000
00001000
00100000
00001000
00100000
00010000
00000000
10100000
00000000
,
02100000
00000000
00000000
00000000
00010000
00000000
03100000
00000000
10000000
01000000
00010000
01000000
10000000
00000000
01100000
00000000
,
01010000
00000000
00100000
00000000
00001000
00000000
00010000
00000000
00000100
00010000
00001000
00010000
00000200
00000000
00010300
00000000
,
00002100
00000000
00000000
00000000
00003010
00000000
00000100
00000000
00000001
00001000
00000100
00001000
00000002
00000000
00001003
00000000
,
00010100
00000000
00001000
00000000
00100000
00000000
10000000
00000000
01000000
00100000
10000000
01000000
00010000
00100000
01000000
10000000
,
01200000
00000000
00000000
00000000
00310000
00000000
10000000
00000000
01000000
00010000
00100000
00010000
00100000
00000000
00101000
00000000
,
00010000
00000100
00001000
00000000
00000100
00000000
00010000
00001000
00000100
00000000
00000010
00000100
00000001
00000000
00001001
00000000
,
00000120
00000000
00000000
00000000
00001030
00000000
00000100
00000000
00000001
00000010
00001000
00000010
00000001
00000000
00001100
00000000
,
00000010
00000000
00010000
00000000
00001000
00010000
00100000
00000000
00100000
01000000
10000000
01000000
00100000
00010000
00100000
00010000
,
00002000
00000000
00010000
00013000
00101000
00010000
00010000
00000000
00002000
00000100
00003200
00000010
00000320
00000000
00000032
00000000
,
00000103
00000000
00000010
00000010
00001100
00000010
00000010
00000000
00000200
00000001
00000302
00001000
00002003
00000000
00003200
00000000
,
00000320
00000000
00001000
00001000
00000230
00000001
00000001
00000000
00000310
00001000
00002000
00010000
00023000
00000000
00230000
00000000
,
02300000
00000000
00000000
00000000
00020000
00000000
03000000
00000000
00000000
00000000
00000000
00000000
00000000
00000000
00000000
00000000
10000000
00000000
01000000
00000000
10030000
00000000
01000000
00000000
00010000
00100000
01000000
10000000
00010000
00100000
01000000
10000000
,
00100000
00000000
01000000
00010000
00000000
00100000
00001000
00000000
00010000
00000100
00000000
00001000
00000010
00000000
00000110
00000000
,
00000101
00000000
00000010
00001000
00000000
00000100
00010000
00000000
00001000
00100000
00000000
00010000
01000000
00000000
01100000
00000000
,
10010000
00000000
01000000
00010000
00000000
00100000
00010000
00000000
00010000
00001000
00000000
00010000
00000100
00000000
00001100
00000000
,
00000110
00000000
00000001
00001000
00000000
00000010
00010000
00000000
00001000
00100000
00000000
00100000
01010000
00000000
10100000
00000000
,
01100000
00000000
10000000
00100000
00000000
01000000
00001000
00000000
00010000
00000100
00000000
00001000
00000010
00000000
00001001
00000000
,
00000110
00000000
00000001
00000100
00000000
00000010
00010000
00000000
00000100
00010000
00000000
00001000
00100000
00000000
01010000
00000000
,
10100000
00000000
01000000
00010000
00000000
00100000
00001000
00000000
00010000
00000100
00000000
00001000
00000010
00000000
00000110
00000000
,
00001001
00000000
00000010
00000100
00000000
00000010
00001000
00000000
00000100
00010000
00000000
00001000
00020000
00000000
00001000
00000000
,
00032000
00000000
00003100
00000010
00002000
00000000
00003100
00000001
,
00000020
00000000
00001030
00000200
00000000
00000300
00010100
00000000
,
00110000
00000000
00100000
00001000
00100000
00000000
00200000
00000000
,
00310000
00000000
20000000
01000000
30000000
00200000
00010000
00300000
,
10000000
01000000
00100000
01000000
20000000
00000000
30010000
00100000
,
00002000
00000000
00013000
00000200
00000000
00001300
00000020
00000000
,
00000130
00000001
00001000
00000010
00002000
00000000
00203000
00000000
,
00310000
00000000
10000000
01100000
00000000
00010000
01100000
00000000
,
10000000
01000000
00010000
00100000
00002000
00000000
00013000
00000100
,
00002000
00000000
00003010
00000200
00000000
00000301
00002000
00000000
,
00003001
00000010
00001000
00000100
00020000
00000000
00031000
00100000
,
00020000
00000000
01030000
00200000
00000000
10300000
02000000
00000000
,
03100000
00001000
00010000
00000100
00002000
00000000
00003010
00000100
,
00001001
00000000
00001000
00001100
00000000
00000001
00000011
00000000
,
00001000
00000100
00010000
00001000
00202000
00000000
00303000
00000000
,
00010000
00001000
00100000
00010000
10000000
01000000
00100000
00010000
,
00002000
00000000
00013000
00000100
00002000
00000000
00003010
00000100
,
00000002
00000000
00000103
00000020
00000000
00000130
00002000
00000000
,
00003010
00000100
00000001
00000100
00000010
00010000
00001000
00100000
,
00020000
00000000
10030000
02000000
00000000
03100000
20000000
00000000
,
30020000
00000000
00130000
00001000
00020000
00000000
00030100
00001000
,
00000020
00000000
00000130
00000002
00000000
00001003
00000200
00000000
,
00010300
00001000
00100000
00010000
20000000
00000000
31000000
00100000
,
01010000
00000000
10000000
01100000
00000000
00010000
01100000
00000000
,
20000000
00000000
30100000
01000000
00020000
00000000
00130000
00001000
,
00020000
00000000
00030010
00000200
00000000
00000301
00000020
00000000
,
00000031
00001000
00000100
00000010
00020000
00000000
00031000
00100000
,
00020000
00000000
10030000
02000000
00000000
03100000
20000000
00000000
,
31000000
00100000
00010000
10000000
01000000
00100000
00010000
00100000
,
00001000
00010000
00000100
00001000
00000100
00000010
00000001
00000100
,
00000010
00001000
00000100
00010000
00001000
00100000
00010000
10000000
,
01000000
00100000
00010000
00100000
00001000
00010000
00001000
00000000
00000000
00002002
00000000
00000000
,
00000000
00000000
00000000
00000000
,
00000000
00000000
00000000
00003003
;

//---------------dance-double - ----------------
#NOTES:
     dance-double:
     :
     Hard:
     17:
     0.811,1.000,0.732,0.504,0.319:
00000000
00000000
00000000
00000000
,
00000000
00000000
00000000
00000000
,
00000000
00000000
00000000
00000000
,
00000000
00000000
00000000
00000000
,
01000000
00000000
00000000
00100000
00000000
00000000
01000000
00000000
00000000
00100000
00000000
00000000
10010000
00000000
10010000
00000000
,
01000000
00000000
00000000
00010000
00000000
00000000
01000000
00000000
00000000
00010000
00000000
00000000
00110000
00000000
00110000
00000000
,
00001000
00000000
00000000
00100000
00000000
00000000
00001000
00000000
00000000
00100000
00000000
00000000
00011000
00000000
00011000
00000000
,
00000100
00000000
00000000
00001000
00000000
00000000
00000100
00000000
00000000
00001000
00000000
00000000
00000110
00000000
00000110
00000000
,
00000002
00000000
00000000
00000000
00001003
00000000
00000000
00000000
00000020
00000000
00000000
00000100
00000000
00000000
00000130
00000000
,
00002000
00000000
00000000
00000000
00003100
00000000
00000000
00000000
00020000
00000000
00000000
00001000
00000000
00000000
00031000
00000000
,
00200000
00000000
00000000
00000000
00310000
00000000
00000000
00000000
02000000
00000000
00000000
00010000
00000000
00000000
03010000
00000000
,
00002000
00000000
00000000
00000000
00013000
00000000
00000000
00000000
00020000
00000000
00000000
00000100
00000000
00000000
00030100
00000000
,
00000020
00000000
00000000
00000000
00001030
00000000
00000000
00000000
00002000
00000000
00000000
00000100
00000000
00000000
00003100
00000000
,
00000002
00000000
00000000
00000000
00000013
00000000
00000000
00000000
00000200
00000000
00000000
00001000
00000000
00000000
00001300
00000000
,
00010000
00001000
00000100
00000020
00000000
00000000
00000031
00000100
00000010
00002000
00000000
00000000
,
00003100
00010000
00001000
00100000
00010000
01000000
00100000
10000000
01000000
00200000
00000000
00000000
,
00310000
00002000
00013000
00002000
,
00103000
00010000
00100000
00010000
00200000
00000000
10000000
00000000
,
01300000
00000000
00010000
01000000
10000000
00000000
01000000
00000000
,
00010000
10010000
20010000
00000000
,
30200000
01300000
00200000
01000000
,
10300000
01000000
00010000
01000000
20000000
00000000
30010000
00000000
,
00200000
00000000
00301000
00000000
00010000
00001000
00000100
00000000
,
00001000
00001010
00002020
00003030
,
00000020
00001030
00000200
00000301
,
00000010
00000100
00000010
00000100
00000002
00000000
00001003
00000000
,
00000010
00010000
00002000
00023000
,
00130000
00000000
00000000
02000000
00100000
00000000
03020000
00000000
,
20030000
00000000
32000000
00000000
03100000
00010000
00100000
00010000
,
00001000
00000000
00010000
00001000
00000100
00000000
00001000
00000000
,
00000120
00000000
00001030
00000100
,
00010100
00000000
00000000
00101000
00000000
00000000
00110000
00000000
,
01010000
00000000
01010000
00000000
,
10100000
00000000
00000000
01100000
00000000
00000000
10010000
00000000
,
01100000
00000000
01100000
00000000
,
10100000
00000000
00000000
01010000
00000000
00000000
00110000
00000000
,
00011000
00000000
00010100
00000000
,
00011000
00000000
00000000
00001100
00000000
00000000
00000110
00000000
,
00001001
00000000
00000110
00000000
,
00001001
00000000
00000000
00001010
00000000
00000000
00001100
00000000
,
00000100
00010000
00000000
00000100
00010000
00000000
00001000
00000000
,
00100000
00000000
00000000
00010000
00000000
00000000
10000000
00000000
,
01000000
00100000
00000000
01000000
00100000
00000000
10000000
00000000
,
00010000
00000000
00000000
00100000
00000000
00000000
00001000
00000000
,
00010000
00000100
00000000
00010000
00000100
00000000
00001000
00000000
,
00000100
00000000
00000000
00000010
00000000
00000000
00000001
00000000
,
00002000
00000000
00000000
00000000
,
00003100
00000001
00000100
00000001
00002000
00000000
00000000
00000000
,
00003200
00000000
00000000
00000000
00010300
00000000
00000000
00000000
00001000
00010000
00001000
00010000
00001000
00000000
00000000
00000000
,
00020000
00000000
00000000
00000000
10030000
00000000
00000000
00000000
01000000
00100000
01000000
00100000
01000000
00000000
00000000
00000000
,
20000000
00000000
00000000
00000000
30010000
00000000
00000000
00000000
00100000
00001000
00100000
00001000
00100000
00000000
00000000
00000000
,
00020000
00000000
00000000
00000000
00030100
00000000
00000000
00000000
00001000
00000010
00001000
00000010
00001000
00000000
00000000
00000000
,
00000020
00000000
00000000
00000000
00000130
00000000
00000000
00000000
00000001
00001000
00000001
00001000
00000001
00000000
00000000
00000000
,
00000020
00000000
00000000
00000000
00001030
00000000
00000000
00000000
00000100
00010000
00000100
00010000
00000100
00000000
00000000
00000000
,
00020000
00000000
00000000
00000000
10030000
00000000
00000000
00000000
01000000
00100000
01000000
00100000
01000000
00000000
00000000
00000000
,
20000000
30100000
02000000
03010000
,
20100000
00000000
30100000
00000000
01000000
00100000
01000000
00000000
,
01020000
00000000
00000000
00000000
01030000
00000000
00000000
00000000
10000000
00000000
00000000
01000000
00000000
00000000
00010000
00000000
,
00210000
00000000
00301000
00000000
00010000
00001000
00010000
00000000
,
00001000
00000100
00001000
00000100
00001000
00000000
00000100
00000000
00001010
00000000
00000000
00000010
00000000
00000000
00000100
00000000
,
00001002
00000000
00000103
00000000
00000010
00000100
00000010
00000000
,
00000001
00000010
00000100
00001000
00010000
00100000
01000000
10000000
,
10020000
00000000
01030000
00000000
01000000
00100000
01000000
00000000
,
10010000
00000000
00000000
00000000
01100000
00000000
00000000
00000000
00100000
00000000
00000000
00001000
00000000
00000000
00010000
00000000
,
00001000
00000000
00001100
00000000
00000010
00000100
00001010
00000000
,
00000002
00000010
00000103
00001000
00010000
00100000
02000000
00000000
,
03010000
00000000
10000000
01000000
00100000
01000000
10000000
00000000
00000000
10000000
01000000
00100000
00020000
00000000
00000000
00000000
,
00031000
00000000
00000010
00000100
00001000
00000100
00000010
00000000
00000000
00000001
00000010
00000100
00002000
00000000
00000000
00000000
,
00013000
00000000
00100000
00001000
00010000
00001000
00100000
00000000
00000000
01000000
00010000
01000000
00200000
00000000
00000000
00000000
,
10300000
00000000
00000000
00000000
02200000
00000000
00000000
00000000
00000000
00000000
00000000
00000000
00000000
00000000
03300000
00000000
10010000
00000000
00000000
00000000
01100000
00000000
00000000
00000000
10000000
00000000
01000000
00000000
00100000
00010000
00001000
00010000
,
00100000
00000000
00000000
00110000
00000000
00000000
00100000
00000000
00000000
10100000
00000000
00000000
01100000
00000000
01000000
00000000
,
01000000
00000000
00000000
00110000
00000000
00000000
00100000
00000000
00000000
00101000
00000000
00000000
00010000
00000000
00010000
00000000
,
00001000
00000000
00000000
00001100
00000000
00000000
00010000
00000000
00000000
00010100
00000000
00000000
00010000
00000000
00010000
00000000
,
00000100
00000000
00000000
00001010
00000000
00000000
00000100
00000000
00000000
00001001
00000000
00000000
00000100
00000000
00000010
00000000
,
00001001
00000000
00000000
00000110
00000000
00000000
00001000
00000000
00000000
00000100
00000000
00000000
00010000
00001000
00010000
00001000
,
00010000
00000000
00000000
01100000
00000000
00000000
10010000
00000000
00000000
01100000
00000000
00000000
10000000
00010000
10000000
00010000
,
10000000
00000000
00000000
01100000
00000000
00000000
00100000
00000000
00000000
00101000
00000000
00000000
00010000
00001000
00010000
00001000
,
00010000
00000000
00000000
00011000
00000000
00000000
00001000
00000000
00000000
00001100
00000000
00000000
00000010
00000000
00001010
00000000
,
00000010
00000000
00000010
00001000
00000100
00000000
00001000
00010000
,
00001000
00000000
00100000
00010000
00000000
10000000
01000000
00000000
,
00100000
00000000
10000000
01000000
00010000
00000000
01000000
00010000
,
00001000
00000000
00100000
00001000
00000000
00010000
00001000
00000000
,
00000100
00000000
00001000
00000010
00000001
00000000
00001000
00000010
,
00000001
00000000
00000100
00000010
00000000
00000100
00000010
00000000
,
00000010
00000000
00000100
00010000
00001000
00000000
00000100
00010000
,
00001000
00000000
00100000
00010000
00000000
10000000
01000000
00000000
,
10000000
00100000
01000000
00010000
00100000
00000000
10000000
01000000
,
00100000
00000000
00000000
00011000
00000000
00000000
00000110
00000000
,
00000001
00000100
00001000
00000100
00000010
00000000
00001000
00000100
,
00000001
00000000
00000000
00010100
00000000
00000000
01100000
00000000
,
10000000
01000000
00010000
01000000
10000000
00000000
01000000
00100000
,
00010000
00000000
00000000
00001100
00000000
00000000
00000110
00000000
,
00000001
00000100
00001000
00000200
00020000
00000000
00030300
00000000
,
01010000
00000000
00000000
01100000
00000000
00000000
10100000
00000000
,
01100000
00000000
00101000
00000000
,
00010100
00000000
00000000
00000110
00000000
00000000
00001001
00000000
,
00000001
00000100
00000010
00001000
00000100
00000000
00010000
00001000
,
00100000
00000000
00010000
10000000
00000000
00010000
10000000
00000000
,
11000000
00000000
01100000
00000000
,
00110000
00000000
00000000
00010100
00000000
00000000
00001100
00000000
,
00000001
00001000
00000010
00001000
00000100
00000000
00010000
00001000
,
00100000
00000000
00010000
01000000
00000000
00100000
10000000
00000000
,
12000000
03010000
12000000
03010000
,
01100000
00000000
00000000
00011000
00000000
00000000
00001100
00000000
,
00000001
00000100
00000010
00001000
00000100
00000000
00000010
00010000
,
00001000
00000000
00100000
00010000
00000000
10000000
01000000
00000000
,
00010000
10000000
01000000
00100000
01000000
00100000
00010000
00100000
,
00001000
00000100
00000010
00000001
00001000
00000100
00000010
00000001
,
00000100
00010000
00001000
00010000
00001000
00100000
00010000
00100000
,
01000000
00100000
00010000
10000000
01000000
00000000
00022000
00000000
,
00000000
00000000
00000000
00000000
,
00000000
00000000
00000000
00033000
;

//---------------dance-single - ----------------
#NOTES:
     dance-single:
     :
     Hard:
     17:
     0.813,1.000,0.732,0.504,0.327: // measure 1
0000
0000
0000
0000
,  // measure 2
0000
0000
0000
0000
,  // measure 3
0000
0000
0000
0000
,  // measure 4
0000
0000
0000
0000
,  // measure 5
0010
0000
0000
0100
0000
0000
0010
0000
0000
0100
0000
0000
1001
0000
1001
0000
,  // measure 6
0010
0000
0000
1000
0000
0000
0010
0000
0000
1000
0000
0000
1100
0000
1100
0000
,  // measure 7
0001
0000
0000
0100
0000
0000
0001
0000
0000
0100
0000
0000
1001
0000
1001
0000
,  // measure 8
0010
0000
0000
0001
0000
0000
0010
0000
0000
0001
0000
0000
0110
0000
0110
0000
,  // measure 9
2000
0000
0000
0000
3001
0000
0000
0000
0200
0000
0000
0010
0000
0000
0310
0000
,  // measure 10
0002
0000
0000
0000
0013
0000
0000
0000
2000
0000
0000
0001
0000
0000
3001
0000
,  // measure 11
0200
0000
0000
0000
1300
0000
0000
0000
0020
0000
0000
1000
0000
0000
1030
0000
,  // measure 12
0002
0000
0000
0000
1003
0000
0000
0000
2000
0000
0000
0010
0000
0000
3010
0000
,  // measure 13
0200
0000
0000
0000
0301
0000
0000
0000
0002
0000
0000
0010
0000
0000
0013
0000
,  // measure 14
2000
0000
0000
0000
3100
0000
0000
0000
0020
0000
0000
0001
0000
0000
0031
0000
,  // measure 15
1000
0001
0010
0200
0000
0000
1300
0010
0100
0002
0000
0000
,  // measure 16
0013
1000
0001
0100
1000
0010
0100
0001
0010
0200
0000
0000
,  // measure 17
1300
0002
1003
0002
,  // measure 18
0103
1000
0100
1000
0200
0000
0001
0000
,  // measure 19
0310
0000
1000
0010
0001
0000
0010
0000
,  // measure 20
1000
1001
1002
0000
,  // measure 21
0203
0310
0200
0010
,  // measure 22
0301
0010
1000
0010
0002
0000
1003
0000
,  // measure 23
0200
0000
0301
0000
1000
0001
0010
0000
,  // measure 24
0001
0101
0202
0303
,  // measure 25
0200
0301
0020
1030
,  // measure 26
0100
0010
0100
0010
2000
0000
3001
0000
,  // measure 27
0100
1000
0002
2003
,  // measure 28
3100
0000
0000
0020
0100
0000
2030
0000
,  // measure 29
3002
0000
0023
0000
0130
1000
0100
1000
,  // measure 30
0001
0000
1000
0001
0010
0000
0001
0000
,  // measure 31
0210
0000
0301
0010
,  // measure 32
1010
0000
0000
0101
0000
0000
1100
0000
,  // measure 33
1010
0000
1010
0000
,  // measure 34
0101
0000
0000
0110
0000
0000
1001
0000
,  // measure 35
0110
0000
0110
0000
,  // measure 36
0101
0000
0000
1010
0000
0000
1100
0000
,  // measure 37
1001
0000
1010
0000
,  // measure 38
1001
0000
0000
0011
0000
0000
0110
0000
,  // measure 39
1001
0000
0110
0000
,  // measure 40
1001
0000
0000
0101
0000
0000
0011
0000
,  // measure 41
0010
1000
0000
0010
1000
0000
0001
0000
,  // measure 42
0100
0000
0000
1000
0000
0000
0001
0000
,  // measure 43
0010
0100
0000
0010
0100
0000
0001
0000
,  // measure 44
1000
0000
0000
0100
0000
0000
0001
0000
,  // measure 45
1000
0010
0000
1000
0010
0000
0001
0000
,  // measure 46
0010
0000
0000
0100
0000
0000
1000
0000
,  // measure 47
0002
0000
0000
0000
,  // measure 48
0013
1000
0010
1000
0002
0000
0000
0000
,  // measure 49
0023
0000
0000
0000
1030
0000
0000
0000
0001
1000
0001
1000
0001
0000
0000
0000
,  // measure 50
2000
0000
0000
0000
3001
0000
0000
0000
0010
0100
0010
0100
0010
0000
0000
0000
,  // measure 51
0002
0000
0000
0000
1003
0000
0000
0000
0100
0001
0100
0001
0100
0000
0000
0000
,  // measure 52
2000
0000
0000
0000
3010
0000
0000
0000
0001
0100
0001
0100
0001
0000
0000
0000
,  // measure 53
0200
0000
0000
0000
0310
0000
0000
0000
1000
0001
1000
0001
1000
0000
0000
0000
,  // measure 54
0200
0000
0000
0000
0301
0000
0000
0000
0010
1000
0010
1000
0010
0000
0000
0000
,  // measure 55
2000
0000
0000
0000
3001
0000
0000
0000
0010
0100
0010
0100
0010
0000
0000
0000
,  // measure 56
0002
0103
0020
1030
,  // measure 57
0102
0000
0103
0000
0010
0100
0010
0000
,  // measure 58
2010
0000
0000
0000
3010
0000
0000
0000
0001
0000
0000
0010
0000
0000
1000
0000
,  // measure 59
1200
0000
0301
0000
1000
0001
1000
0000
,  // measure 60
0001
0010
0001
0010
0001
0000
0010
0000
0101
0000
0000
0100
0000
0000
0010
0000
,  // measure 61
2001
0000
3010
0000
0100
0010
0100
0000
,  // measure 62
1000
0100
0010
0001
1000
0100
0010
0001
,  // measure 63
2001
0000
3010
0000
0010
0100
0010
0000
,  // measure 64
1001
0000
0000
0000
0110
0000
0000
0000
0100
0000
0000
0001
0000
0000
1000
0000
,  // measure 65
0001
0000
0011
0000
0100
0010
0101
0000
,  // measure 66
2000
0100
3010
0001
1000
0100
0020
0000
,  // measure 67
1030
0000
0001
0010
0100
0010
0001
0000
0000
0001
0010
0100
2000
0000
0000
0000
,  // measure 68
3001
0000
0100
0010
0001
0010
0100
0000
0000
1000
0100
0010
0002
0000
0000
0000
,  // measure 69
1003
0000
0100
0001
1000
0001
0100
0000
0000
0010
1000
0010
0200
0000
0000
0000
,  // measure 70
0301
0000
0000
0000
0220
0000
0000
0000
0000
0000
0000
0000
0000
0000
0330
0000
1001
0000
0000
0000
0110
0000
0000
0000
1000
0100
0010
0001
1000
0100
0010
0001
,  // measure 71
1000
0000
0000
1100
0000
0000
0100
0000
0000
0101
0000
0000
0110
0000
0010
0000
,  // measure 72
0010
0000
0000
1100
0000
0000
0100
0000
0000
0101
0000
0000
1000
0000
1000
0000
,  // measure 73
0001
0000
0000
0011
0000
0000
1000
0000
0000
1010
0000
0000
1000
0000
1000
0000
,  // measure 74
0010
0000
0000
0101
0000
0000
0010
0000
0000
1001
0000
0000
0010
0000
0100
0000
,  // measure 75
1001
0000
0000
0110
0000
0000
0001
0000
0000
0010
0000
0000
1000
0001
1000
0001
,  // measure 76
1000
0000
0000
0110
0000
0000
1001
0000
0000
0110
0000
0000
0001
1000
0001
1000
,  // measure 77
0001
0000
0000
0110
0000
0000
0100
0000
0000
0101
0000
0000
1000
0001
1000
0001
,  // measure 78
1000
0000
0000
1001
0000
0000
0001
0000
0000
0011
0000
0000
0100
0000
0101
0000
,  // measure 79
0100
0000
0100
0001
0010
0000
0001
1000
,  // measure 80
0001
0000
0100
1000
0000
0001
0010
0000
,  // measure 81
0100
0000
0001
0010
1000
0000
0010
1000
,  // measure 82
0001
0000
0100
0001
0000
1000
0001
0000
,  // measure 83
0010
0000
0001
0100
1000
0000
0001
0100
,  // measure 84
1000
0000
0010
0100
0000
0010
0100
0000
,  // measure 85
0100
0000
0010
1000
0001
0000
0010
1000
,  // measure 86
0001
0000
0100
1000
0000
0001
0010
0000
,  // measure 87
0001
0100
0010
1000
0100
0000
0001
0010
,  // measure 88
0100
0000
0000
1001
0000
0000
0110
0000
,  // measure 89
1000
0010
0001
0010
0100
0000
0001
0010
,  // measure 90
1000
0000
0000
1010
0000
0000
0110
0000
,  // measure 91
0001
0010
1000
0010
0001
0000
0010
0100
,  // measure 92
1000
0000
0000
0011
0000
0000
0110
0000
,  // measure 93
1000
0010
0001
0020
2000
0000
3030
0000
,  // measure 94
1010
0000
0000
0110
0000
0000
0101
0000
,  // measure 95
0110
0000
0101
0000
,  // measure 96
1010
0000
0000
0110
0000
0000
1001
0000
,  // measure 97
1000
0010
0100
0001
0010
0000
1000
0001
,  // measure 98
0100
0000
1000
0001
0000
1000
0001
0000
,  // measure 99
0011
0000
0110
0000
,  // measure 100
1100
0000
0000
1010
0000
0000
0011
0000
,  // measure 101
1000
0001
0100
0001
0010
0000
1000
0001
,  // measure 102
0100
0000
1000
0010
0000
0100
0001
0000
,  // measure 103
0021
1030
0021
1030
,  // measure 104
0110
0000
0000
1001
0000
0000
0011
0000
,  // measure 105
1000
0010
0100
0001
0010
0000
0100
1000
,  // measure 106
0001
0000
0100
1000
0000
0001
0010
0000
,  // measure 107
1000
0001
0010
0100
0010
0100
1000
0100
,  // measure 108
0001
0010
0100
1000
0001
0010
0100
1000
,  // measure 109
0010
1000
0001
1000
0001
0100
1000
0100
,  // measure 110
0010
0100
1000
0001
0010
0000
2002
0000
,  // measure 111
0000
0000
0000
0000
,  // measure 112
0000
0000
0000
3003
;

//---------------dance-double - ----------------
#NOTES:
     dance-double:
     :
     Medium:
     13:
     0.654,0.924,0.410,0.890,0.095:
00000000
00000000
00000000
00000000
,
00000000
00000000
00000000
00000000
,
00000000
00000000
00000000
00000000
,
00000000
00000000
00000000
00000000
,
10000000
00000000
00000000
00010000
00000000
00000000
10000000
00000000
00000000
00010000
00000000
00000000
01000000
00000000
01000000
00000000
,
00100000
00000000
00000000
00001000
00000000
00000000
00100000
00000000
00000000
00001000
00000000
00000000
00010000
00000000
00010000
00000000
,
00000100
00000000
00000000
00001000
00000000
00000000
00000100
00000000
00000000
00001000
00000000
00000000
00000010
00000000
00000010
00000000
,
00000100
00000000
00000000
00000001
00000000
00000000
00000100
00000000
00000000
00000001
00000000
00000000
00001010
00000000
00000000
00000000
,
00000210
00000301
00000120
00001030
,
00000210
00000301
00000120
00001030
,
00020100
00031000
00010200
00001300
,
00201000
00310000
00102000
00013000
,
02010000
00000000
03100000
00000000
10000000
01000000
00010000
00000000
,
01200000
00000000
10300000
00000000
00010000
01000000
10000000
00000000
,
10000000
00010000
10000000
00010000
00000000
00000000
01000000
00100000
01000000
00100000
00000000
00000000
,
20000000
30200000
00320000
00032000
,
00013000
00000100
00010000
00000100
,
00010000
00000000
00000000
00001000
00000000
00000000
00000100
00000000
,
00000010
00001000
00000010
00001000
,
00000000
00000100
00000200
00000000
,
00000301
00001000
00000001
00001000
,
00000010
00000000
00000000
00000100
00000000
00000000
00010000
00000000
,
00001000
00100000
00001000
00100000
,
10000000
01000000
02000000
03000000
,
10000000
00010000
01000000
00100000
,
10000000
00000000
00000000
00100000
00000000
00000000
00010000
00000000
,
00001000
00010000
00000100
00001000
,
00000010
00001000
00002002
00003003
,
00000100
00000010
00000100
00000010
,
00001000
00000001
00001000
00000001
,
00000200
00000000
00000310
00001000
,
00000100
00000000
00000000
00010000
00000000
00000000
00001000
00000000
,
02200000
03300000
20020000
30030000
,
10000000
00000000
00000000
01000000
00000000
00000000
00010000
00000000
,
00202000
00303000
00020200
00030300
,
00001000
00000000
00000000
00000100
00000000
00000000
00000001
00000000
,
00000202
00000303
00002020
00003030
,
00000100
00000000
00000000
00010000
00000000
00000000
00100000
00000000
,
20200000
30300000
02200000
03300000
,
10000000
00000000
00000000
01000000
00000000
00000000
00010000
00000000
,
00202000
00303000
00020200
00030300
,
00001000
00000000
00000000
00000100
00000000
00000000
00000001
00000000
,
00000220
00000330
00002002
00003003
,
00000001
00000000
00000000
00000100
00000000
00000000
00001000
00000000
,
00022000
00033000
02200000
03300000
,
10000000
00000000
00000000
01000000
00000000
00000000
00010000
00000000
,
00002000
00000000
00000000
00000000
,
00003001
00000000
00002002
00003003
,
00021000
00000000
00000000
00000000
00000000
00000000
00000000
00000000
00031000
00000000
00000000
00000100
00000000
00000000
00000010
00000000
,
00000002
00000000
00002003
00000000
,
00003020
00000000
00000000
00000000
00000000
00000000
00000000
00000000
00010030
00000000
00000000
00001000
00000000
00000000
00010000
00000000
,
00000200
00000000
00020300
00000000
,
00032000
00000000
00000000
00000000
00000000
00000000
00000000
00000000
01003000
00000000
00000000
00100000
00000000
00000000
01000000
00000000
,
00020000
00000000
20030000
00000000
,
32000000
00000000
00000000
00000000
00000000
00000000
00000000
00000000
03010000
00000000
00000000
00001000
00000000
00000000
00010000
00000000
,
00000020
00000000
00000230
00000010
,
00000302
00000000
00000103
00000010
00001000
00000100
00000010
00000000
,
00000010
00001000
00000100
00000000
00000100
00010000
00001000
00000000
,
00020000
00000000
01030000
00100000
10000000
01000000
10000000
00000000
,
10000000
00100000
10000000
00000000
01000000
00010000
01000000
00000000
,
00200000
00000000
00301000
00010000
00001000
00010000
00001000
00000000
,
00000100
00001000
00000100
00001000
00000100
00000010
00000100
00000010
,
00000200
00000000
00000301
00000010
00000001
00000010
00001000
00000000
,
00000100
00010000
00000100
00010000
00001000
00010000
00001000
00000000
,
00200000
00320000
02030000
23000000
,
30100000
01000000
00100000
01000000
00100000
00000000
02000000
00000000
,
03020000
00130000
00100000
00100000
00000000
01000000
02200000
03300000
,
20000000
30100000
00100000
00100000
00000000
00010000
00022000
00033000
,
00000100
00000001
00000001
00000001
00000000
00000010
00000220
00000330
,
00001000
00022000
00000000
00000000
00000000
00000000
00033000
00000000
,
00000010
00000000
00000000
00000000
00001000
00000000
00000000
00000000
00000010
00000000
00000000
00001000
00000000
00000000
00000100
00000000
,
00010000
00000000
00000000
00000000
00001000
00000000
00000000
00000000
00010000
00000000
00000000
00001000
00000000
00000000
00100000
00000000
,
00010000
00000000
00000000
00000000
01000000
00000000
00000000
00000000
00010000
00000000
00000000
10000000
00000000
00000000
01000000
00000000
,
10000000
00000000
00000000
00000000
00100000
00000000
00000000
00000000
01000000
00000000
00000000
00010000
00000000
00000000
00100000
00000000
,
00001000
00000000
00000000
00000000
00010000
00000000
00000000
00000000
00001000
00000000
00000000
00000100
00000000
00000000
00000001
00000000
,
00000001
00000000
00000000
00000000
00000100
00000000
00000000
00000000
00000001
00000000
00000000
00000100
00000000
00000000
00010000
00000000
,
00010000
00000000
00000000
00000000
00001000
00000000
00000000
00000000
01000000
00000000
00000000
00100000
00000000
00000000
10000000
00000000
,
01000000
00000000
00000000
00000000
01100000
00000000
00000000
00000000
10000000
00000000
00000000
01000000
00000000
00000000
00010000
00000000
,
20000000
30000000
20000000
30000000
,
01000000
00000000
00100000
01000000
00000000
00100000
01000000
00000000
,
00020000
00030000
00020000
00030000
,
00010000
00000000
00000100
00010000
00000000
00000100
00010000
00000000
,
00001000
00000010
00001000
00000010
,
00000100
00000000
00000001
00000100
00000000
00000001
00000100
00000000
,
00000010
00001000
00000010
00001000
,
00000100
00000000
00010000
00000100
00000000
00010000
00000100
00000000
,
00002000
00103000
00200000
00301000
,
00010000
00000000
00001000
00100000
00000000
00001000
00100000
00000000
,
00020000
10030000
20000000
30010000
,
01000000
00000000
00100000
01000000
00000000
01000000
00100000
00000000
,
02000000
03010000
00200000
00301000
,
00010000
00000000
00000100
00001000
00000000
00001000
00000100
00000000
,
00000010
00000000
00002002
00000000
,
00000000
00000000
00003003
00000000
,
00000220
00000330
00002200
00003300
,
00001010
00000000
00000000
00011000
00000000
00000000
00000000
00000000
,
02000000
03100000
20000000
30010000
,
01000000
00000000
00010000
00100000
00000000
00010000
00100000
00000000
,
20020000
30030000
00202000
00303000
,
00001100
00000000
00000000
00000110
00000000
00000000
00000000
00000000
,
00000001
00001000
00000010
00000100
,
00001001
00000000
00000010
00001000
00000000
00000100
00010000
00000000
,
02200000
03300000
20020000
30030000
,
11000000
00000000
00000000
00110000
00000000
00000000
00000000
00000000
,
01000000
00010000
00100000
00001000
,
00010000
00000000
00000100
00001000
00000000
00000100
00001000
00000000
,
00000220
00000330
00002002
00003003
,
00000110
00000000
00000000
00010100
00000000
00000000
00001000
00000000
,
00100000
00001000
00010000
00000100
00100000
00001000
00010000
00000100
,
00001000
00000000
00000000
00010000
00000000
00000000
00022000
00000000
,
00000000
00000000
00000000
00000000
,
00000000
00000000
00000000
00033000
;

//---------------dance-single - ----------------
#NOTES:
     dance-single:
     :
     Medium:
     13:
     0.654,0.924,0.410,0.890,0.095:
0000
0000
0000
0000
,
0000
0000
0000
0000
,
0000
0000
0000
0000
,
0000
0000
0000
0000
,
0100
0000
0000
1000
0000
0000
0100
0000
0000
1000
0000
0000
0010
0000
0010
0000
,
0001
0000
0000
0100
0000
0000
0001
0000
0000
0100
0000
0000
1000
0000
1000
0000
,
0010
0000
0000
0100
0000
0000
0010
0000
0000
0100
0000
0000
0001
0000
0001
0000
,
0010
0000
0000
1000
0000
0000
0010
0000
0000
1000
0000
0000
0101
0000
0000
0000
,
0021
1030
0012
0103
,
0021
1030
0012
0103
,
2010
3100
1020
0130
,
0102
1003
0201
1300
,
1020
0000
0031
0000
0100
0010
1000
0000
,
0012
0000
0103
0000
1000
0010
0100
0000
,
0100
1000
0100
1000
0000
0000
0010
0001
0010
0001
0000
0000
,
0200
0302
2003
3200
,
1300
0010
1000
0010
,
1000
0000
0000
0100
0000
0000
0010
0000
,
0001
0100
0001
0100
,
0000
0010
0020
0000
,
1030
0100
1000
0100
,
0001
0000
0000
0010
0000
0000
1000
0000
,
0100
0001
0100
0001
,
0100
0010
0020
0030
,
0100
1000
0010
0001
,
0100
0000
0000
0001
0000
0000
1000
0000
,
0100
1000
0010
0100
,
0001
0100
2002
3003
,
0010
0001
0010
0001
,
0100
1000
0100
1000
,
0020
0000
0031
0100
,
0010
0000
0000
1000
0000
0000
0100
0000
,
0202
0303
2020
3030
,
0100
0000
0000
0010
0000
0000
1000
0000
,
2002
3003
0220
0330
,
0100
0000
0000
0010
0000
0000
1000
0000
,
2020
3030
0202
0303
,
0010
0000
0000
1000
0000
0000
0001
0000
,
2002
3003
0220
0330
,
0100
0000
0000
0010
0000
0000
1000
0000
,
0202
0303
2020
3030
,
0100
0000
0000
0010
0000
0000
1000
0000
,
0022
0033
2200
3300
,
1000
0000
0000
0010
0000
0000
0100
0000
,
2200
3300
0022
0033
,
0100
0000
0000
0010
0000
0000
1000
0000
,
0200
0000
0000
0000
,
1300
0000
2200
3300
,
2100
0000
0000
0000
0000
0000
0000
0000
3100
0000
0000
0010
0000
0000
0001
0000
,
2000
0000
3200
0000
,
0302
0000
0000
0000
0000
0000
0000
0000
1003
0000
0000
0100
0000
0000
1000
0000
,
0020
0000
2030
0000
,
3200
0000
0000
0000
0000
0000
0000
0000
0310
0000
0000
0001
0000
0000
0010
0000
,
2000
0000
3200
0000
,
0320
0000
0000
0000
0000
0000
0000
0000
1030
0000
0000
0100
0000
0000
1000
0000
,
0002
0000
0023
0001
,
2030
0000
3010
0001
0100
0010
0001
0000
,
0001
0100
0010
0000
0010
1000
0100
0000
,
2000
0000
3010
0001
0100
0010
0100
0000
,
0100
0001
0100
0000
0010
1000
0010
0000
,
0002
0000
0103
1000
0100
1000
0100
0000
,
0010
0100
0010
0100
0010
0001
0010
0001
,
0020
0000
1030
0001
1000
0001
0100
0000
,
0010
1000
0010
1000
0100
1000
0100
0000
,
0002
2003
3020
0230
,
0301
0010
0001
0010
0001
0000
0020
0000
,
2030
3001
0001
0001
0000
0010
2002
3003
,
0200
0301
0001
0001
0000
1000
0202
0303
,
0010
1000
1000
1000
0000
0001
2002
3003
,
0010
2200
0000
0000
0000
0000
3300
0000
,
0001
0000
0000
0000
0100
0000
0000
0000
0001
0000
0000
0100
0000
0000
0010
0000
,
1000
0000
0000
0000
0100
0000
0000
0000
1000
0000
0000
0100
0000
0000
0001
0000
,
1000
0000
0000
0000
0010
0000
0000
0000
1000
0000
0000
0100
0000
0000
0010
0000
,
0100
0000
0000
0000
0001
0000
0000
0000
0010
0000
0000
1000
0000
0000
0001
0000
,
0100
0000
0000
0000
1000
0000
0000
0000
0100
0000
0000
0010
0000
0000
1000
0000
,
1000
0000
0000
0000
0010
0000
0000
0000
1000
0000
0000
0010
0000
0000
1000
0000
,
1000
0000
0000
0000
0100
0000
0000
0000
0010
0000
0000
0001
0000
0000
0100
0000
,
0010
0000
0000
0000
0011
0000
0000
0000
0100
0000
0000
0010
0000
0000
1000
0000
,
0200
0300
0200
0300
,
0010
0000
0001
0010
0000
0001
0010
0000
,
2000
3000
2000
3000
,
1000
0000
0010
1000
0000
0010
1000
0000
,
0100
0001
0100
0001
,
0010
0000
1000
0010
0000
1000
0010
0000
,
0001
0100
0001
0100
,
0010
0000
1000
0010
0000
1000
0010
0000
,
0200
0301
0002
0103
,
1000
0000
0100
0001
0000
0100
0001
0000
,
2000
3100
0200
1300
,
0010
0000
0001
0010
0000
0010
0001
0000
,
0020
1030
0002
0103
,
1000
0000
0010
0100
0000
0100
0010
0000
,
0001
0000
2002
0000
,
0000
0000
3003
0000
,
2002
3003
0220
0330
,
0101
0000
0000
1100
0000
0000
0000
0000
,
0020
0031
0200
1300
,
0010
0000
1000
0001
0000
1000
0001
0000
,
2200
3300
0202
0303
,
0110
0000
0000
0011
0000
0000
0000
0000
,
1000
0100
0001
0010
,
1100
0000
0001
0100
0000
0010
1000
0000
,
0022
0033
2200
3300
,
0110
0000
0000
1001
0000
0000
0000
0000
,
0010
1000
0001
0100
,
1000
0000
0010
0100
0000
0010
0100
0000
,
0022
0033
2200
3300
,
0011
0000
0000
1010
0000
0000
0100
0000
,
0001
0100
1000
0010
0001
0100
1000
0010
,
0100
0000
0000
1000
0000
0000
2002
0000
,
0000
0000
0000
0000
,
0000
0000
0000
3003
;

//---------------dance-single - ----------------
#NOTES:
     dance-single:
     :
     Beginner:
     7:
     0.210,0.308,0.110,0.071,0.000:
0000
0000
0000
0000
,
0000
0000
0000
0000
,
0000
0000
0000
0000
,
0000
0000
0000
0000
,
1000
0000
0000
0000
,
0001
0000
0000
0000
,
1000
0000
1000
0000
,
0001
0000
0001
0000
,
0010
0000
0010
0000
,
0001
0000
0001
0000
,
0010
0000
0010
0000
,
1000
0000
1000
0000
,
0010
0000
0010
0000
,
0001
0000
0001
0000
,
0100
0000
0100
0000
,
0010
0010
0010
0000
,
1000
0000
0000
0000
,
0001
0000
0000
0000
,
1000
0000
0000
0000
,
0001
0000
0001
0000
,
0001
0000
0000
0000
,
1000
0000
0000
0000
,
0001
0000
0000
0000
,
1000
0000
1000
0000
,
0100
0000
0000
0000
,
0010
0000
0000
0000
,
0100
0000
0000
0000
,
0010
0000
0010
0000
,
0100
0000
0000
0000
,
0010
0000
0000
0000
,
1000
0000
0000
0000
,
0001
0000
0000
0000
,
0100
0000
0100
0000
,
0000
0000
0000
0000
,
0010
0000
0010
0000
,
0000
0000
0000
0000
,
0100
0000
0100
0000
,
0000
0000
0000
0000
,
0010
0000
0010
0000
,
0000
0000
0000
0000
,
0100
0000
0100
0000
,
0000
0000
0000
0000
,
0010
0000
0010
0000
,
0000
0000
0000
0000
,
0100
0000
0100
0000
,
0000
0000
0000
0000
,
0010
0000
0010
0000
,
0000
0000
1001
0000
,
0100
0000
0100
0000
,
0010
0000
0010
0000
,
1000
0000
1000
0000
,
0001
0000
0001
0000
,
1000
0000
0100
0000
,
0010
0000
0100
0000
,
1000
0000
0001
0000
,
0010
0000
0100
0000
,
0002
0000
0003
0000
,
0000
0000
0000
0000
,
2000
0000
3000
0000
,
0000
0000
0000
0000
,
0020
0000
0030
0000
,
0100
0100
0100
0100
,
0200
0000
0000
0300
,
0000
0000
0000
0000
,
0001
0000
0001
0000
,
2000
0000
3000
0000
,
0010
0010
0000
0010
,
0000
0100
0000
0100
,
0000
0001
0000
0001
,
0002
0000
0003
0000
,
0010
0000
0000
0100
,
0100
0000
0000
0001
,
0001
0000
0000
1000
,
1000
0000
0000
0010
,
0010
0000
0000
0100
,
0100
0000
0000
0001
,
0001
0000
0000
1000
,
1000
0000
0000
0000
,
1001
0000
1001
0000
,
1001
0000
0000
0000
,
0010
0000
0010
0000
,
0010
0000
0000
0000
,
1001
0000
1001
0000
,
1001
0000
0000
0000
,
0100
0000
0100
0000
,
0100
0000
0000
0000
,
1001
0000
1001
0000
,
1001
0000
0000
0000
,
0010
0000
0010
0000
,
0010
0000
0000
0000
,
1001
0000
1001
0000
,
1001
0000
0000
0000
,
0100
0000
0020
0000
,
0000
0030
0000
0000
,
0001
0000
0001
0000
,
0001
0000
0001
0000
,
1000
0000
1000
0000
,
1000
0000
1000
0000
,
0010
0000
0010
0000
,
0010
0000
0010
0000
,
0100
0000
0100
0000
,
0100
0000
0100
0000
,
0010
0000
0010
0000
,
0100
0000
0100
0000
,
1000
0000
1000
0000
,
0001
0000
0001
0000
,
1000
0000
0100
0000
,
0010
0000
0001
0000
,
1000
0000
0100
0000
,
0010
0000
0000
2002
,
0000
0000
0000
0000
,
0000
0000
0000
3003
;

//---------------dance-double - ----------------
#NOTES:
     dance-double:
     :
     Easy:
     9:
     0.464,0.704,0.567,0.378,0.016:
00000000
00000000
00000000
00000000
,
00000000
00000000
00000000
00000000
,
00000000
00000000
00000000
00000000
,
00000000
00000000
00000000
00000000
,
10000000
00010000
10000000
00010000
,
00100000
00001000
00100000
00001000
,
00010000
00000100
00010000
00000100
,
00001000
00000010
00001000
00000010
,
00000120
00000030
00002000
00003000
,
00000002
00000003
00000200
00000300
,
00020010
00030000
00002000
00003000
,
00200000
00300000
00020000
00030000
,
10200000
00300000
02000000
03000000
,
00020000
00030000
00002000
00003000
,
00000200
00001300
00000020
00000130
,
00001001
00001001
00001001
00001001
,
00000110
00000000
00000100
00000000
,
00001000
00000000
00010000
00000000
,
01100000
00000000
00100000
00000000
,
00010000
00000000
00001000
00000000
,
00001001
00000000
00000100
00000000
,
00010000
00000000
00100000
00000000
,
10010000
00000000
01000000
00000000
,
00100000
00000000
00001000
00000000
,
00010100
00000000
00010100
00000000
,
00001000
00000100
00001000
00000000
,
00010100
00000000
00010100
00000000
,
00001000
00100000
00001000
00000000
,
01100000
00000000
01100000
00000000
,
10000000
00010000
10000000
00000000
,
11000000
00000000
01100000
00000000
,
00010000
00100000
01000000
00000000
,
00020000
00030000
00002000
00003000
,
00100000
00000000
00000000
01000000
00000000
00000000
00000000
00000000
,
00002000
00003000
00020000
00030000
,
00000010
00000000
00000000
00000100
00000000
00000000
00000000
00000000
,
00020000
00030000
00002000
00003000
,
00100000
00000000
00000000
01000000
00000000
00000000
00000000
00000000
,
00020000
00030000
00002000
00003000
,
00000100
00000000
00000000
00000010
00000000
00000000
00000000
00000000
,
00000002
00000003
00002000
00003000
,
00000100
00000000
00000000
00010000
00000000
00000000
00100000
00000000
,
02000000
03000000
00200000
00300000
,
10000000
00000000
00000000
01000000
00000000
00000000
00010000
00000000
,
00002000
00003000
00000020
00000030
,
00000100
00000000
00000000
00000001
00000000
00000000
00000100
00000000
,
00002000
00000000
00000000
00000000
,
00000000
00003000
00022000
00033000
,
00100000
00001000
00100000
00001000
,
00010000
00000100
00001000
00000100
,
00000001
00000100
00000001
00000100
,
00000010
00001000
00000100
00001000
,
00010000
00001000
00010000
00001000
,
00100000
00010000
10000000
01000000
,
00100000
01000000
00100000
01000000
,
10000000
01000000
00100000
00010000
,
02200000
03300000
10000000
01010000
,
10000000
01000000
00100000
00010000
,
00022000
00033000
00000010
00001100
,
00000001
00000010
00000100
00001000
,
00022000
00033000
00100000
00011000
,
01000000
00100000
01000000
00100000
00001000
00010000
00001000
00010000
,
00002000
00000000
00003100
00000110
,
00000001
00000101
00001000
00001100
,
00000010
00001100
00000010
00000101
,
00001020
00000000
00000000
00020030
,
00031000
00000000
00011000
00000000
00000000
00100000
00101000
00000000
,
00100000
00000000
01100000
00000000
00000000
10000000
10010000
00000000
,
01000000
00000000
00110000
00000000
00000000
00001000
00001100
00000000
,
00001000
00022000
00000000
00000000
00000000
00000000
00000000
00033000
,
01000000
01000000
01000000
01010000
,
00001000
00001000
00001000
00011000
,
00000100
00000100
00000100
00000110
,
00000001
00000001
00000001
00001001
,
00000001
00000000
00000000
00000010
00000000
00000000
00000100
00000000
00000000
00000000
00000000
00000000
00001001
00000000
00000000
00000000
,
00000100
00000000
00000000
00010000
00000000
00000000
00001000
00000000
00000000
00000000
00000000
00000000
00011000
00000000
00000000
00000000
,
00010000
00000000
00000000
00100000
00000000
00000000
01000000
00000000
00000000
00000000
00000000
00000000
10010000
00000000
00000000
00000000
,
10000000
00000000
00000000
01000000
00000000
00000000
00100000
00000000
00000000
00000000
00000000
00000000
00011000
00000000
00000000
00000000
,
01100000
00000000
10010000
00000000
,
10000000
00000000
00000000
01000000
00000000
00000000
00000000
00000000
,
00011000
00000000
00110000
00000000
,
00010000
00000000
00000000
00000100
00000000
00000000
00000000
00000000
,
00001010
00000000
00000101
00000000
,
00000001
00000000
00000000
00001000
00000000
00000000
00000000
00000000
,
00000110
00000000
00001001
00000000
,
00000100
00000000
00000000
00010000
00000000
00000000
00000000
00000000
,
00010000
01000000
00010000
01000000
,
00100000
00000000
00000000
00100000
00000000
00000000
00100000
00000000
,
10000000
00010000
10000000
00010000
,
01000000
00000000
00000000
01000000
00000000
00000000
01000000
00000000
,
10000000
01000000
00100000
00010000
,
00001000
00000000
00000000
00010000
00000000
00000000
00001000
00000000
,
00010000
00000000
00002200
00000000
,
00003300
00000000
00000000
00000000
,
00000110
00000000
00000110
00000000
,
00000110
00000000
00000000
00000110
00000000
00000000
00000000
00000000
,
00001000
00000000
00000001
00000000
,
00001000
00000000
00000001
00000000
,
00001100
00000000
00001100
00000000
,
00001100
00000000
00000000
00001100
00000000
00000000
00000000
00000000
,
00001000
00000000
00100000
00000000
,
00001000
00000000
00100000
00000000
,
10010000
00000000
10010000
00000000
,
10010000
00000000
00000000
10010000
00000000
00000000
00000000
00000000
,
01000000
00000000
00100000
00000000
,
01000000
00000000
00010000
00000000
,
00011000
00000000
00011000
00000000
,
00011000
00000000
00000000
00011000
00000000
00000000
00000000
00000000
,
00200000
00000000
00302000
00000000
,
00023000
00000000
00000000
00002000
,
00000000
00000000
00000000
00000000
,
00000000
00000000
00000000
00033000
;

//---------------dance-single - ----------------
#NOTES:
     dance-single:
     :
     Easy:
     8:
     0.464,0.704,0.567,0.378,0.016:
0000
0000
0000
0000
,
0000
0000
0000
0000
,
0000
0000
0000
0000
,
0000
0000
0000
0000
,
1000
0001
1000
0001
,
0010
1000
0010
1000
,
0001
0100
0001
0100
,
1000
0010
1000
0010
,
0120
0030
2000
3000
,
0002
0003
0200
0300
,
0012
0003
2000
3000
,
0020
0030
0002
0003
,
1020
0030
0200
0300
,
0002
0003
2000
3000
,
0200
1300
0020
0130
,
1001
1001
1001
1001
,
0110
0000
0100
0000
,
1000
0000
0001
0000
,
0110
0000
0010
0000
,
0001
0000
1000
0000
,
1001
0000
0100
0000
,
0001
0000
0010
0000
,
1001
0000
0100
0000
,
0010
0000
1000
0000
,
0101
0000
0101
0000
,
1000
0100
1000
0000
,
0101
0000
0101
0000
,
1000
0010
1000
0000
,
0110
0000
0110
0000
,
1000
0001
1000
0000
,
1100
0000
0110
0000
,
0001
0010
0100
0000
,
0002
0003
2000
3000
,
0010
0000
0000
0100
0000
0000
0000
0000
,
2000
3000
0002
0003
,
0010
0000
0000
0100
0000
0000
0000
0000
,
0002
0003
2000
3000
,
0010
0000
0000
0100
0000
0000
0000
0000
,
0002
0003
2000
3000
,
0100
0000
0000
0010
0000
0000
0000
0000
,
0002
0003
2000
3000
,
0100
0000
0000
0001
0000
0000
0010
0000
,
0200
0300
0020
0030
,
1000
0000
0000
0100
0000
0000
0001
0000
,
2000
3000
0020
0030
,
0100
0000
0000
0001
0000
0000
0100
0000
,
2000
0000
0000
0000
,
0000
3000
2002
3003
,
0010
1000
0010
1000
,
0001
0100
1000
0100
,
0001
0100
0001
0100
,
0010
1000
0100
1000
,
0001
1000
0001
1000
,
0010
0001
1000
0100
,
0010
0100
0010
0100
,
1000
0100
0010
0001
,
0220
0330
1000
0101
,
1000
0100
0010
0001
,
2002
3003
0010
1100
,
0001
0010
0100
1000
,
2002
3003
0010
1001
,
0100
0010
0100
0010
1000
0001
1000
0001
,
2000
0000
3100
0110
,
0001
0101
1000
1100
,
0010
1100
0010
0101
,
1020
0000
0000
0032
,
1003
0000
1001
0000
0000
0010
1010
0000
,
0010
0000
0110
0000
0000
1000
1001
0000
,
0100
0000
0011
0000
0000
1000
1100
0000
,
1000
2002
0000
0000
0000
0000
0000
3003
,
0100
0100
0100
0101
,
1000
1000
1000
1001
,
0100
0100
0100
0110
,
0001
0001
0001
1001
,
0001
0000
0000
0010
0000
0000
0100
0000
0000
0000
0000
0000
1001
0000
0000
0000
,
0100
0000
0000
0001
0000
0000
1000
0000
0000
0000
0000
0000
1001
0000
0000
0000
,
0001
0000
0000
0010
0000
0000
0100
0000
0000
0000
0000
0000
1001
0000
0000
0000
,
1000
0000
0000
0100
0000
0000
0010
0000
0000
0000
0000
0000
1001
0000
0000
0000
,
0110
0000
1001
0000
,
1000
0000
0000
0100
0000
0000
0000
0000
,
1001
0000
0011
0000
,
0001
0000
0000
0100
0000
0000
0000
0000
,
1010
0000
0101
0000
,
0001
0000
0000
1000
0000
0000
0000
0000
,
0110
0000
1001
0000
,
0100
0000
0000
0001
0000
0000
0000
0000
,
0001
0100
0001
0100
,
0010
0000
0000
0010
0000
0000
0010
0000
,
1000
0001
1000
0001
,
0100
0000
0000
0100
0000
0000
0100
0000
,
1000
0100
0010
0001
,
1000
0000
0000
0001
0000
0000
1000
0000
,
0001
0000
2200
0000
,
3300
0000
0000
0000
,
0110
0000
0110
0000
,
0110
0000
0000
0110
0000
0000
0000
0000
,
1000
0000
0001
0000
,
1000
0000
0001
0000
,
1100
0000
1100
0000
,
1100
0000
0000
1100
0000
0000
0000
0000
,
1000
0000
0010
0000
,
1000
0000
0010
0000
,
1001
0000
1001
0000
,
1001
0000
0000
1001
0000
0000
0000
0000
,
0100
0000
0010
0000
,
0100
0000
0001
0000
,
1001
0000
1001
0000
,
1001
0000
0000
1001
0000
0000
0000
0000
,
0020
0000
2030
0000
,
3002
0000
0000
2000
,
0000
0000
0000
0000
,
0000
0000
0000
3003
;
