#TITLE:セロトニン;
#SUBTITLE:;
#ARTIST:U1 Overground;
#TITLETRANSLIT:Serotonin;
#SUBTITLETRANSLIT:;
#ARTISTTRANSLIT:;
#GENRE:;
#CREDIT:;
#MENUCOLOR:;
#METERTYPE:DDR;
#BANNER:Serotonin.png;
#BACKGROUND:Serotonin-bg.png;
#LYRICSPATH:;
#CDTITLE:;
#MUSIC:Serotonin.ogg;
#OFFSET:0.480;
#SAMPLESTART:52.180;
#SAMPLELENGTH:15.000;
#SELECTABLE:YES;
#LISTSORT:;
#DISPLAYBPM:150.000;
#BPMS:0.000=150.000;
#STOPS:33.500=0.800
,159.500=0.800
;
#BGCHANGES:4.000=serotonin.avi=1.000=1=0=1,
294.000=serotonin-bg.png=1.000=0=0=1,
99999=-nosongbg-=1.000=0=0=0 // don't automatically add -songbackground-
;
#ATTACKS:;

//---------------dance-double - ----------------
#NOTES:
     dance-double:
     :
     Hard:
     17:
     0.789,0.836,0.196,0.548,0.763:
00000000
00000000
00000000
00000000
,
00000000
00000000
00000000
00000000
,
00000000
00000000
00000000
00000000
,
00000000
00000000
00000000
00000000
,
00000000
00000000
00000000
00000000
,
00001000
00000000
00010000
00001000
00000000
00010000
00001000
00000000
00010000
00000100
00000000
00010000
00000100
00000000
00001000
00000000
,
00000010
00000000
00001000
00000010
00000000
00001000
00000001
00000000
00001000
00000001
00000000
00001000
00000100
00000000
00001000
00000000
,
00000100
00000000
00010000
00001000
00000000
00010000
00001000
00000000
00100000
00010000
00000000
00100000
00010000
00000000
01000000
00000000
,
00100000
10000000
00100000
10000000
00100000
10000000
00100000
00000000
20000000
00000000
00000000
00000000
31000000
00000000
00010000
00100000
,
00020000
00000000
01030000
00000000
00200000
00000000
01300000
00010000
,
20000000
00000000
00000000
00000000
30100000
00000000
01000000
00000000
02000000
00000000
00000000
00000000
03010000
00000000
00100000
10000000
,
00200000
00000000
00301000
00010000
00000200
00000000
00001300
00000020
,
00000130
00000000
00000000
00000000
00000001
00000000
00000010
00000000
00010000
00000000
00000000
00000000
00001000
00000000
00010000
00001000
,
00020000
00000000
00031000
00100000
00020000
00000000
01030000
00100000
,
20000000
00000000
30100000
01000000
00002000
00000000
00023000
00000000
,
00030200
00002300
00003020
00000032
,
00000023
00000000
00000000
00000000
00002030
00000000
00000000
00000000
00003100
00000000
00000010
00000000
00001000
00000000
00000100
00010000
,
00000100
00000000
00001000
00100000
00010000
00100000
00001000
00100000
00010000
00000000
01000000
00000000
10000000
00000000
01000000
00010000
,
01000000
00000000
00100000
00002000
00013000
00000000
00001000
00000100
00000000
00000000
00000100
00000000
00000001
00000000
00001000
00000100
,
00000000
00000000
00010000
00001000
00100000
00010000
00100000
00001000
00200000
00000000
00000000
00000000
01300000
00000000
01000000
00020000
,
00000000
00000000
00130000
00001000
00100000
00001000
00100000
00010000
10000000
00000000
01000000
00000000
00010000
00000000
00001000
00100000
,
00010000
00000000
00001000
00000010
00000100
00000010
00001000
00000010
00000100
00000000
00000010
00000000
00001000
00000000
00000100
00010000
,
00001000
00010000
00001000
00200000
01300000
00020000
10030000
00000000
,
02000000
03100000
00002000
00013000
00000020
00000000
00000100
00000000
,
00000100
00000000
00000000
00000000
00000130
00000000
00000000
00000000
00001010
00000000
00000000
00000010
00001000
00000000
00000100
00010000
,
00001000
00000000
00000000
00001000
00010000
00000000
00110000
00000000
01000000
00000000
00000000
10000000
00100000
00000000
01000000
00010000
,
00100000
00000000
00000000
00100000
00001000
00000000
00011000
00000000
00001000
00000000
00000000
00001000
00000100
00000000
00000010
00001000
,
00000100
00000000
00000000
00000001
00000100
00000000
00001100
00000000
00000100
00000000
00000000
00000100
00010000
00000000
00001000
00100000
,
00010000
00100000
00000000
01000000
00010000
00000000
10010000
00000000
01000000
00000000
00200000
00000000
10300000
00000000
02000000
00010000
,
03000000
00000000
00000000
00010000
00001000
00000000
00000200
00000000
00001300
00000000
00000020
00000000
00000130
00000000
00000002
00001000
,
00000003
00000000
00000010
00000100
00000000
00000000
00002100
00000000
00013000
00000000
00200000
00000000
00310000
00000000
02000000
00000000
,
03010000
20000000
30010000
00200000
00301000
00020000
00030100
00002000
,
00003010
00000000
00000200
00000000
00000310
00000010
00000010
00000000
00001001
00000000
00000000
00000000
00000010
00001000
00000010
00001000
,
00000010
00001000
00000000
00000100
00010000
00000000
00000100
00000000
00010000
00001000
00010000
00000000
00001000
00100000
00001000
00000000
,
00200000
00000000
00000000
00000000
01300000
00000000
00000000
00000000
10000000
01000000
10000000
00000000
01000000
00010000
01000000
00010000
,
01000000
00010000
00000000
00100000
00010000
00000000
00100000
00000000
00001000
00010000
00001000
00000000
00001000
00000100
00001000
00000010
,
00000100
00000000
00000010
00001000
00000100
00010000
00001000
00100000
00020000
00000000
00000000
00000000
00100000
00000000
00000000
00000000
,
00130000
00000000
00000000
00000000
00000000
00000000
00000000
00000000
00000000
00000000
00000000
00000000
00010000
00000000
00000000
00000000
00000000
00000000
10000000
00000000
01000000
00000000
10000000
00000000
01000000
00000000
00000000
00100000
00000000
00000000
01000000
00000000
00000000
00000000
00000000
00000000
00010000
00000000
00000000
10000000
00000000
00000000
01000000
00000000
00000000
00000000
00000000
00000000
,
00100000
00000000
00010000
00000000
00100000
00000000
00000000
00000000
00000000
00000000
00000000
00000000
00010000
00000000
00001000
00000000
00010000
00000000
00000000
00000000
00000000
00000000
00000000
00000000
00000100
00000000
00000000
00000000
00000000
00000000
00010000
00000000
00000000
00000000
00000000
00000000
00000100
00000000
00000000
00000000
00000000
00000000
00001000
00000000
00000000
00000100
00000000
00000000
,
00001000
00000010
00001000
00000000
00000001
00000000
00000100
00000000
00000010
00000000
00001000
00000000
00000100
00000000
00001100
00000000
,
00200000
00000000
10000000
00000000
00300000
00000000
01000000
00010000
02000000
00000000
00000000
03100000
00000000
00000000
10000000
00000000
,
01000000
00010000
01000000
00010000
00000000
00000000
00100000
00000000
00002000
00000000
00000000
00013000
00000000
00000000
00001100
00000000
,
00000020
00000000
00000130
00000000
00000000
00000000
00000001
00000100
00000020
00000000
00000000
00001030
00000000
00000000
00001100
00000000
,
00020000
00000000
00001000
00000000
00030000
00000000
00001000
00100000
00002000
00000000
00000000
00013000
00000000
00000000
02020000
00030000
,
03200000
00000000
10000000
00000000
00300000
00000000
01000000
01000000
20000000
00000000
00000000
30100000
00000000
00000000
01010000
00000000
,
00100000
00010000
00100000
00010000
00000000
00000000
00001000
00010000
00012000
00000000
00000000
00000000
00003100
00000000
00000000
00000000
,
00000010
00000000
00000000
00000000
00000000
00000000
00000110
00000000
00000000
00000000
00000000
00000000
00000000
00000000
00000000
00000000
00000000
00000000
00000001
00000000
00000000
00000100
00000000
00000000
00001000
00000000
00000000
00000000
00000100
00000000
00000000
00000000
00000010
00000000
00000000
00000000
00000000
00000000
00000000
00000000
00000000
00000000
00001001
00000000
00000000
00000000
00000000
00000000
,
00000020
00000000
00001000
00000000
00000030
00000000
00000100
00010000
00002000
00000000
00000000
00013000
00000000
00000000
00100000
00000000
,
01000000
00000000
10000000
00000000
01000000
00000000
00010000
00000000
01000000
00000000
10000000
00000000
01000000
00100000
00010000
00000000
,
00000100
00000000
00001000
00000000
00000100
00000000
00000001
00000000
00000100
00000000
00001000
00000000
00100000
01000000
10000000
00000000
,
01000000
00010000
01000000
00010000
01000000
00000000
10000000
01000000
00000000
00010000
01000000
00000000
00010000
00001000
00010000
00000000
,
00001000
00000100
00001000
00000100
00001000
00000000
00000100
00000001
00000000
00000001
00000100
00000000
00000100
00001000
00000100
00000000
,
00001000
00100000
00010000
00100000
00001000
00000000
00010000
01000000
00000000
01000000
00010000
00000000
10000000
01000000
00100000
00000000
,
00001000
00010000
00000100
00010000
00001000
00000000
00000100
00001000
00000000
00000010
00000100
00000000
00000001
00000100
00001000
00000000
,
00000100
00010000
00001000
00000000
00010000
00000000
00010000
00100000
00000000
00100000
01000000
00000000
10000000
01000000
00100000
00000000
,
01010000
00000000
00000000
01100000
00000000
00000000
00011000
00000000
00000000
00011000
00000000
00000000
00001100
00000000
00000000
00000000
,
00000001
00000000
00001000
00000100
00000000
00001000
00000010
00000000
00001000
00000100
00000000
00001000
00000010
00000000
00001000
00000000
,
00100000
00000000
00010000
01000000
00000000
00010000
01000000
00000000
00010000
00100000
00000000
00010000
00100000
00000000
00001000
00000000
,
00000100
00000000
00001000
00000010
00000000
00001000
00000010
00000000
00001000
00000001
00000000
00001000
00000100
00000000
00000010
00000000
,
00010000
00000000
00001000
00100000
00000000
00010000
00100000
00000000
00010000
01000000
00000000
00100000
10000000
00000000
01000000
00000000
,
00010000
00000000
00100000
00001000
00000000
00100000
00001000
00000000
00010000
00000100
00000000
00001000
00000100
00000000
00000010
00000000
,
00010000
00000000
00001000
00100000
00000000
00001000
00100000
00000000
00010000
00100000
00000000
00010000
01000000
00000000
00001000
00000000
,
00010000
00000000
00000100
00001000
00000000
00000100
00001000
00000000
00000010
00000100
00000000
00000001
00001000
00000000
00000110
00000000
,
00000001
00000000
00001000
00000100
00000000
00000100
00001000
00000000
00000100
00010000
00000000
00010000
00001000
00000000
00101000
00000000
,
00010000
00100000
00010000
00100000
00010000
00000000
02000000
00000000
00000000
03200000
00000000
00000000
10300000
00000000
01100000
00000000
,
00010000
00001000
00010000
00001000
00010000
00000000
00002000
00000000
00000000
00003200
00000000
00000000
00000310
00000000
00000100
00000000
,
00000001
00001000
00000001
00001000
00000001
00000000
00000020
00000000
00000000
00002030
00000000
00000000
00003100
00000010
00000100
00000000
,
00001000
00000100
00001000
00000100
00001000
00000000
00200000
00000000
00000000
00320000
00000000
00000000
10030000
00000000
11000000
00000000
,
00100000
00001000
00010000
00001000
00100000
00000000
00020000
00000000
00000000
00030200
00000000
00000000
00001300
00000010
00001000
00000000
,
00000001
00000100
00000010
00000100
00000001
00000000
00000020
00000000
00000000
00002030
00000000
00000000
00003100
00010000
00000100
00000000
,
00010000
00001000
00010000
00001000
00010000
00000000
00100000
00000000
01000000
00010000
00000000
01000000
00010000
00000000
01000000
00000000
,
10000000
01000000
10000000
00100000
01000000
00010000
01000000
00100000
00001000
00010000
00000100
00001000
00000010
00000100
00001000
00010000
,
00022000
00000000
00000000
00000000
,
00000000
00000000
00000000
00033000
;

//---------------dance-single - ----------------
#NOTES:
     dance-single:
     :
     Hard:
     17:
     0.789,0.836,0.196,0.548,0.763: // measure 1
0000
0000
0000
0000
,  // measure 2
0000
0000
0000
0000
,  // measure 3
0000
0000
0000
0000
,  // measure 4
0000
0000
0000
0000
,  // measure 5
0000
0000
0000
0000
,  // measure 6
0100
0000
0010
0100
0000
0010
0100
0000
0010
1000
0000
0010
1000
0000
0100
0000
,  // measure 7
0001
0000
0100
0001
0000
0100
0010
0000
0100
0010
0000
0100
1000
0000
0100
0000
,  // measure 8
1000
0000
0010
0100
0000
0010
0100
0000
0001
0010
0000
0001
0010
0000
1000
0000
,  // measure 9
0001
0100
0001
0100
0001
0100
0001
0000
2000
0000
0000
0000
3100
0000
0001
0010
,  // measure 10
0002
0000
0103
0000
0020
0000
0130
0001
,  // measure 11
2000
0000
0000
0000
3010
0000
0100
0000
0200
0000
0000
0000
0301
0000
0010
1000
,  // measure 12
0020
0000
1030
0001
0200
0000
1300
0020
,  // measure 13
0130
0000
0000
0000
0001
0000
0010
0000
0001
0000
0000
0000
1000
0000
0001
1000
,  // measure 14
0002
0000
1003
0010
0002
0000
0103
0010
,  // measure 15
2000
0000
3010
0100
2000
0000
3002
0000
,  // measure 16
0203
2300
3020
0032
,  // measure 17
0023
0000
0000
0000
2030
0000
0000
0000
3100
0000
0010
0000
1000
0000
0100
0001
,  // measure 18
0100
0000
1000
0010
0001
0010
1000
0010
0001
0000
0100
0000
1000
0000
0100
0001
,  // measure 19
0100
0000
0010
2000
3001
0000
1000
0100
0000
0000
0100
0000
0001
0000
1000
0100
,  // measure 20
0000
0000
0001
1000
0010
0001
0010
1000
0020
0000
0000
0000
0130
0000
0100
0002
,  // measure 21
0000
0000
0013
1000
0010
1000
0010
0001
0100
0000
1000
0000
0001
0000
1000
0010
,  // measure 22
0001
0000
1000
0010
0100
0010
1000
0010
0100
0000
0010
0000
1000
0000
0100
0001
,  // measure 23
1000
0001
1000
0020
1030
0002
0103
0000
,  // measure 24
2000
3010
0002
0103
0020
0000
0100
0000
,  // measure 25
0100
0000
0000
0000
0130
0000
0000
0000
0011
0000
0000
0010
0001
0000
0100
1000
,  // measure 26
0001
0000
0000
0001
1000
0000
1010
0000
0100
0000
0000
0001
0010
0000
0100
1000
,  // measure 27
0010
0000
0000
0010
0001
0000
1001
0000
0001
0000
0000
0001
0100
0000
0010
0001
,  // measure 28
0100
0000
0000
0001
0100
0000
1100
0000
0100
0000
0000
0100
1000
0000
0010
0001
,  // measure 29
1000
0001
0000
0100
1000
0000
1001
0000
0100
0000
0002
0000
0013
0000
0200
1000
,  // measure 30
0300
0000
0000
1000
0010
0000
0200
0000
0310
0000
0002
0000
0103
0000
2000
0010
,  // measure 31
3000
0000
0001
0100
0000
0000
0120
0000
1030
0000
0002
0000
1003
0000
0200
0000
,  // measure 32
1300
0020
1030
0002
0013
2000
3100
0020
,  // measure 33
0031
0000
0200
0000
0301
0001
0001
0000
1010
0000
0000
0000
0001
0010
0001
0010
,  // measure 34
0001
0010
0000
0100
1000
0000
0100
0000
1000
0010
1000
0000
0010
0001
0010
0000
,  // measure 35
0002
0000
0000
0000
0103
0000
0000
0000
0010
0100
0010
0000
0100
1000
0100
1000
,  // measure 36
0100
1000
0000
0001
1000
0000
0001
0000
0010
1000
0010
0000
0010
0100
0010
0001
,  // measure 37
0100
0000
0001
0010
0100
1000
0010
0001
2000
0000
0000
0000
0001
0000
0000
0000
,  // measure 38
3001
0000
0000
0000
0000
0000
0000
0000
0000
0000
0000
0000
1000
0000
0000
0000
0000
0000
0010
0000
0100
0000
0010
0000
0100
0000
0000
0001
0000
0000
0100
0000
0000
0000
0000
0000
1000
0000
0000
0010
0000
0000
0100
0000
0000
0000
0000
0000
,  // measure 39
0001
0000
1000
0000
0001
0000
0000
0000
0000
0000
0000
0000
1000
0000
0010
0000
1000
0000
0000
0000
0000
0000
0000
0000
0100
0000
0000
0000
0000
0000
1000
0000
0000
0000
0000
0000
0100
0000
0000
0000
0000
0000
0010
0000
0000
0100
0000
0000
,  // measure 40
0010
0001
0010
0000
1000
0000
0100
0000
0001
0000
0010
0000
0100
0000
0110
0000
,  // measure 41
0002
0000
0010
0000
0003
0000
0100
1000
0200
0000
0000
0301
0000
0000
0010
0000
,  // measure 42
0100
1000
0100
1000
0000
0000
0001
0000
0020
0000
0000
1030
0000
0000
0110
0000
,  // measure 43
0002
0000
0103
0000
0000
0000
1000
0100
0002
0000
0000
0013
0000
0000
0110
0000
,  // measure 44
2000
0000
0010
0000
3000
0000
0010
0001
0020
0000
0000
1030
0000
0000
2200
3000
,  // measure 45
0302
0000
0010
0000
0003
0000
0100
0100
0020
0000
0000
0031
0000
0000
1100
0000
,  // measure 46
0001
1000
0001
1000
0000
0000
0010
1000
1020
0000
0000
0000
0130
0000
0000
0000
,  // measure 47
0001
0000
0000
0000
0000
0000
0101
0000
0000
0000
0000
0000
0000
0000
0000
0000
0000
0000
1000
0000
0000
0100
0000
0000
0010
0000
0000
0000
0100
0000
0000
0000
0001
0000
0000
0000
0000
0000
0000
0000
0000
0000
1010
0000
0000
0000
0000
0000
,  // measure 48
0002
0000
0010
0000
0003
0000
0100
1000
0020
0000
0000
1030
0000
0000
0001
0000
,  // measure 49
0100
0000
0010
0000
0100
0000
1000
0000
0100
0000
0010
0000
0100
0001
1000
0000
,  // measure 50
0100
0000
0010
0000
0100
0000
1000
0000
0100
0000
0010
0000
0001
0100
0010
0000
,  // measure 51
0100
1000
0100
1000
0100
0000
0010
0100
0000
1000
0100
0000
1000
0010
1000
0000
,  // measure 52
0010
0100
0010
0100
0010
0000
0100
1000
0000
1000
0100
0000
0100
0010
0100
0000
,  // measure 53
0010
0001
1000
0001
0010
0000
1000
0100
0000
0100
1000
0000
0010
0100
0001
0000
,  // measure 54
0010
1000
0100
1000
0010
0000
0100
0010
0000
0001
0100
0000
1000
0100
0010
0000
,  // measure 55
0100
1000
0010
0000
1000
0000
1000
0001
0000
0001
0100
0000
0010
0100
0001
0000
,  // measure 56
1100
0000
0000
0101
0000
0000
1010
0000
0000
1010
0000
0000
0110
0000
0000
0000
,  // measure 57
0100
0000
0001
1000
0000
0001
0010
0000
0001
1000
0000
0001
0010
0000
0001
0000
,  // measure 58
0010
0000
0100
1000
0000
0100
1000
0000
0100
0010
0000
0100
0010
0000
0001
0000
,  // measure 59
1000
0000
0001
0010
0000
0001
0010
0000
0001
0100
0000
0001
1000
0000
0010
0000
,  // measure 60
0100
0000
0001
0010
0000
0100
0010
0000
0100
1000
0000
0010
0001
0000
1000
0000
,  // measure 61
0100
0000
0010
0001
0000
0010
0001
0000
0100
1000
0000
0001
1000
0000
0010
0000
,  // measure 62
0100
0000
0001
0010
0000
0001
0010
0000
0100
0010
0000
0100
1000
0000
0001
0000
,  // measure 63
0100
0000
1000
0001
0000
1000
0001
0000
0010
1000
0000
0100
0001
0000
1010
0000
,  // measure 64
0100
0000
0001
1000
0000
1000
0001
0000
1000
0100
0000
0100
0001
0000
0011
0000
,  // measure 65
0100
0010
0100
0010
0100
0000
2000
0000
0000
3020
0000
0000
0031
0000
1010
0000
,  // measure 66
0100
0001
0100
0001
0100
0000
0002
0000
0000
2003
0000
0000
3010
0000
1000
0000
,  // measure 67
0100
0001
0100
0001
0100
0000
0020
0000
0000
0032
0000
0000
1003
0010
1000
0000
,  // measure 68
0001
1000
0001
1000
0001
0000
0020
0000
0000
0230
0000
0000
0301
0000
1001
0000
,  // measure 69
0010
0100
1000
0100
0010
0000
2000
0000
0000
3002
0000
0000
0103
0010
0100
0000
,  // measure 70
1000
0001
0010
0001
1000
0000
0020
0000
0000
0230
0000
0000
0301
1000
0001
0000
,  // measure 71
1000
0100
1000
0100
1000
0000
0010
0000
1000
0001
0000
1000
0001
0000
1000
0000
,  // measure 72
0001
1000
0001
0010
1000
0100
1000
0010
0001
0100
1000
0001
0010
1000
0001
0100
,  // measure 73
2002
0000
0000
0000
,  // measure 74
0000
0000
0000
3003
;

//---------------dance-double - ----------------
#NOTES:
     dance-double:
     :
     Medium:
     10:
     0.454,0.490,0.133,0.461,0.145:
00000000
00000000
00000000
00000000
,
00000000
00000000
00000000
00000000
,
00000000
00000000
00000000
00000000
,
00000000
00000000
00000000
00000000
,
00000000
00000000
00000000
00000000
,
00100000
00000000
00000000
00001000
00000000
00000000
00010000
00000000
00000000
00001000
00000000
00000000
00010000
00000000
00000000
00000000
,
00001000
00000000
00000000
00000100
00000000
00000000
00010000
00000000
00000000
00001000
00000000
00000000
00000100
00000000
00000000
00000000
,
00000100
00000000
00000000
00000100
00000000
00000000
00001000
00000000
00000000
00000100
00000000
00000000
00000010
00000000
00000000
00000000
,
00000010
00000000
00000000
00000100
00000000
00000000
00000100
00000000
00000001
00000000
00000000
00000000
00000001
00000000
00000000
00000000
,
00002000
00000000
00000000
00003000
00000100
00000000
00010000
00001000
,
00200000
00000000
00000000
00300000
00010000
00000000
01000000
00000000
,
00200000
00000000
00000000
00000000
10300000
00000000
01000000
00010000
,
00200000
00001000
00301000
00010000
,
00001000
00000000
00010000
00001000
00000100
00000000
00001000
00000010
,
00000100
00000000
00000001
00000100
00000020
00000000
00002030
00000000
,
00003200
00020300
00032000
00203000
,
00320000
02030000
03200000
10000000
,
02300000
00000000
00010000
00010000
,
00100000
00000000
00000000
03000000
00200000
00000000
00310000
00000000
,
00001000
00000000
00010000
00001000
00000100
00000000
00000010
00000000
,
00001010
00000000
00000001
00000100
00001000
00000000
00001100
00000000
,
00010000
00000000
00001000
00100000
00010000
00000000
01100000
00000000
,
00010000
00000000
10000000
01000000
00100000
00000000
01100000
00000000
,
10000000
00000000
10010000
00000000
00100000
00010000
00001000
00000000
,
00000100
00000000
00010000
00000000
00001000
00000000
00000000
00000000
00000020
00000000
00000000
00001000
00000000
00000000
00000130
00000000
,
00000002
00000000
00000000
00001000
00000000
00000000
00001003
00000000
00000020
00000000
00000000
00000100
00000000
00000000
00001030
00000000
,
00000100
00000000
00010000
00000000
00001000
00000000
00000000
00000000
00200000
00000000
00000000
00001000
00000000
00000000
00310000
00000000
,
00000200
00000000
00000000
00001000
00000000
00000000
00001300
00000000
00000020
00000000
00000000
00000100
00000000
00000000
00000130
00000000
,
00000001
00000000
00001000
00000000
00000100
00000000
00000000
00000000
00020000
00000000
00000000
00001000
00000000
00000000
00031000
00000000
,
00200000
00000000
00000000
00010000
00000000
00000000
00310000
00000000
02000000
00000000
00000000
00100000
00000000
00000000
03100000
00000000
,
10000000
01000000
00010000
00000000
00100000
00001000
00000000
00001000
,
00000000
00010000
00000000
00010000
00000000
00000100
00000000
00000100
,
00000000
00000010
00000020
00000000
00000130
00000000
00000001
00001000
,
00000100
00000000
00001000
00000001
00000100
00000000
00000010
00001000
,
00000200
00000000
00010300
00000000
00200000
00000000
00310000
10000000
,
02000000
00000000
13000000
00100000
00020000
00000000
00031000
00010000
,
00200000
00301000
00020000
00000000
,
00000000
00000000
00031000
00000100
00001000
00000100
00000010
00000100
,
00000010
00000000
00001001
00000000
00000100
00010000
00000000
00001000
,
00000000
00100000
00000000
00010000
00000000
01000000
00000000
00100000
,
20000000
00000000
00000000
30010000
00200000
00000000
00000000
00310000
,
00001000
00010000
00002000
00013000
,
00000200
00000000
00000000
00001300
00000020
00000000
00000000
00000130
,
00000001
00000000
00001000
00000000
00000100
00001000
00000100
00000000
,
00020000
00000000
00000000
00031000
00200000
00000000
00000000
00310000
,
01000000
00000000
01100000
00000000
10000000
01000000
00010000
00000000
,
00200000
00000000
00000000
00000000
00000000
00000000
00000000
00000000
00000000
00301000
00000000
00000000
00010000
00000000
00010000
00000000
00010000
00000000
00000000
00000000
00000000
00001000
00000000
00000000
,
00020000
00030200
00002300
00003010
,
00000100
00000001
00000100
00000000
00000100
00001000
00000100
00000000
,
00000100
00010000
00001000
00000000
00001000
00100000
00010000
00000000
,
01000000
00010000
00000000
00000000
00100000
00000000
00000000
10000000
00000000
00000000
01000000
00000000
00000000
00010000
00000000
00000000
,
00100000
00000000
00001000
00000000
00000000
00010000
00000000
00000000
00001000
00000000
00000000
00000000
00011000
00000000
00000000
00000000
,
00001000
00000000
00010000
00000000
00001000
00000000
00000000
00000100
00000000
00000000
00001000
00000000
00000000
00000010
00000000
00000000
,
00000100
00000000
00000000
00000001
00000000
00000000
00001000
00000000
00000000
00001000
00000000
00000000
00100000
00000000
00100000
00000000
,
00010000
01000000
10000000
00000000
01000000
00010000
00100000
00000000
,
00001000
00010000
00000100
00000000
00000010
00000000
00001001
00000000
,
00000002
00000023
00002030
00003200
,
00010300
00010000
00001000
00100000
,
00020000
02030000
23000000
30200000
,
00301000
00010000
00000100
00000100
,
00000001
00000000
00000000
00001000
00000000
00000000
00000100
00000000
00000000
00001000
00000000
00000000
00000001
00000000
00000000
00000000
,
00000100
00000000
00000000
00010000
00000000
00000000
00001000
00000000
00000000
00100000
00000000
00000000
00001000
00000000
00010000
00000000
,
01000000
00000000
00000000
00010000
00000000
00000000
10000000
00000000
00000000
01000000
00000000
00000000
10000000
00000000
00000000
00000000
,
00100000
00000000
00000000
00001000
00000000
00000000
00010000
00000000
00000000
00001000
00000000
00000000
00010000
00000000
00000000
00000000
,
00000200
00000000
00000000
00000000
00000300
00000000
00001010
00000000
00000000
00001010
00000000
00000000
00001010
00000000
00000000
00000000
,
00002000
00003002
00002003
00003200
,
00020300
00000000
00000000
00000000
00000000
00000000
00031000
00000000
00000000
00011000
00000000
00000000
00011000
00000000
00000000
00000000
,
00200000
00000000
00000000
00000000
00000000
00000000
01300000
00000000
00000000
01100000
00000000
00000000
01100000
00000000
00000000
00000000
,
10000000
01000000
00010000
00000000
01000000
00001000
00010000
00000000
,
00001000
00100000
00010000
00000000
00010000
00000010
00001000
00000000
,
00001000
00000100
00000010
00000000
00000010
00010000
00001000
00000000
,
00001000
00100000
00010000
00000000
00001000
00000000
00010000
00000000
,
00022000
00000000
00000000
00000000
,
00000000
00000000
00000000
00033000
;

//---------------dance-single - ----------------
#NOTES:
     dance-single:
     :
     Medium:
     10:
     0.454,0.490,0.133,0.461,0.145:
0000
0000
0000
0000
,
0000
0000
0000
0000
,
0000
0000
0000
0000
,
0000
0000
0000
0000
,
0000
0000
0000
0000
,
0001
0000
0000
0100
0000
0000
0010
0000
0000
0100
0000
0000
0010
0000
0000
0000
,
0100
0000
0000
1000
0000
0000
0010
0000
0000
0100
0000
0000
1000
0000
0000
0000
,
1000
0000
0000
1000
0000
0000
0100
0000
0000
1000
0000
0000
0001
0000
0000
0000
,
0001
0000
0000
1000
0000
0000
1000
0000
0010
0000
0000
0000
0010
0000
0000
0000
,
2000
0000
0000
3000
0100
0000
0001
1000
,
0020
0000
0000
0030
0001
0000
0100
0000
,
0020
0000
0000
0000
1030
0000
0100
0001
,
0020
1000
1030
0001
,
0010
0000
0100
0010
1000
0000
0010
0001
,
1000
0000
0100
1000
0002
0000
0023
0000
,
2030
3200
0320
0032
,
0203
2300
3002
0010
,
2003
0000
0100
0100
,
0001
0000
0000
3000
0002
0000
0103
0000
,
0010
0000
0100
0010
1000
0000
0001
0000
,
0011
0000
0100
1000
0010
0000
1010
0000
,
0100
0000
0010
0001
0100
0000
1001
0000
,
0100
0000
0010
0001
1000
0000
1001
0000
,
0010
0000
0110
0000
1000
0100
0010
0000
,
0001
0000
0100
0000
0010
0000
0000
0000
2000
0000
0000
0010
0000
0000
3001
0000
,
0200
0000
0000
0010
0000
0000
0310
0000
2000
0000
0000
0001
0000
0000
3010
0000
,
0001
0000
0100
0000
0010
0000
0000
0000
2000
0000
0000
0010
0000
0000
3100
0000
,
0002
0000
0000
0010
0000
0000
0013
0000
2000
0000
0000
0001
0000
0000
3001
0000
,
0100
0000
0010
0000
0001
0000
0000
0000
0200
0000
0000
0010
0000
0000
0310
0000
,
2000
0000
0000
0100
0000
0000
3100
0000
0002
0000
0000
1000
0000
0000
1003
0000
,
0010
0001
0100
0000
1000
0010
0000
0010
,
0000
0100
0000
0100
0000
0001
0000
0001
,
0000
1000
2000
0000
3001
0000
0100
0010
,
0001
0000
0010
0100
0001
0000
1000
0010
,
0002
0000
0103
0000
2000
0000
3100
0010
,
0002
0000
0013
1000
0200
0000
0310
0100
,
2000
3010
0200
0000
,
0000
0000
0310
0001
0010
0001
1000
0001
,
1000
0000
0110
0000
0001
0100
0000
0010
,
0000
1000
0000
0100
0000
0001
0000
1000
,
0020
0000
0000
0130
2000
0000
0000
3100
,
0010
0100
0020
0130
,
0002
0000
0000
0013
2000
0000
0000
3001
,
0100
0000
0010
0000
0001
0010
0001
0000
,
0200
0000
0000
0310
2000
0000
0000
3100
,
0001
0000
1001
0000
0010
0001
0100
0000
,
2000
0000
0000
0000
0000
0000
0000
0000
0000
3010
0000
0000
0100
0000
0100
0000
0100
0000
0000
0000
0000
0010
0000
0000
,
0200
0302
0023
1030
,
0001
0100
0001
0000
0001
0010
0001
0000
,
0001
0100
0010
0000
0010
1000
0100
0000
,
0001
0100
0000
0000
1000
0000
0000
0010
0000
0000
0001
0000
0000
0100
0000
0000
,
1000
0000
0010
0000
0000
0100
0000
0000
0010
0000
0000
0000
0110
0000
0000
0000
,
0010
0000
0100
0000
0010
0000
0000
0001
0000
0000
0010
0000
0000
1000
0000
0000
,
0001
0000
0000
0100
0000
0000
0010
0000
0000
0010
0000
0000
1000
0000
1000
0000
,
0100
0001
0010
0000
0001
0100
1000
0000
,
0010
0100
0001
0000
1000
0000
0110
0000
,
0200
2300
3020
0032
,
0103
0100
0010
1000
,
0200
0302
0023
2030
,
3010
0100
0001
0001
,
0100
0000
0000
0010
0000
0000
0001
0000
0000
0010
0000
0000
0100
0000
0000
0000
,
0001
0000
0000
0100
0000
0000
0010
0000
0000
1000
0000
0000
0010
0000
0100
0000
,
0001
0000
0000
0100
0000
0000
0010
0000
0000
0001
0000
0000
0010
0000
0000
0000
,
1000
0000
0000
0010
0000
0000
0100
0000
0000
0010
0000
0000
0100
0000
0000
0000
,
0002
0000
0000
0000
0003
0000
1010
0000
0000
1010
0000
0000
1010
0000
0000
0000
,
0020
0230
0320
0032
,
0203
0000
0000
0000
0000
0000
0310
0000
0000
0110
0000
0000
0110
0000
0000
0000
,
2000
0000
0000
0000
0000
0000
3001
0000
0000
1001
0000
0000
1001
0000
0000
0000
,
0010
0001
0100
0000
0001
0010
0100
0000
,
0010
1000
0100
0000
0100
1000
0010
0000
,
0010
0001
1000
0000
1000
0100
0010
0000
,
0010
1000
0100
0000
0010
0000
0100
0000
,
0220
0000
0000
0000
,
0000
0000
0000
0330
;

//---------------dance-single - Copied from----------------
#NOTES:
     dance-single:
     Copied from:
     Easy:
     5:
     0.277,0.317,0.094,0.329,0.004:
0000
0000
0000
0000
,
0000
0000
0000
0000
,
0000
0000
0000
0000
,
0000
0000
0000
0000
,
0000
0000
0000
0000
,
0010
0010
0010
0010
,
0001
0001
0001
0001
,
0100
0100
0100
0100
,
1000
1000
0010
0100
,
0010
0000
0001
1000
,
0002
0003
1000
0010
,
1000
0000
0100
0010
,
0200
0300
0002
0000
,
0003
0000
1000
0100
,
1000
0000
0002
0003
,
2000
3000
0002
0003
,
0001
0100
2000
0000
,
0000
0000
0001
0001
,
3010
0000
1000
0001
,
1000
0001
0010
0000
,
0110
0000
2002
0000
,
0000
3003
0010
0100
,
0001
1000
0010
0100
,
1000
0001
0010
0001
,
2000
3000
0020
0000
,
0030
0000
0002
0000
,
0003
0000
0200
0000
,
0300
0000
2000
0000
,
3000
0000
0002
0000
,
0023
0000
0230
0000
,
2300
0000
3100
0100
,
0010
0010
0001
0001
,
0100
0000
2000
3010
,
0200
0301
0010
0010
,
0020
0030
0020
0031
,
0200
1300
0010
0010
,
0020
0030
0002
0000
,
0000
0003
1000
0100
,
0010
0000
0002
0000
,
2003
0000
3100
0100
,
0110
0000
1001
0000
,
0010
0010
0010
0000
,
0110
0000
1001
0000
,
0100
0100
0100
0000
,
1001
0000
0110
0000
,
0010
0010
0010
0000
,
0010
0000
0002
0003
,
1000
1000
1000
0000
,
0200
0000
0000
0000
,
0302
0000
0000
0000
,
0103
0010
0100
0010
,
1000
0001
1000
0001
,
0010
0001
0010
0001
,
0100
1000
0100
1000
,
0010
0100
0010
0100
,
1000
0000
0000
1000
0000
0000
1000
0000
0000
0000
0000
0000
0000
0000
0000
0000
,
0001
1000
0002
0003
,
1000
0001
2000
3000
,
0001
0100
2000
3000
,
1000
0100
0002
0003
,
0010
0100
0020
0030
,
0100
0010
0200
0300
,
0001
0001
0100
1000
,
1000
0100
0001
0001
,
0020
0030
1000
1001
,
0020
0030
0001
1001
,
0002
0003
0100
1000
,
2000
3000
0100
1001
,
1000
0100
0010
0001
,
0001
0010
0100
1000
,
0001
0100
0010
1000
,
0100
0010
0001
1000
,
2002
0000
0000
0000
,
0000
0000
0000
3003
;

//---------------dance-double - Copied from Copied f----------------
#NOTES:
     dance-double:
     Copied from Copied f:
     Easy:
     5:
     0.284,0.346,0.117,0.360,0.004:
00000000
00000000
00000000
00000000
,
00000000
00000000
00000000
00000000
,
00000000
00000000
00000000
00000000
,
00000000
00000000
00000000
00000000
,
00000000
00000000
00000000
00000000
,
00001000
00001000
00001000
00001000
,
00100000
00100000
00100000
00100000
,
00010000
00010000
00010000
00010000
,
00000100
00000100
00001000
00010000
,
00001000
00000000
00000010
00000100
,
00000020
00000030
00000100
00001000
,
00000100
00000000
00010000
00001000
,
00020000
00030000
00200000
00000000
,
00300000
00000000
01000000
00010000
,
01000000
00000000
00200000
00300000
,
02000000
03000000
00200000
00300000
,
00100000
00010000
00000200
00000000
,
00000000
00000000
00000010
00000010
,
00001300
00000000
00000100
00000010
,
00000100
00000010
00001000
00000000
,
00011000
00000000
02200000
00000000
,
00000000
03300000
10000000
00010000
,
00100000
01000000
10000000
00010000
,
00100000
00010000
00001000
00000100
,
00002000
00003000
00000200
00000000
,
00000300
00000000
00000020
00000000
,
00000030
00000000
00000002
00000000
,
00000003
00000000
00000200
00000000
,
00000300
00000000
00000020
00000000
,
00002030
00000000
00003002
00000000
,
00000203
00000000
00000301
00000100
,
00001000
00000100
00010000
00000100
,
00001000
00000000
00200000
00310000
,
20000000
31000000
00010000
00010000
,
00020000
00030000
00020000
01030000
,
20000000
30100000
01000000
00001000
,
00022000
00030000
00000000
00000000
00000000
00000000
00000000
00000000
00000000
00000000
00000000
00000000
00000000
00000000
00000000
00000000
00000000
00000000
00000000
00000000
00000000
00000000
00000000
00000000
00000000
00000000
00000000
00000000
00000000
00000000
00000000
00000000
00000000
00000000
00000000
00000000
00000000
00000000
00000000
00000000
00000000
00000000
00000000
00000000
00000000
00000000
00000000
00000000
00003000
00000000
00000000
00000000
00000000
00000000
00000000
00000000
00000000
00000000
00000000
00000000
00000000
00000000
00000000
00000000
00000000
00000000
00000000
00000000
00000000
00000000
00000000
00000000
00000000
00000000
00000000
00000000
00000000
00000000
00000000
00000000
00000000
00000000
00000000
00000000
00000000
00000000
00000000
00000000
00000000
00000000
00000000
00000000
00000000
00000000
00000000
00000000
00000200
00000000
00000000
00000000
00000000
00000000
00000000
00000000
00000000
00000000
00000000
00000000
00000000
00000000
00000000
00000000
00000000
00000000
00000000
00000000
00000000
00000000
00000000
00000000
00000000
00000000
00000000
00000000
00000000
00000000
00000000
00000000
00000000
00000000
00000000
00000000
00000000
00000000
00000000
00000000
00000000
00000000
00000000
00000000
00000000
00000000
00000000
00000000
00000000
00000000
00000000
00000000
00000000
00000000
00000000
00000000
00000000
00000000
00000000
00000000
00000000
00000000
00000000
00000000
00000000
00000000
00000000
00000000
00000000
00000000
00000000
00000000
00000000
00000000
00000000
00000000
00000000
00000000
00000000
00000000
00000000
00000000
00000000
00000000
00000000
00000000
00000000
00000000
00000000
00000000
00000000
00000000
00000000
00000000
00000000
00000000
,
00000300
00000000
00010000
00000010
,
00001000
00000000
00000020
00000000
,
00000230
00000000
00000301
00000001
,
00001001
00000000
00000110
00000000
,
00001000
00001000
00001000
00000000
,
00011000
00000000
00110000
00000000
,
10000000
10000000
10000000
00000000
,
01100000
00000000
10010000
00000000
,
00010000
00010000
00010000
00000000
,
00010000
00000000
00022000
00033000
,
00000200
00000300
00000020
00000030
,
00000002
00000000
00000000
00000000
,
00000023
00000000
00000000
00000000
,
00000031
00001000
00000001
00001000
,
00000100
00010000
00000100
00010000
,
00001000
00000010
00001000
00000010
,
00000100
00010000
00010100
00001000
,
01000000
00001000
01000000
00001000
,
00010000
00000000
00000000
00010000
00000000
00000000
00010000
00000000
00000000
00000000
00000000
00000000
00000000
00000000
00000000
00000000
,
00100000
01000000
00200000
00300000
,
01000000
00100000
02000000
03000000
,
00100000
00010000
00000200
00000300
,
00000100
00000001
00000020
00000030
,
00001000
00010000
00002000
00003000
,
00010000
00001000
00020000
00030000
,
00000010
00000010
00001000
00000100
,
00000100
00001000
00000010
00000010
,
00002000
00003000
00010000
00011000
,
00002000
00003000
00010000
00110000
,
00200000
00300000
00010000
01000000
,
02000000
03000000
00010000
01100000
,
01000000
00010000
00001000
00000010
,
00000010
00001000
00000001
00000100
,
00000010
00000001
00001000
01000000
,
00010000
10000000
00100000
01000000
,
20020000
00000000
00000000
00000000
,
00000000
00000000
00000000
30030000
;

//---------------dance-single - ----------------
#NOTES:
     dance-single:
     :
     Beginner:
     3:
     0.126,0.230,0.008,0.110,0.000:
0000
0000
0000
0000
,
0000
0000
0000
0000
,
0000
0000
0000
0000
,
0000
0000
0000
0000
,
0000
0000
0000
0000
,
0002
0000
0000
0000
,
0000
0000
0003
0000
,
2000
0000
0000
0000
,
0000
3000
1000
0000
,
0001
0000
1000
0000
,
0000
0000
0010
0000
,
0100
0000
0010
0000
,
0000
0000
0001
0000
,
1000
0000
0001
0000
,
0000
0000
0100
0000
,
0010
0000
0100
0000
,
0000
0000
0020
0000
,
0000
0030
0000
0000
,
0000
0000
0002
0000
,
0000
0003
0000
0000
,
0000
0000
0200
0000
,
0000
0300
0000
0000
,
0000
0000
2000
0000
,
0000
3000
0000
0000
,
0000
0000
0010
0000
,
0010
0000
0010
0000
,
0000
0000
0100
0000
,
0100
0000
0100
0000
,
0000
0000
0001
0000
,
0001
0000
0001
0000
,
0001
0000
1000
0000
,
1000
0000
1000
0000
,
0000
0000
0010
0000
,
0010
0000
0001
0000
,
0001
0000
0100
0000
,
0100
0000
1000
0000
,
1000
0000
0010
0000
,
0000
0000
0100
0000
,
0100
0000
0100
0000
,
0000
0000
0010
0000
,
1000
0000
0000
0000
,
1000
0000
0000
0000
,
0001
0000
0000
0000
,
0001
0000
0000
0000
,
0010
0000
0000
0000
,
0010
0000
0000
0000
,
0100
0000
0100
0000
,
0100
0000
0000
0000
,
0020
0000
0030
0000
,
0002
0000
0003
0000
,
0200
0000
0300
0000
,
2000
0000
3000
0000
,
0010
0000
0010
0000
,
0010
0000
0000
0000
,
0100
0000
0100
0000
,
0100
0000
0000
0000
,
1000
0000
0001
0000
,
1000
0000
0001
0000
,
0010
0000
0010
0000
,
0100
0000
0100
0000
,
0001
0000
1000
0000
,
0001
0000
1000
0000
,
0100
0000
0100
0000
,
0010
0000
0010
0000
,
2000
0000
3000
0000
,
0002
0000
0003
0000
,
1000
0000
1000
0000
,
0001
0000
0001
0000
,
0010
0010
0010
0000
,
0100
0100
0100
0000
,
0010
0010
0010
0000
,
0100
0100
0100
0000
,
2002
0000
0000
0000
,
0000
0000
3003
0000
;
