#TITLE:Secret Dejavu;
#SUBTITLE:;
#ARTIST:DINY;
#TITLETRANSLIT:;
#SUBTITLETRANSLIT:;
#ARTISTTRANSLIT:;
#GENRE:;
#CREDIT:;
#BANNER:Secret Dejavu.png;
#BACKGROUND:Secret Dejavu-bg.png;
#LYRICSPATH:;
#CDTITLE:;
#MUSIC:Secret Dejavu.ogg;
#OFFSET:0.000000;
#SAMPLESTART:34.875000;
#SAMPLELENGTH:24.000000;
#SELECTABLE:YES;
#BPMS:0.000000=160.000000
;
#STOPS:313.750000=0.375000
;
#BGCHANGES:0.000=Secret Dejavu.avi=1.000=0=0=0=StretchNoLoop====,
99999=-nosongbg-=1.000=0=0=0 // don't automatically add -songbackground-
;
#KEYSOUNDS:;
#ATTACKS:;

//---------------dance-single - ----------------
#NOTES:
     dance-single:
     :
     Hard:
     11:
     0.426103,0.556111,0.333220,0.308838,0.125973,367.000000,326.000000,41.000000,38.000000,0.000000,0.000000,0.426103,0.556111,0.333220,0.308838,0.125973,367.000000,326.000000,41.000000,38.000000,0.000000,0.000000:
0000
0000
0000
0000
,
0000
0000
0000
0000
,
0000
0000
0000
0000
,
0000
0000
0000
0000
,
0000
0000
0000
0000
,
0000
0000
0000
0000
,
0000
0000
0100
0100
,
0100
0100
0001
0001
,
0001
0001
0010
0010
,
0010
0010
0220
0000
,
0000
0330
1001
0000
,
0010
0100
0010
0000
1000
0100
0000
0010
,
0000
0001
0000
0001
1000
0000
0001
0000
,
1000
0000
0010
0000
0100
0001
0100
0001
,
0000
1000
0100
0000
0001
0000
0001
0000
,
0100
0010
1000
0000
0010
1000
0000
0100
,
0000
0001
0000
0010
0100
0000
0100
0000
,
0100
0000
0001
1000
0010
1000
0100
1000
,
0000
0001
0100
0001
1000
0000
0002
0000
,
1003
0000
0001
1000
0100
0000
1000
0001
,
0100
0010
1000
0100
,
0010
0000
0000
0000
0001
0000
1000
0000
0100
0000
0000
0100
0000
0000
0200
0000
,
0020
0000
0330
0000
,
1001
0000
0000
0000
0001
0000
1000
0000
0100
0000
0000
0100
0000
0000
0100
0000
,
0000
0000
0000
0000
1000
0000
0001
0000
0100
0000
0000
0100
0000
0000
0001
0000
,
1000
1001
0010
0110
,
1001
0000
0000
0000
0000
0000
0000
0000
0001
0000
0000
0001
0000
0000
0001
0000
,
1000
0000
0000
0000
0010
0000
0100
0000
0001
0000
0000
0001
0000
0000
0001
0000
,
0000
0000
1000
0000
0100
0000
1000
0000
0010
0000
0000
0010
0000
0000
0010
0000
,
0100
0000
1001
0000
0220
0000
0330
0001
,
2002
3003
2200
3000
,
0310
0000
0000
0000
0001
0000
0100
0000
0001
0000
0000
0001
0000
0000
0001
0000
,
0000
0000
0000
0000
0010
0000
0100
0000
0001
0000
0000
0001
0000
0000
0001
0000
,
1000
1001
0000
0110
,
1001
0000
0000
0000
0000
0000
0000
0000
0010
0000
0000
0010
0000
0000
0010
0000
,
0100
0000
0000
0000
0001
0000
0100
0000
1000
0000
0000
1000
0000
0000
0001
0000
,
0000
0000
0001
0000
0100
0000
0010
0000
0100
0000
0000
0100
0000
0000
0010
0000
,
0010
0000
1001
0000
2200
0000
3300
0001
,
0022
0033
0220
0000
,
0330
0000
0000
0000
0000
0000
0000
0000
1000
0000
0000
1000
0000
0000
1000
0000
,
0001
0000
0000
0001
0000
0000
0001
0000
0100
0000
0000
0000
0000
0000
0000
0000
,
0010
0000
0000
0000
0000
0000
0000
0000
0001
0000
0000
0001
0000
0000
0001
0000
,
1000
0000
0000
1000
0000
0000
1000
0000
0200
0000
0000
0000
0000
0000
0000
0300
,
0010
0000
0110
1001
,
0110
1001
0100
0001
,
1000
0100
0000
0010
0000
0001
0100
0000
,
0001
1000
0001
0000
0100
0000
0001
0000
,
0010
0100
0000
1000
0000
0100
0001
0100
,
0001
1000
0001
1000
0001
0000
0010
0000
,
1000
0100
0000
0010
0000
1000
0010
1000
,
0001
1000
0001
1000
0100
0000
0010
0000
,
0001
0000
0100
0020
0000
0000
1000
0000
,
0130
0000
1000
0002
0000
0000
0100
0000
,
1000
0000
0000
0103
0000
0000
1000
0001
1000
0001
0100
0001
,
1000
0000
0000
0000
0001
0000
0000
0000
1000
0000
0000
0000
0010
0000
0000
0000
0000
0000
0100
0000
0000
0000
0000
0000
0010
0000
0000
0000
0000
0000
0000
0000
0000
0010
0000
0000
0000
0000
0000
0000
0000
0000
0010
0000
0000
0000
0000
0000
,
0000
0000
0000
0000
0001
0000
1000
0000
0010
0000
0000
0010
0000
0000
1000
0000
,
0001
1001
0100
0110
,
1001
0000
0000
0000
0000
0000
0000
0000
1000
0000
0000
1000
0000
0000
1000
0000
,
0001
0000
0000
0000
0100
0000
0010
0000
1000
0000
0000
1000
0000
0000
1000
0000
,
0000
0000
0001
0000
0010
0000
0001
0000
0100
0000
0000
0100
0000
0000
0100
0000
,
0010
0000
1001
0000
0220
0000
0330
1000
,
2002
3003
0022
0003
,
0130
0000
0000
0000
1000
0000
0010
0000
1000
0000
0000
1000
0000
0000
1000
0000
,
0000
0000
0000
0000
0100
0000
0010
0000
1000
0000
0000
1000
0000
0000
1000
0000
,
0001
1001
0000
0110
,
1001
0000
0000
0000
0000
0000
0000
0000
0100
0000
0000
0100
0000
0000
0100
0000
,
0010
0000
0000
0000
1000
0000
0010
0000
0001
0000
0000
0001
0000
0000
1000
0000
,
0000
0000
1000
0000
0010
0000
0100
0000
0010
0000
0000
0010
0000
0000
0100
0000
,
0100
0000
1001
0000
0022
0000
0033
1000
,
2200
3300
0220
0000
,
0330
0000
0000
0000
0001
0000
0000
1000
,
0001
0000
0000
0000
1000
0000
0000
0001
,
1000
0000
0010
0000
0110
0000
0000
0100
,
0010
0000
0000
0000
0110
0000
0000
0010
,
0100
0000
1001
0000
1000
0000
1000
0001
,
1000
0000
0110
0000
0010
0000
0100
0010
,
0100
0000
0010
0000
0001
0000
0001
1000
,
0001
0001
0220
0000
,
0000
0330
0002
0003
,
2000
3000
0220
0000
,
0000
0000
0330
0000
;

//---------------dance-single - ----------------
#NOTES:
     dance-single:
     :
     Medium:
     7:
     0.303032,0.392549,0.333220,0.365729,0.036573,261.000000,220.000000,41.000000,45.000000,0.000000,0.000000,0.303032,0.392549,0.333220,0.365729,0.036573,261.000000,220.000000,41.000000,45.000000,0.000000,0.000000:
0000
0000
0000
0000
,
0000
0000
0000
0000
,
0000
0000
0000
0000
,
0000
0000
0000
0000
,
0000
0000
0000
0000
,
0000
0000
0000
0000
,
0000
0000
0010
0001
,
0001
0010
1000
0100
,
0100
1000
0020
0000
,
0000
0000
0200
0000
,
0000
0330
1001
0000
,
0001
1000
0001
0000
0100
0010
0000
0100
,
0000
0010
0000
0100
0000
0000
0000
0000
,
0001
0000
1000
0000
0001
1000
0001
1000
,
0000
0000
0110
0000
,
0010
0100
0010
0000
1000
0001
0000
1000
,
0000
0001
0000
1000
0000
0000
0000
0000
,
0010
0000
0000
0000
0001
0100
0000
0001
,
0000
0000
1000
0100
,
0010
0001
1000
0100
,
0010
0001
0100
0010
,
0100
0000
0000
0000
0010
0000
0000
0000
0100
0000
0000
0100
0000
0000
0100
0000
,
0100
0000
2002
3003
,
0220
0000
0330
0000
1001
0000
0000
0100
,
0000
0000
0010
0000
1000
0000
0000
1000
,
0001
0001
0010
1001
,
1001
0000
0000
0000
0010
0000
0000
0001
,
0100
0000
0010
0000
1000
0000
0000
1000
,
0000
0000
0001
0000
0100
0000
0000
0100
,
0010
1000
1001
0000
,
0110
0000
2002
0000
,
3003
0000
0010
0000
1100
0000
0000
0101
,
0000
0000
0010
0000
0100
0000
0000
0010
,
0100
0010
0000
1100
,
0101
0000
0110
0000
,
1001
0000
0110
0110
,
1001
0000
0000
0000
0010
0000
0000
0100
,
0010
0000
2200
3300
,
0022
0033
2002
0000
,
0000
0000
3003
0000
1000
0000
0000
1000
,
0001
0000
0000
0001
0100
0000
0000
0000
,
0010
0000
0000
0000
0001
0000
0000
0001
,
1000
0000
0000
0000
0000
0000
1000
0000
0200
0000
0000
0000
0000
0000
0000
0300
,
0010
0000
1000
0001
,
1000
0001
0100
0001
,
1000
0001
0000
1000
0000
0001
0000
0000
,
0001
0010
0100
1000
,
0000
1000
0000
0010
0000
0100
0001
0000
,
1000
0100
0001
0010
,
1000
0100
0000
0010
0000
1000
0010
1000
,
0000
1000
0001
1000
0000
0010
0000
0100
,
0010
0000
0100
0020
0000
0000
0000
0000
,
0130
0000
0000
0002
0000
0000
0000
0000
,
1000
0003
2002
0000
,
3003
0000
0000
0000
0010
0000
0000
0000
0010
0000
0000
0010
0000
0000
0010
0000
,
0000
0000
0000
0000
0000
0000
0000
0000
0010
0000
0000
0010
0000
0000
0000
0000
,
0001
1001
0000
0110
,
1001
0000
1000
0000
,
0001
0000
0000
0000
0000
0000
0000
0000
1000
0000
0000
1000
0000
0000
1000
0000
,
0000
0000
0000
0000
0000
0000
0000
0000
0100
0000
0000
0100
0000
0000
0100
0000
,
0100
0000
0220
0330
,
2002
3003
0220
0000
,
0330
0000
0000
0000
0000
0000
0000
0000
0100
0000
0000
0100
0000
0000
0100
0000
,
0000
0000
0000
0000
0000
0000
0000
0000
0100
0000
0000
0100
0000
0000
0000
0000
,
1000
1001
0000
0110
,
1001
0000
0001
0000
,
1000
0000
0000
0000
0000
0000
0000
0000
0001
0000
0000
0001
0000
0000
0001
0000
,
0000
0000
0000
0000
0000
0000
0000
0000
0010
0000
0000
0010
0000
0000
0010
0000
,
0010
0000
0220
0330
,
2002
3003
0220
0000
,
0330
0000
0000
0000
0001
0000
0000
2002
,
0000
3003
1000
0000
,
2002
0000
3003
0000
0100
0000
0000
0220
,
0000
0330
0010
0000
,
0220
0330
1000
0100
,
0010
0001
1000
0010
,
0100
0001
0100
0010
,
1000
0100
0220
0000
,
0000
0330
0002
0003
,
2000
3000
2002
0000
,
0000
0000
3003
0000
;

//---------------dance-single - ----------------
#NOTES:
     dance-single:
     :
     Beginner:
     3:
     0.163707,0.196274,0.008127,0.121910,0.000000,141.000000,140.000000,1.000000,15.000000,0.000000,0.000000,0.163707,0.196274,0.008127,0.121910,0.000000,141.000000,140.000000,1.000000,15.000000,0.000000,0.000000:
0000
0000
0000
0000
,
0000
0000
0000
0000
,
0000
0000
0000
0000
,
0000
0000
0000
0000
,
0000
0000
0000
0000
,
0000
0000
0000
0000
,
0000
0000
0001
0000
,
0000
0000
1000
0000
,
0000
0000
0010
0000
,
0000
0000
0100
0000
,
0000
0000
0001
0000
,
0100
0000
0010
0000
,
0010
0000
1000
0000
,
0010
0000
0100
0000
,
0100
0000
0001
0000
,
1000
0000
0010
0000
,
0010
0000
1000
0000
,
0001
0000
0010
0000
,
0010
0000
1000
0000
,
0100
0000
0001
0100
,
0000
0000
1000
0000
,
0010
0000
0001
0000
,
0010
0000
0020
0000
,
0030
0000
0001
0000
,
0001
0000
0001
0001
,
0001
0000
0000
0010
,
0010
0000
0100
0000
,
0100
0000
1000
0000
,
1000
0000
1000
1000
,
1000
0000
0010
0000
,
0010
0000
0020
0000
,
0030
0000
1000
0000
,
1000
0000
1000
1000
,
1000
0000
0000
0010
,
0010
0000
0100
0000
,
0100
0000
0001
0000
,
0001
0000
0001
0001
,
0001
0000
0010
0000
,
0010
0000
0020
0000
,
0030
0000
1000
0000
,
0000
0000
0001
0000
,
0000
0000
1000
0000
,
0001
0000
1000
0000
,
0001
0000
0010
0010
,
0010
0000
0100
0000
,
0100
0000
0100
0000
,
0100
0000
0010
0000
,
0010
0000
0010
0000
,
0010
0000
1000
0000
,
0001
0000
1000
0000
,
0001
0000
0010
0000
,
0010
0000
0020
0000
,
0030
0000
0020
0000
,
0030
0000
0020
0000
,
0030
0000
1000
0000
,
0001
0000
1000
0000
,
0001
0000
0000
0100
,
0100
0000
0100
0000
,
0100
0000
0001
0000
,
1000
0000
0001
0000
,
1000
0000
0010
0000
,
0010
0000
0020
0000
,
0030
0000
0001
0000
,
0001
0000
0100
0100
,
0100
0000
0000
0010
,
0010
0000
0100
0100
,
0100
0000
1000
0000
,
1000
0000
0010
0010
,
0010
0000
0100
0000
,
0100
0000
0020
0000
,
0030
0000
0020
0030
,
0010
0000
0200
0300
,
0100
0000
0020
0030
,
0010
0000
0200
0300
,
0010
0000
0010
0000
,
0100
0000
0010
0000
,
0100
0000
1000
0000
,
0001
0000
2000
0000
,
3000
0000
0001
0000
,
1000
0000
2002
0000
,
0000
0000
3003
0000
;

//---------------dance-single - ----------------
#NOTES:
     dance-single:
     :
     Easy:
     4:
     0.233370,0.359836,0.227565,0.357601,0.000000,201.000000,173.000000,28.000000,44.000000,0.000000,0.000000,0.233370,0.359836,0.227565,0.357601,0.000000,201.000000,173.000000,28.000000,44.000000,0.000000,0.000000:
0000
0000
0000
0000
,
0000
0000
0000
0000
,
0000
0000
0000
0000
,
0000
0000
0000
0000
,
0000
0000
0000
0000
,
0000
0000
0000
0000
,
0000
0000
0002
0000
,
0003
0000
2000
0000
,
3000
0000
0020
0000
,
0000
0000
0200
0000
,
0000
0330
1001
0000
,
0100
0000
0010
0010
,
0010
0000
1001
0000
,
0010
0000
0100
0100
,
0100
0000
1001
0000
,
1000
0000
0010
0010
,
0010
0000
1001
0000
,
0001
0000
0010
0010
,
0010
0000
1000
0100
,
1000
0100
0001
0100
,
0001
0100
1000
0000
,
0010
0000
0001
1000
,
0001
0000
0020
0000
,
0030
0000
1001
0000
,
1001
0000
0010
0010
,
0010
0010
0000
0110
,
0110
0000
0100
0100
,
0100
0000
1001
0000
,
1001
0000
1000
1000
,
0001
0001
2000
3000
,
0200
0300
0002
0000
,
0003
0000
1001
0000
,
1001
0000
0010
0010
,
0010
0010
0000
0110
,
0110
0000
0100
0100
,
0100
0000
1001
0000
,
1001
0000
0001
0001
,
1000
1000
0002
0003
,
0200
0300
2000
0000
,
3000
0000
0020
0000
,
0000
0030
0200
0000
,
0000
0300
0002
0003
,
2000
3000
0002
0003
,
2000
3000
0010
0010
,
0010
0010
0020
0000
,
0000
0030
1000
1000
,
0001
0001
0200
0000
,
0000
0300
0001
0001
,
1000
1000
0020
0030
,
0200
0300
0001
1000
,
0001
1000
0002
0003
,
2000
3000
0020
0000
,
0030
0000
0200
0000
,
0000
0000
0300
0000
,
0000
0010
1001
0000
,
0001
0000
1000
0000
,
0001
0000
0000
0110
,
0110
0000
1000
1000
,
1000
0000
0001
0010
,
0100
0000
1000
0100
,
0010
0000
0002
0003
,
2000
3000
0220
0000
,
0330
0000
1001
1001
,
1001
0010
0010
0010
,
0100
0100
0000
1001
,
1001
0000
0100
0010
,
1001
0000
0001
0001
,
1000
1000
0010
0010
,
0100
0100
0002
0003
,
2000
3000
0020
0000
,
0030
0000
2000
3000
,
0100
0000
0002
0003
,
0100
0000
2000
3000
,
0010
0000
0002
0003
,
0010
0000
1000
0100
,
0001
0100
1000
0010
,
0001
0010
2000
3000
,
0002
0003
0220
0000
,
0000
0330
0002
0003
,
2000
3000
2002
0000
,
0000
0000
3003
0000
;

//---------------dance-double - ----------------
#NOTES:
     dance-double:
     :
     Hard:
     11:
     0.408687,0.556111,0.284456,0.308838,0.125973,352.000000,317.000000,35.000000,38.000000,0.000000,0.000000,0.408687,0.556111,0.284456,0.308838,0.125973,352.000000,317.000000,35.000000,38.000000,0.000000,0.000000:
00000000
00000000
00000000
00000000
,
00000000
00000000
00000000
00000000
,
00000000
00000000
00000000
00000000
,
00000000
00000000
00000000
00000000
,
00000000
00000000
00000000
00000000
,
00000000
00000000
00000000
00000000
,
00000000
00000000
00001000
00001000
,
00001000
00001000
00010000
00010000
,
00010000
00010000
00100000
00100000
,
00100000
00100000
02200000
00000000
,
00000000
03300000
10010000
00000000
,
00010000
01000000
00010000
00000000
10000000
01000000
00000000
00100000
,
00000000
00010000
00000000
00001000
00000100
00000000
00001000
00000000
,
00000001
00000000
00000100
00000000
00000010
00001000
00000010
00001000
,
00000000
00000001
00000010
00000000
00001000
00000000
00010000
00000000
,
01000000
00100000
10000000
00000000
00100000
10000000
00000000
01000000
,
00000000
00010000
00000000
00000100
00001000
00000000
00001000
00000000
,
00000010
00000000
00000001
00001000
00000010
00001000
00000100
00001000
,
00000000
00010000
00000100
00010000
00001000
00000000
02000000
00000000
,
03010000
00000000
00010000
10000000
01000000
00000000
10000000
00010000
,
01000000
00100000
00010000
00000100
,
00000010
00000000
00000000
00000000
00000001
00000000
00001000
00000000
00000100
00000000
00000000
00000100
00000000
00000000
00000200
00000000
,
00000020
00000000
00000330
00000000
,
00011000
00000000
00000000
00000000
00001000
00000000
00010000
00000000
00001000
00000000
00000000
00001000
00000000
00000000
00001000
00000000
,
00000000
00000000
00000000
00000000
00010000
00000000
00100000
00000000
01000000
00000000
00000000
01000000
00000000
00000000
00010000
00000000
,
10000000
10010000
00100000
00110000
,
00011000
00000000
00000000
00000000
00000000
00000000
00000000
00000000
00001000
00000000
00000000
00001000
00000000
00000000
00001000
00000000
,
00000001
00000000
00000000
00000000
00000100
00000000
00000010
00000000
00001000
00000000
00000000
00001000
00000000
00000000
00001000
00000000
,
00000000
00000000
00001000
00000000
00010000
00000000
00001000
00000000
00100000
00000000
00000000
00100000
00000000
00000000
00100000
00000000
,
01000000
00000000
10010000
00000000
02200000
00000000
03300000
00010000
,
20020000
30030000
22000000
30000000
,
03100000
00000000
00000000
00000000
00001000
00000000
00010000
00000000
00001000
00000000
00000000
00001000
00000000
00000000
00001000
00000000
,
00000000
00000000
00000000
00000000
00000010
00000000
00000000
00000000
00001000
00000000
00000000
00001000
00000000
00000000
00001000
00000000
,
00000001
00001001
00000000
00001100
,
00011000
00000000
00000000
00000000
00000000
00000000
00000000
00000000
00100000
00000000
00000000
00100000
00000000
00000000
00100000
00000000
,
01000000
00000000
00000000
00000000
00010000
00000000
01000000
00000000
10000000
00000000
00000000
10000000
00000000
00000000
00010000
00000000
,
00000000
00000000
00010000
00000000
00001000
00000000
00100000
00000000
00001000
00000000
00000000
00001000
00000000
00000000
00100000
00000000
,
00100000
00000000
00010000
00000000
00022000
00000000
00033000
00001000
,
00002200
00003300
00000220
00000000
,
00000330
00000000
00000000
00000000
00000000
00000000
00000000
00000000
00000001
00000000
00000000
00000001
00000000
00000000
00000001
00000000
,
00000010
00000000
00000000
00000010
00000000
00000000
00000100
00000000
00001000
00000000
00000000
00000000
00000000
00000000
00000000
00000000
,
00010000
00000000
00000000
00000000
00000000
00000000
00000000
00000000
00100000
00000000
00000000
00100000
00000000
00000000
00100000
00000000
,
01000000
00000000
00000000
01000000
00000000
00000000
10000000
00000000
02000000
00000000
00000000
00000000
00000000
00000000
00000000
03000000
,
00100000
00000000
00110000
00101000
,
00110000
00101000
00100000
00010000
,
00001000
00000100
00000000
00000010
00000000
00001000
01000000
00000000
,
00010000
10000000
00010000
00000000
01000000
00000000
00010000
00000000
,
00100000
01000000
00001000
00010000
,
00001000
00000100
00001000
00000100
00001000
00000000
00010000
00000000
,
00001000
00010000
00000000
01000000
00000000
00100000
10000000
00100000
,
10000000
00010000
10000000
00000000
01000000
00000000
00100000
00000000
,
00010000
00000000
01000000
00200000
00000000
00000000
00010000
00000000
,
00301000
00000000
00001000
00020000
00000000
00000000
00000100
00000000
,
00000010
00000000
00000000
00030100
00000000
00000000
00001000
00000001
00001000
00000001
00000100
00000001
,
00001000
00000000
00000000
00000000
00000001
00000000
00000000
00000000
00001000
00000000
00000000
00000000
00000010
00000000
00000000
00000000
00000000
00000000
00000100
00000000
00000000
00000000
00000000
00000000
00000010
00000000
00000000
00000000
00000000
00000000
00000000
00000000
00000000
00000010
00000000
00000000
00000000
00000000
00000000
00000000
00000000
00000000
00000010
00000000
00000000
00000000
00000000
00000000
,
00000000
00000000
00000000
00000000
00001000
00000000
00000100
00000000
00010000
00000000
00000000
00010000
00000000
00000000
00001000
00000000
,
00010000
00011000
00000000
00110000
,
10010000
00000000
00000000
00000000
00000000
00000000
00000000
00000000
10000000
00000000
00000000
10000000
00000000
00000000
10000000
00000000
,
00010000
00000000
00000000
00000000
01000000
00000000
00100000
00000000
10000000
00000000
00000000
10000000
00000000
00000000
10000000
00000000
,
00000000
00000000
00010000
00000000
00100000
00000000
00000000
00000000
00001000
00000000
00000000
00001000
00000000
00000000
00001000
00000000
,
00010000
00000000
00010000
00000000
00022000
00000000
00033000
00001000
,
00002200
00003300
00000220
00000030
,
00000310
00000000
00000000
00000000
00000001
00000000
00000100
00000000
00000001
00000000
00000000
00000001
00000000
00000000
00000001
00000000
,
00000000
00000000
00000000
00000000
00000010
00000000
00000000
00000000
00001000
00000000
00000000
00001000
00000000
00000000
00001000
00000000
,
00000100
00011000
00000000
01100000
,
10010000
00000000
00000000
00000000
00000000
00000000
00000000
00000000
01000000
00000000
00000000
01000000
00000000
00000000
01000000
00000000
,
00100000
00000000
00000000
00000000
10000000
00000000
00100000
00000000
00010000
00000000
00000000
00010000
00000000
00000000
00010000
00000000
,
00000000
00000000
00000000
00000000
00001000
00000000
00000000
00000000
00000010
00000000
00000000
00000010
00000000
00000000
00000100
00000000
,
00000100
00000000
00001001
00000000
00000022
00000000
00000033
00001000
,
00002200
00003300
00000220
00000000
,
00000330
00000000
00000000
00000000
00000001
00000000
00000000
00000010
,
00001000
00000000
00000000
00000000
00010000
00000000
00000000
00100000
,
10000000
00000000
00010000
00000000
10000000
00000000
00000000
01000000
,
00010000
00000000
00000000
00000000
00001000
00000000
00000000
00000100
,
00000001
00000000
00000100
00000000
00010000
00000000
00001000
00010000
,
00001000
00000000
00010000
00000000
00100000
00000000
01000000
00100000
,
01000000
00000000
00100000
00000000
00010000
00000000
00010000
10000000
,
00010000
00010000
02200000
00000000
,
00000000
03300000
00020000
00030000
,
00002000
00003000
00022000
00000000
,
00000000
00000000
00033000
00000000
;

//---------------dance-double - ----------------
#NOTES:
     dance-double:
     :
     Medium:
     7:
     0.294905,0.392549,0.219437,0.316965,0.036573,254.000000,227.000000,27.000000,39.000000,0.000000,0.000000,0.294905,0.392549,0.219437,0.316965,0.036573,254.000000,227.000000,27.000000,39.000000,0.000000,0.000000:
// measure 0
00000000
00000000
00000000
00000000
,  // measure 1
00000000
00000000
00000000
00000000
,  // measure 2
00000000
00000000
00000000
00000000
,  // measure 3
00000000
00000000
00000000
00000000
,  // measure 4
00000000
00000000
00000000
00000000
,  // measure 5
00000000
00000000
00000000
00000000
,  // measure 6
00000000
00000000
00000010
00000001
,  // measure 7
00000001
00000100
00001000
00010000
,  // measure 8
00010000
01000000
00200000
00000000
,  // measure 9
00000000
00000000
02000000
00000000
,  // measure 10
00000000
03300000
10010000
00000000
,  // measure 11
00010000
10000000
00010000
00000000
01000000
00100000
00000000
00010000
,  // measure 12
00000000
00001000
00000000
00000100
00000000
00000000
00000000
00000000
,  // measure 13
00001000
00000000
00000001
00000000
00001000
00000001
00001000
00000001
,  // measure 14
00000000
00000000
00000110
00000000
,  // measure 15
00000100
00000010
00000100
00000000
00000001
00001000
00000000
00000100
,  // measure 16
00000000
00010000
00000000
00001000
00000000
00000000
00000000
00000000
,  // measure 17
00000000
00000000
00100000
00000000
00010000
01000000
00000000
00010000
,  // measure 18
00000000
00000000
10000000
01000000
,  // measure 19
00100000
00010000
00001000
00000100
,  // measure 20
00000010
00000001
00000100
00001000
,  // measure 21
00010000
00000000
00000000
00000000
00001000
00000000
00000000
00000000
01000000
00000000
00000000
01000000
00000000
00000000
01000000
00000000
,  // measure 22
01000000
00000000
20020000
30030000
,  // measure 23
02200000
00000000
03300000
00000000
10010000
00000000
00000000
01000000
,  // measure 24
00000000
00000000
00100000
00000000
00010000
00000000
00000000
00010000
,  // measure 25
00001000
00000100
00000000
00001001
,  // measure 26
00001001
00000000
00000000
00000000
00000010
00000000
00000000
00000001
,  // measure 27
00000100
00000000
00010000
00000000
00001000
00000000
00000000
00010000
,  // measure 28
00000000
00000000
01000000
00000000
00100000
00000000
00000000
01000000
,  // measure 29
00100000
10000000
01000000
00100000
,  // measure 30
00001000
00010000
00002000
00000000
,  // measure 31
00003000
00000000
00010000
00000000
00001000
00000000
00000000
00000100
,  // measure 32
00000000
00000000
00000100
00000000
00001000
00000000
00000000
00010000
,  // measure 33
10000000
01000000
00000000
10010000
,  // measure 34
10010000
00000000
00000000
00000000
00100000
00000000
00000000
00001000
,  // measure 35
00010000
00000000
00000100
00000000
00010000
00000000
00000000
00001000
,  // measure 36
00000000
00000000
00000100
00000000
00000010
00000000
00000000
00000100
,  // measure 37
00000010
00001000
00000100
00000010
,  // measure 38
00000100
00001000
00020000
00000000
,  // measure 39
00030000
00000000
00010000
00000000
10000000
00000000
00000000
10000000
,  // measure 40
00010000
00000000
00000000
00010000
01000000
00000000
00000000
00000000
,  // measure 41
00100000
00000000
00000000
00000000
00010000
00000000
00000000
00010000
,  // measure 42
00001000
00000000
00000000
00001000
00000200
00000000
00000000
00000000
,  // measure 43
00000310
00000000
00010000
00001000
,  // measure 44
00010000
00001000
01000000
00010000
,  // measure 45
10000000
00010000
00000000
10000000
00000000
00010000
00000000
00000000
,  // measure 46
00010000
00000100
00001000
00000010
,  // measure 47
00000000
00001000
00000000
00000010
00000000
00000100
00000001
00000000
,  // measure 48
00001000
00000100
00000001
00000010
,  // measure 49
00001000
00000100
00000000
00010000
00000000
00001000
00010000
00001000
,  // measure 50
00000000
00100000
00010000
00100000
00000000
01000000
00000000
00100000
,  // measure 51
01000000
00000000
01000000
00200000
00000000
00000000
00000000
00000000
,  // measure 52
01300000
00000000
00000000
00020000
00000000
00000000
00000000
00000000
,  // measure 53
00001000
00031000
00022000
00000000
,  // measure 54
00033000
00000000
00000000
00000000
00000010
00000000
00000000
00000000
00000010
00000000
00000000
00000010
00000000
00000000
00000010
00000000
,  // measure 55
00000000
00000000
00000000
00000000
00001000
00000000
00000000
00000000
00100000
00000000
00000000
00100000
00000000
00000000
00000000
00000000
,  // measure 56
00010000
00011000
00000000
01100000
,  // measure 57
10010000
00000000
10000000
00000000
,  // measure 58
00010000
00000000
00000000
00000000
00000000
00000000
00000000
00000000
00001000
00000000
00000000
00001000
00000000
00000000
00001000
00000000
,  // measure 59
00000000
00000000
00000000
00000000
00000000
00000000
00000000
00000000
00000100
00000000
00000000
00000100
00000000
00000000
00000100
00000000
,  // measure 60
00000100
00000000
00000220
00000330
,  // measure 61
00002002
00003003
00000220
00000000
,  // measure 62
00000330
00000000
00000000
00000000
00000000
00000000
00000000
00000000
00000100
00000000
00000000
00000100
00000000
00000000
00000100
00000000
,  // measure 63
00000000
00000000
00000000
00000000
00000000
00000000
00000000
00000000
00000100
00000000
00000000
00000100
00000000
00000000
00000000
00000000
,  // measure 64
00001000
00001001
00000000
00000100
,  // measure 65
00001100
00000000
00010000
01000000
,  // measure 66
10000000
00000000
00000000
00000000
00000000
00000000
00000000
00000000
00010000
00000000
00000000
00010000
00000000
00000000
00010000
00000000
,  // measure 67
00000000
00000000
00000000
00000000
00000000
00000000
00000000
00000000
00001000
00000000
00000000
00001000
00000000
00000000
00001000
00000000
,  // measure 68
00001000
00000000
00220000
00330000
,  // measure 69
20020000
30030000
22000000
00000000
,  // measure 70
33000000
00000000
00000000
00000000
00010000
00000000
00000000
00022000
,  // measure 71
00000000
00033000
00001000
00000000
,  // measure 72
00002002
00000000
00003003
00000000
00000010
00000000
00000000
00000220
,  // measure 73
00000000
00000330
00001000
00000000
,  // measure 74
00022000
00033000
00010000
00000000
,  // measure 75
10000000
01000000
00010000
00000000
,  // measure 76
00001000
00000100
00000001
00000100
,  // measure 77
00001000
00000000
00022000
00000000
,  // measure 78
00000000
00033000
00020000
00030000
,  // measure 79
00002000
00003000
00022000
00000000
,  // measure 80
00000000
00000000
00033000
00000000
;

//---------------dance-double - ----------------
#NOTES:
     dance-double:
     :
     Easy:
     4:
     0.204344,0.228987,0.008127,0.016255,0.000000,176.000000,175.000000,1.000000,2.000000,0.000000,0.000000,0.204344,0.228987,0.008127,0.016255,0.000000,176.000000,175.000000,1.000000,2.000000,0.000000,0.000000:
// measure 0
00000000
00000000
00000000
00000000
,  // measure 1
00000000
00000000
00000000
00000000
,  // measure 2
00000000
00000000
00000000
00000000
,  // measure 3
00000000
00000000
00000000
00000000
,  // measure 4
00000000
00000000
00000000
00000000
,  // measure 5
00000000
00000000
00000000
00000000
,  // measure 6
00000000
00000000
00010000
00000000
,  // measure 7
00001000
00000000
00010000
00000000
,  // measure 8
00001000
00000000
00000010
00000000
,  // measure 9
00000000
00000000
00010000
00000000
,  // measure 10
00000000
00000000
00001000
00000000
,  // measure 11
00010000
00000000
01000000
00000000
,  // measure 12
00100000
00000000
00010000
00000000
,  // measure 13
00001000
00000000
00000100
00000000
,  // measure 14
00000010
00000000
00001000
00000000
,  // measure 15
00000001
00000001
00000001
00000000
,  // measure 16
00001000
00001000
00001000
00000000
,  // measure 17
00010000
00000000
00100000
00000000
,  // measure 18
10000000
00000000
01000000
00000000
,  // measure 19
00010000
00000000
00001000
00000000
,  // measure 20
00000100
00000000
00000001
00000000
,  // measure 21
00000100
00000000
00010000
00001000
,  // measure 22
00010000
00000000
00010000
00000000
,  // measure 23
00100000
00000000
10000000
10000000
,  // measure 24
10000000
00000000
00010000
00010000
,  // measure 25
00010000
00010000
00000000
00001000
,  // measure 26
00001000
00000000
00000001
00000001
,  // measure 27
00000001
00000000
00000001
00000100
,  // measure 28
00001000
00000000
00010000
01000000
,  // measure 29
10000000
00000000
10000000
00000000
,  // measure 30
00010000
00000000
00001000
00000000
,  // measure 31
00000000
00000000
00000001
00000100
,  // measure 32
00000100
00000000
00001000
00010000
,  // measure 33
00010000
00000000
00100000
00000000
,  // measure 34
00010000
00000000
01000000
01000000
,  // measure 35
01000000
00000000
00100000
10000000
,  // measure 36
01000000
00000000
00100000
00010000
,  // measure 37
00001000
00000000
00000010
00000000
,  // measure 38
00001000
00000000
00000100
00000000
,  // measure 39
00000001
00000000
00000010
00000000
,  // measure 40
00001000
00000000
00010000
00000000
,  // measure 41
00000000
00000000
01000000
00000000
,  // measure 42
00010000
00000000
00001000
00000000
,  // measure 43
00000000
00000000
00010000
00001000
,  // measure 44
00010000
00001000
00010000
00000000
,  // measure 45
00000100
00000000
00001000
00000010
,  // measure 46
00001000
00000000
00000100
00000000
,  // measure 47
00000001
00000000
00001000
00000010
,  // measure 48
00001000
00000000
00010000
00000000
,  // measure 49
01000000
00000000
00010000
10000000
,  // measure 50
00010000
00000000
00100000
00100000
,  // measure 51
00100000
00000000
00010000
00010000
,  // measure 52
00010000
00000000
00001000
00001000
,  // measure 53
00001000
00000000
00000100
00000000
,  // measure 54
00000010
00000000
00000001
00000000
,  // measure 55
00001000
00000000
00000100
00000100
,  // measure 56
00000100
00000100
00000000
00010000
,  // measure 57
00010000
00000000
01000000
01000000
,  // measure 58
01000000
00000000
10000000
00000000
,  // measure 59
00100000
00000000
00010000
00001000
,  // measure 60
00010000
00001000
00010000
00000000
,  // measure 61
00000100
00000000
00000010
00000000
,  // measure 62
00000000
00000000
00000001
00000100
,  // measure 63
00001000
00000000
00010000
01000000
,  // measure 64
01000000
00010000
00000000
10000000
,  // measure 65
01000000
00000000
00010000
00010000
,  // measure 66
00001000
00000000
00000100
00001000
,  // measure 67
00000100
00000000
00000001
00000100
,  // measure 68
00000001
00000000
00001000
00000000
,  // measure 69
00010000
00000000
01000000
00000000
,  // measure 70
00000000
00000000
10000000
00000000
,  // measure 71
00010000
00000000
00001000
00000000
,  // measure 72
00000001
00000000
00000001
00000000
,  // measure 73
00001000
00000000
00010000
00000000
,  // measure 74
10000000
00000000
00100000
00100000
,  // measure 75
00100000
00000000
00010000
00010000
,  // measure 76
00010000
00000000
00000010
00000010
,  // measure 77
00000010
00000000
00001000
00000000
,  // measure 78
00000000
00000000
00010000
00000000
,  // measure 79
00001000
00000000
00022000
00000000
,  // measure 80
00000000
00000000
00033000
00000000
;
