#TITLE:夏色DIARY;
#SUBTITLE:俺のjubeat編;
#ARTIST:猫叉王子 feat. 時を駆けるショッチョー;
#TITLETRANSLIT:SUMMER DIARY ~We're jubeat ver.~;
#SUBTITLETRANSLIT:;
#ARTISTTRANSLIT:Nekomata Ouji feat. Toki o ke ru shoccho;
#GENRE:;
#CREDIT:;
#MENUCOLOR:;
#METERTYPE:DDR;
#BANNER:SUMMER DIARY ~We're jubeat ver.~.png;
#BACKGROUND:SUMMER DIARY ~We're jubeat ver.~-bg.png;
#LYRICSPATH:;
#CDTITLE:./CDTitles/DDR 2014.png;
#MUSIC:SUMMER DIARY ~We're jubeat ver.~.mp3;
#OFFSET:1.300;
#SAMPLESTART:70.660;
#SAMPLELENGTH:15.000;
#SELECTABLE:YES;
#LISTSORT:;
#DISPLAYBPM:170.000;
#BPMS:0.000=170.000;
#STOPS:;
#BGCHANGES:;
#ATTACKS:;

//---------------dance-single - ----------------
#NOTES:
     dance-single:
     :
     Beginner:
     3:
     0.165,0.210,0.020,0.110,0.000:
0000
0000
0000
0000
,
0000
0000
0000
0000
,
0000
0000
0000
0000
,
0000
0000
0000
0000
,
0000
0000
0000
0000
,
0002
0003
0002
0003
,
0001
0000
0000
0000
,
2000
3000
2000
3000
,
1000
0000
0000
0000
,
1001
0000
0000
0000
,
0000
0000
0000
0000
,
0010
0000
0010
0000
,
0001
0000
0000
0000
,
0001
0000
1000
0000
,
0001
0000
0000
0000
,
0001
0000
1000
0000
,
0001
0000
0000
0000
,
0001
0000
1000
0000
,
0001
0000
1000
0000
,
0010
0000
0000
0000
,
0001
0001
0001
0000
,
0001
0000
1000
0000
,
0001
0000
0000
0000
,
0001
0000
1000
0000
,
0001
0000
0000
0000
,
0010
0000
0010
0000
,
0100
0000
0000
0000
,
0002
0003
0001
0000
,
2000
3000
1000
0000
,
0002
0000
0000
0003
,
0001
0000
0100
0000
,
2000
0000
0000
3000
,
1000
0000
0010
0000
,
0010
0000
0010
0000
,
0100
0000
0000
0000
,
0001
0000
0001
0000
,
1000
0000
0000
0000
,
0001
0000
0001
0000
,
1000
0000
0000
0000
,
0100
0000
0000
0000
,
0010
0000
0010
0000
,
0100
0000
0100
0000
,
0010
0000
0000
0000
,
2002
0000
0000
0000
,
3003
0000
0000
0000
,
1000
0000
1000
0000
,
0001
0000
0001
0000
,
0010
0000
0000
0000
,
0000
0000
0000
0000
,
0001
0000
0001
0001
,
0000
0001
0001
0000
,
1000
0000
0001
0000
,
1000
0000
0001
0000
,
0010
0000
0010
0010
,
0010
0000
0000
0000
,
0001
0000
0010
0000
,
1000
0000
0010
0000
,
0001
0000
0001
0001
,
0001
0000
0000
0000
,
0010
0000
0001
0000
,
0010
0000
1000
0000
,
0100
0000
0000
0000
,
0010
0010
0010
0010
,
0010
0000
0000
0000
,
0000
0000
1000
1000
,
1000
0000
0000
0000
,
0010
0000
0000
0000
,
0002
0000
0000
0000
,
0003
0000
0000
0000
,
1000
0000
1000
0000
,
0001
0000
0000
0000
;

//---------------dance-single - ----------------
#NOTES:
     dance-single:
     :
     Easy:
     6:
     0.325,0.388,0.090,0.130,0.000:
0000
0000
0000
0000
,
0000
0000
0000
0000
,
0000
0000
0000
0000
,
0000
0000
0000
0000
,
0000
0000
0000
0000
,
0010
0000
0001
0000
,
0010
0001
0100
0001
,
1000
0000
0001
0000
,
1000
0010
0001
0010
,
1001
0000
0000
0000
,
0000
0000
0000
1001
,
0000
0100
0100
0100
,
1001
0000
0000
0010
,
0010
0010
1001
0000
,
0010
0010
0100
0100
,
0001
0001
1000
1000
,
0100
1000
0100
0100
,
0010
0001
0010
0010
,
1000
0001
0010
0000
,
0001
1000
0010
0000
,
0100
0001
0100
0001
,
0100
1000
0100
1000
,
0010
0100
0010
0100
,
1000
0001
1000
0001
,
0010
1000
0010
1000
,
0100
0001
0100
0001
,
0010
0001
0010
0001
,
0100
0010
1000
0010
,
0100
0010
1000
0010
,
2000
0000
3000
0010
,
0010
0010
0001
0001
,
0002
0000
0003
0010
,
0010
1000
0100
1000
,
1000
0001
0001
1000
,
0001
0100
1000
1000
,
0001
1000
0001
0000
,
1000
0100
1000
1000
,
0100
1000
0001
0000
,
0001
1000
0001
0010
,
0010
0001
1000
0100
,
1000
0010
0010
0100
,
0001
1000
1000
0100
,
0100
0001
1000
0001
,
0001
0000
0000
0000
,
0000
0000
1000
1000
,
0010
0000
0010
0000
,
1000
1000
0100
0010
,
0020
0030
0200
0000
,
0000
0300
1000
0001
,
1000
0000
0100
1000
,
0000
0010
0001
0010
,
0010
0001
0001
1000
,
1000
0010
0010
0001
,
0001
1000
0001
0001
,
0010
0100
0000
0010
,
0100
0000
0001
1000
,
1000
0000
0010
1000
,
0010
0000
1001
1001
,
0110
0000
0010
0001
,
2000
3010
0002
0013
,
2000
3010
0002
0013
,
1000
0100
0100
0100
,
0010
0100
0010
0100
,
0020
0030
0200
0300
,
0020
0030
0010
0100
,
0010
0001
0010
0010
,
1000
0100
0010
1001
,
2002
0000
0000
0000
,
0000
0000
0000
0000
,
0000
0000
0000
0000
,
0000
0000
0000
3003
;

//---------------dance-single - ----------------
#NOTES:
     dance-single:
     :
     Medium:
     9:
     0.456,0.565,0.240,0.269,0.020:
0000
0000
0000
0000
,
0000
0000
0000
0000
,
0000
0000
0000
0000
,
0000
0000
0000
0000
,
0000
0000
0000
0000
,
0200
0000
0000
0301
0002
0000
0000
0010
,
0013
1100
0010
0110
,
0200
0000
0000
0301
0002
0000
0000
1003
,
1000
0000
0000
0000
0100
0000
0000
0000
0010
0000
0000
0010
1000
0000
0000
0000
,
0010
1000
0001
1000
0000
0010
0100
0001
,
0000
0100
1000
0010
0000
0010
0100
0020
,
0000
0000
0000
0000
,
0000
0000
0000
0000
0130
0110
0000
0000
,
0110
0000
0010
0000
0010
0001
0000
0010
,
0000
0100
0000
1000
0000
0001
0000
1000
,
0100
0000
0010
0000
0001
0010
0000
0100
,
0000
1000
0000
0100
0000
1000
0002
0000
,
0013
0000
0010
0000
0100
0100
0000
0001
,
0000
0010
0000
0010
0000
0010
0000
1000
,
0200
0000
0300
0001
0002
0000
0003
0001
,
1000
0101
0101
0110
,
1010
0000
0010
0000
0010
0010
0000
0100
,
0000
1000
0000
0010
0000
0001
0000
0010
,
0001
0000
1000
0000
0100
1000
0000
0100
,
0000
1000
0000
0100
0000
0100
0010
0000
,
0010
0000
1000
0000
0010
0100
0000
0100
,
0000
0001
0000
0100
0000
0100
0100
0010
,
0001
0000
0000
0001
0010
0000
0000
0010
,
0100
0000
0000
1000
0001
0000
0001
0000
,
0220
0000
0000
0330
,
2000
0000
3002
0000
,
2003
0000
0000
0000
,
3002
0000
0023
0000
,
0031
0000
1000
0001
0000
0000
1000
0001
,
0000
0011
0011
0011
,
1100
0000
1001
0000
0010
0001
0010
0001
,
0000
1000
0100
0010
0100
0000
1000
0000
,
0001
0000
1001
0000
0010
1000
0010
1000
,
0000
0001
1000
0001
1000
0000
1001
0000
,
0100
0000
0100
0100
0000
0000
0001
0001
,
0000
0010
0001
0100
,
1000
0000
0100
0001
0000
0000
0001
0010
,
0000
0001
1000
0010
0100
0000
1001
0000
,
1002
0000
0000
0000
,
0000
0000
0000
0003
,
0100
0000
0010
1000
0000
1000
0100
0000
,
1000
0010
0000
0010
1000
0000
0010
0000
,
0100
0000
0010
0010
0000
1000
0100
0000
,
0010
0010
0000
0100
0010
0000
0010
0100
,
1000
0010
0000
0100
0100
0000
1000
0010
,
0000
0100
1000
0000
0010
0000
0100
0000
,
0001
0001
0010
0100
0000
1000
0010
1000
,
0000
0010
1000
0001
0000
0001
1000
0001
,
0000
0100
1000
0100
0010
0001
0100
0001
,
0100
0010
0100
0010
0000
0001
1000
0000
,
0100
0000
0000
0001
0000
0000
0001
0000
0100
0000
0000
0000
0010
0000
0000
0000
,
1000
0000
0000
0010
0000
0000
0010
0000
1000
0000
0000
0000
1000
0000
0000
0000
,
0001
0000
0000
0100
1000
0000
1010
0000
,
1001
0000
0000
0001
1001
0000
0110
0000
,
0100
0001
0100
0001
1000
0001
1000
0001
,
1000
0010
1000
0010
1000
0010
1000
0010
,
0000
0010
0100
1000
0001
0000
0001
0000
,
0020
0230
2300
3200
,
0320
0000
0000
0030
,
0000
0020
0230
2300
,
3002
0000
0000
0000
,
1003
0000
0000
1000
0000
0000
0100
0000
0100
0000
0000
0000
1001
0000
0000
0000
,
2002
0000
0000
0000
,
0000
0000
0000
0000
,
0000
0000
0000
0000
,
0000
0000
0000
3003
;

//---------------dance-double - ----------------
#NOTES:
     dance-double:
     :
     Easy:
     6:
     0.324,0.424,0.030,0.249,0.000:
00000000
00000000
00000000
00000000
,
00000000
00000000
00000000
00000000
,
00000000
00000000
00000000
00000000
,
00000000
00000000
00000000
00000000
,
00000000
00000000
00000000
00000000
,
00010000
00000000
00100000
00000000
,
10000000
01000000
00010000
00010000
,
00001000
00000000
00010000
00000000
,
00100000
00010000
00001000
00010000
,
00011000
00000000
00000000
00000000
,
00000000
00000000
00000000
00000110
,
00000000
00000001
00000100
00001000
,
00020000
00030000
00001000
00010000
,
00001000
00000100
00000010
00000000
,
00000100
00001000
00010000
00001000
,
00010000
01000000
00100000
00000000
,
01000000
00010000
00001000
00010000
,
00001000
00000010
00000100
00000000
,
00000010
00001000
00010000
00001000
,
00020000
00030000
00200000
00300000
,
01000000
00100000
00010000
00001000
,
00010000
00001000
00000100
00000000
,
00000001
00000100
00001000
00010000
,
00001000
00010000
01000000
00000000
,
10000000
01000000
00010000
00001000
,
00000010
00000001
00000100
00000000
,
00001000
00010000
00100000
10000000
,
02000000
03000000
00020000
00030000
,
00002000
00003000
00000020
00000030
,
00000002
00000000
00000003
00000100
,
00001000
00010000
00001000
00000100
,
00002000
00000000
00003000
00010000
,
01000000
00010000
00001000
00010000
,
01000000
00000000
10000000
00000000
,
00100000
00010000
00001000
00000000
,
00010000
00001000
00000100
00000000
,
00000001
00000010
00001000
00010000
,
01000000
00100000
01000000
00000000
,
10000000
01000000
00010000
00001000
,
00020000
00000010
00031000
00010000
,
00100000
00010000
00001000
00010000
,
00002000
00100000
00013000
00001000
,
00000100
00000001
00000010
00001000
,
00010000
00000000
00000000
00000000
,
00000000
00000000
01000000
10000000
,
01000000
00000000
00010000
00000000
,
00001000
00000000
00000100
00000010
,
00000200
00000300
00002000
00000000
,
00000000
00003000
00010000
00010000
,
01000000
00000000
01000000
00010000
,
00000000
00010000
00001000
00000010
,
00000001
00000001
00000100
00000010
,
00000100
00001000
00010000
00001000
,
00010000
00100000
10000000
01000000
,
00010000
00001000
00000000
00001000
,
00020000
00030000
01000000
10000000
,
00200000
00300000
00010000
00001000
,
00000200
00000300
00000001
00000010
,
00002000
00003000
00010000
00011000
,
00000020
00000130
00000200
00001300
,
00002000
00013000
00020000
00130000
,
10000000
00100000
00010000
00001000
,
00000010
00001000
00010000
01000000
,
20000000
30000000
02000000
03000000
,
00020000
00030000
00001000
00000010
,
00000001
00000010
00001000
00010000
,
00001000
00000000
00000000
00100000
,
02000000
00000000
00000000
00000000
,
03000000
00000000
00000000
00000000
,
00010000
00010000
00001000
00001000
,
00000010
00000000
00000000
00001000
00000000
00000000
00010000
00000000
;

//---------------dance-single - Copied from----------------
#NOTES:
     dance-single:
     Copied from:
     Hard:
     15:
     0.847,0.849,0.369,0.309,0.629: // measure 1
0000
0000
0000
0000
,  // measure 2
0000
0000
0000
0000
,  // measure 3
0000
0000
0000
0000
,  // measure 4
0000
0000
0000
0000
,  // measure 5
0000
0000
0000
0000
,  // measure 6
0002
0000
0000
0000
0000
0000
1003
0000
0020
0000
0000
0000
0000
0000
1030
0100
,  // measure 7
2000
3020
0032
0203
,  // measure 8
0320
0000
0000
0000
0000
0000
0130
0000
0002
0000
0000
0000
0000
0000
1003
0010
,  // measure 9
1000
0100
0010
0001
,  // measure 10
1000
0100
0001
0200
0000
0310
1000
0020
,  // measure 11
0000
0130
0001
0200
0000
0310
1000
0100
,  // measure 12
1001
1100
0101
1100
,  // measure 13
0010
0000
1000
0000
0001
0000
1000
0000
0110
0000
1001
0000
0000
0000
0001
0010
,  // measure 14
0001
0000
0000
1000
0001
0000
0100
0000
0010
0000
0000
1000
0100
0000
1000
0000
,  // measure 15
0010
0000
0000
0100
0001
0000
0100
0000
0010
0000
1000
0100
1000
0000
0010
0000
,  // measure 16
0001
0000
0000
0100
0001
0000
0100
0000
0010
0000
0000
1000
0010
0000
1000
0000
,  // measure 17
0100
0000
0000
1000
0010
0000
0100
0000
0001
0000
1000
0001
1000
0000
0010
0100
,  // measure 18
0010
0000
0000
1000
0100
0000
0010
0000
0100
0000
0000
0001
0100
0000
0010
0000
,  // measure 19
0100
0000
0000
1000
0010
0000
0100
0000
0010
0000
1000
0100
1000
0000
0001
0100
,  // measure 20
0001
0000
0000
1000
0001
0000
0110
0000
0110
0000
0000
0001
1000
0000
0100
1000
,  // measure 21
0200
0001
0000
0000
0302
0010
0000
0000
0013
0100
0010
0100
0010
0000
0000
0000
,  // measure 22
1000
0000
0000
0001
1000
0000
0010
0000
0010
0000
0000
1000
0001
0000
0100
0000
,  // measure 23
0100
0000
0000
0001
1000
0000
0010
0000
0010
0000
0100
0001
0100
0000
0010
0000
,  // measure 24
1000
0000
0000
0100
1000
0000
0010
0000
0100
0000
0000
0010
0100
0000
0010
0000
,  // measure 25
0001
0000
0000
0010
0001
0000
0010
0000
0100
0000
0001
0010
0001
0000
0100
0000
,  // measure 26
1000
0000
0000
0010
1000
0000
0100
0000
0001
0000
0000
0100
0001
0000
0010
0000
,  // measure 27
0001
0000
0000
1000
0100
0000
1000
0000
0001
0000
0100
0010
0100
0000
1000
0000
,  // measure 28
1001
0000
0000
0001
0100
0000
0010
0000
0110
0000
0000
0001
1000
0000
0100
0000
,  // measure 29
0110
0000
0000
1000
0001
0000
0100
0000
0110
0000
0000
0000
1001
0000
0000
0000
,  // measure 30
0002
0000
1000
0000
0100
0203
0000
0320
,  // measure 31
0000
1000
0000
0230
0001
0000
0001
0000
,  // measure 32
0302
0000
1000
0000
0010
0203
0000
0320
,  // measure 33
0000
1000
0000
0100
0100
0000
0031
0000
,  // measure 34
0001
0100
0001
0200
0000
0310
1000
0020
,  // measure 35
0000
0130
0001
0100
0020
0000
1030
0000
,  // measure 36
0110
0000
0000
0100
0010
0000
0000
0010
0001
0000
0000
0001
1000
0000
1100
0000
,  // measure 37
0000
0000
0001
0000
0100
0000
0010
0000
0100
0000
0001
1000
0001
0000
1001
0000
,  // measure 38
0110
0000
0000
0100
0001
0000
0000
0001
1000
0000
0000
1000
0010
0000
0110
0000
,  // measure 39
0000
0000
1000
0000
0001
0000
0100
0000
0010
0000
1000
0100
1000
0000
0100
0000
,  // measure 40
0001
0010
0100
1100
0000
1000
0100
0101
,  // measure 41
0000
0000
0001
0000
1000
0000
0010
0000
0100
0010
0000
0000
1000
0001
0000
0000
,  // measure 42
1000
0100
0100
1100
0000
0001
0100
0101
,  // measure 43
0000
0000
1000
0000
0001
0000
0100
0000
0010
1000
0000
0000
0100
0001
0000
0000
,  // measure 44
0010
0000
0001
0100
0001
0000
1000
0000
0100
0010
0100
0000
0001
0000
1000
0010
,  // measure 45
1000
0000
0100
0000
0001
0010
0001
0000
1000
0000
0010
0100
0010
0000
1000
0000
,  // measure 46
0001
0100
0001
0000
1000
0000
0010
0100
0010
0000
0001
0000
0100
0010
0100
0000
,  // measure 47
1000
0000
0100
0010
0100
0000
0001
0100
0010
0000
1000
0000
0100
0000
0010
0000
,  // measure 48
0002
0000
0000
0100
0000
0000
1000
0000
0000
0100
0000
0000
0013
0100
0020
0000
,  // measure 49
2000
0000
0030
0100
0000
0000
0001
0000
0000
0010
0000
0000
3001
0100
0010
1000
,  // measure 50
0100
0010
0100
0010
0000
0000
1000
0100
1000
0100
0000
0000
0001
0100
0001
0100
,  // measure 51
0002
0000
0100
0000
0100
0000
0000
0000
1000
0000
0000
0103
0010
0000
0000
0000
,  // measure 52
1001
0000
1000
0100
1000
0000
0110
0000
0101
0000
0010
0100
0010
0000
0101
0000
,  // measure 53
1000
0000
0010
0100
0010
0000
1100
0000
0001
0000
0100
0010
0100
0000
0001
0000
,  // measure 54
1000
0000
0100
0010
0100
0000
0001
0100
0001
0000
0100
0010
0100
0000
1000
0000
,  // measure 55
0001
0100
0001
0100
0001
0000
1000
0000
0010
0000
0100
0010
0100
0000
0001
0000
,  // measure 56
1000
0100
0000
1000
0100
0000
0100
0000
0110
0000
0001
0100
0001
0000
0100
0000
,  // measure 57
0001
0100
0000
0001
0100
0000
0010
0000
0110
0000
1000
0100
1000
0000
0110
0000
,  // measure 58
1000
0001
0000
1000
0001
0000
0100
0000
0110
0000
0001
0100
0001
0000
0100
0000
,  // measure 59
0010
1000
0000
0000
1000
0010
0000
0000
0100
0001
0000
0000
0001
0100
0000
0000
,  // measure 60
1000
0100
0000
0001
0100
0000
1000
0000
0010
0001
0000
0010
1000
0000
0100
0000
,  // measure 61
1000
0010
0000
0001
0010
0000
1000
0000
0100
0001
0000
0100
1000
0000
0100
0000
,  // measure 62
0010
1000
0000
0100
0010
0000
1000
0000
0001
0100
0000
0100
0001
0000
0010
0000
,  // measure 63
1000
0000
0100
0001
0100
0000
0010
0000
0001
0100
0001
0100
0010
0000
1000
0000
,  // measure 64
0100
1000
0000
1000
0010
0000
0100
0000
0110
0000
0001
0100
0001
0000
1000
0000
,  // measure 65
0100
0010
0000
0010
1000
0000
0100
0000
0110
0000
0001
1000
0100
0000
1000
0001
,  // measure 66
0100
0000
0000
0010
1000
0000
0010
0000
0100
0000
0000
0001
0100
0000
0010
0000
,  // measure 67
1000
0100
1000
0000
0001
0100
0001
0000
1000
0100
1000
0000
0001
0100
0001
0000
,  // measure 68
0020
1000
0100
0032
,  // measure 69
0100
1000
0023
0001
,  // measure 70
0230
1000
0010
0001
,  // measure 71
0301
0010
0100
1000
0110
1001
0110
1001
;

//---------------dance-double - Copied from Copied f----------------
#NOTES:
     dance-double:
     Copied from Copied f:
     Hard:
     15:
     0.771,0.778,0.329,0.329,0.534:
00000000
00000000
00000000
00000000
,
00000000
00000000
00000000
00000000
,
00000000
00000000
00000000
00000000
,
00000000
00000000
00000000
00000000
,
00000000
00000000
00000000
00000000
,
00020000
00000000
00000000
00000000
00000000
00000000
00031000
00000000
00000020
00000000
00000000
00000000
00000000
00000000
00001030
00000100
,
00002000
00003020
00000032
00000203
,
00000320
00000000
00000000
00000000
00000000
00000000
00000130
00000000
00000002
00000000
00000000
00000000
00000000
00000000
00001003
00000010
,
00001000
00000100
00010000
00100000
,
00010000
01000000
00010000
02000000
00000000
03100000
10000000
00200000
,
00000000
01300000
00010000
02000000
00000000
03100000
10000000
00000000
,
10010000
01100000
00110000
00011000
,
00000100
00000000
00000001
00000000
00001000
00000000
00000001
00000000
00000110
00000000
00001001
00000000
00000000
00000000
00001000
00000100
,
00001000
00000000
00000000
00001000
00010000
00000000
01000000
00000000
00100000
00000000
00000000
10000000
01000000
00000000
10000000
00000000
,
00100000
00000000
00000000
01000000
00010000
00000000
01000000
00000000
00010000
00000000
00001000
00010000
00001000
00000000
00000100
00000000
,
00001000
00000000
00000000
00000010
00001000
00000000
00000010
00000000
00000100
00000000
00000000
00000001
00000100
00000000
00000001
00000000
,
00000010
00000000
00000000
00000001
00000100
00000000
00000010
00000000
00001000
00000000
00000001
00001000
00000001
00000000
00000100
00000010
,
00000100
00000000
00000000
00000001
00000010
00000000
00000100
00000000
00000010
00000000
00000000
00001000
00000010
00000000
00000100
00000000
,
00000010
00000000
00001000
00000000
00010000
00000000
00000100
00000000
00010000
00000000
00001000
00100000
00001000
00000000
00010000
01000000
,
00010000
00000000
00000000
10000000
00010000
00000000
01100000
00000000
01100000
00000000
00000000
00010000
10000000
00000000
01000000
10000000
,
02000000
00010000
00000000
00000000
03020000
00100000
00000000
00000000
00130000
01000000
00100000
01000000
00100000
00000000
00000000
00000000
,
10000000
00000000
00000000
00010000
01000000
00000000
00100000
00000000
10000000
00000000
00000000
01000000
00010000
00000000
00100000
00000000
,
01000000
00000000
00000000
00010000
00100000
00000000
00001000
00000000
00010000
00000000
00001000
00000000
00010000
00000000
00100000
00000000
,
10000000
00000000
00000000
01000000
10000000
00000000
00100000
00000000
01000000
00000000
00000000
00010000
01000000
00000000
00001000
00000000
,
00100000
00000000
00000000
00001000
00010000
00000000
00000100
00000000
00001000
00000000
00000001
00000010
00000001
00000000
00000100
00000000
,
00001000
00000000
00000000
00000010
00001000
00000000
00000100
00000000
00000001
00000000
00000000
00000100
00000001
00000000
00000010
00000000
,
00000001
00000000
00000000
00000010
00000100
00000000
00001000
00000000
00010000
00000000
01000000
00100000
01000000
00000000
10000000
00000000
,
10010000
00000000
00000000
00010000
01000000
00000000
00100000
00000000
01100000
00000000
00000000
00010000
10000000
00000000
01000000
00000000
,
01100000
00000000
00000000
10000000
00010000
00000000
01000000
00000000
01100000
00000000
00000000
00000000
10010000
00000000
00000000
00000000
,
00020000
00000000
10000000
00000000
01000000
02030000
00000000
03200000
,
00000000
00010000
00000000
00302000
00010000
00000000
00010000
00000000
,
00023000
00000000
00001000
00000000
00000100
00032000
00000000
00000010
,
00000000
00000001
00000000
00000010
00003010
00000000
00000100
00000000
,
00010000
01000000
00010000
02000000
00000000
03100000
10000000
00200000
,
00000000
01300000
00010000
01000000
00200000
00000000
10300000
00000000
,
01100000
00000000
00000000
01000000
00100000
00000000
00000000
00100000
00010000
00000000
00000000
00010000
00001000
00000000
00001100
00000000
,
00000000
00000000
00000001
00000000
00000100
00000000
00000010
00000000
00000100
00000000
00000001
00001000
00000001
00000000
00001001
00000000
,
00000110
00000000
00000000
00000100
00000001
00000000
00000000
00000001
00001000
00000000
00000000
00001000
00000010
00000000
00000110
00000000
,
00000000
00000000
00001000
00000000
00010000
00000000
01000000
00000000
00100000
00000000
10000000
01000000
10000000
00000000
01000000
00000000
,
00010000
00100000
01000000
11000000
00000000
10000000
01000000
01010000
,
00000000
00000000
00001000
00000000
00000001
00000000
00000100
00000000
00000010
00000100
00000000
00000000
00000001
00001000
00000000
00000000
,
00000001
00000010
00000100
00000110
00000000
00001000
00010000
00011000
,
00000000
00000000
10000000
00000000
00010000
00000000
01000000
00000000
00100000
10000000
00000000
00000000
01000000
00010000
00000000
00000000
,
00100000
00010000
00002000
00000000
00013000
00000200
00000000
00001300
,
00000010
00000100
00000001
00000010
00001000
00000100
00010000
00001000
,
00100000
00010000
10000000
01000000
00010000
00001000
00010000
00000100
,
00001000
00000010
00000001
00000100
00001000
00000010
00000100
00000010
,
00002000
00010000
00000100
00023000
,
00230000
00001000
01000000
00301000
,
01000000
00100000
01000000
00100000
00000000
00000000
10000000
01000000
10000000
01000000
00000000
00000000
00010000
01000000
00010000
01000000
,
00020000
00000000
01000000
00000000
01000000
00000000
00000000
00000000
10000000
00000000
00000000
01030000
00100000
00000000
00000000
00000000
,
10000000
00000000
00000000
10000000
01000000
00000000
00000000
01000000
00010000
00000000
00000000
00010000
00001000
00000000
00000000
00001000
,
00100000
00000000
00000000
00100000
00001000
00000000
00000000
00001000
00010000
00000000
00000000
00010000
00000100
00000000
00000000
00000100
,
00001000
00000000
00000000
00001000
00000010
00000000
00000000
00000010
00000100
00000000
00000000
00000100
00000001
00000000
00000000
00000001
,
00001000
00000000
00000000
00001000
00000010
00000000
00000000
00000010
00000100
00000000
00000000
00000100
00010000
00000000
00000000
00010000
,
00001000
00010000
00000000
00001000
00010000
00000000
00100000
00000000
00110000
00000000
00000000
00000000
01010000
00000000
00000000
00000000
,
10000000
00100000
00000000
10000000
01000000
00000000
10000000
00000000
10100000
00000000
00000000
00000000
10010000
00000000
00000000
00000000
,
01000000
00010000
00000000
00100000
00010000
00000000
00001000
00000000
00010000
00000000
00001000
00000000
00010000
00000000
00000100
00000000
,
00001000
00000010
00001000
00000000
00000001
00000100
00000001
00000000
00000110
00000000
00000000
00000000
00001001
00000000
00000000
00000000
,
00000001
00000000
00000000
00000001
00000010
00000000
00000000
00000010
00001000
00000000
00000000
00001000
00010000
00000000
00000000
00010000
,
00000100
00000000
00000000
00000100
00010000
00000000
00000000
00010000
00001000
00000000
00000000
00001000
00100000
00000000
00000000
00100000
,
00010000
00000000
00000000
00010000
01000000
00000000
00000000
01000000
00100000
00000000
00000000
00100000
10000000
00000000
00000000
10000000
,
00010000
00000000
00000000
00010000
01000000
00000000
00000000
01000000
00100000
00000000
00000000
00100000
00001000
00000000
00000000
00001000
,
00010000
00001000
00000000
00010000
00001000
00000000
00000100
00000000
00001100
00000000
00000000
00000000
00001010
00000000
00000000
00000000
,
00000001
00000100
00000000
00000001
00000010
00000000
00000001
00000000
00000101
00000000
00000000
00000000
00001001
00000000
00000000
00000000
,
00000010
00000100
00001000
00010000
00001000
00000100
00010000
00001000
,
00100000
00000000
00010000
00000000
10000000
00100000
10000000
00000000
00010000
00100000
00010000
00100000
01000000
00100000
01000000
00100000
,
00020000
01000000
00001000
02030000
,
03200000
10000000
00010000
20300000
,
01000000
00010000
00100000
32000000
,
03010000
00000000
00100000
00000000
00001000
00000000
00010000
00000000
00001000
00000100
00000010
00000001
00000100
00000000
00001001
00000000
;

//---------------dance-double - ----------------
#NOTES:
     dance-double:
     :
     Medium:
     9:
     0.416,0.530,0.299,0.200,0.000:
00000000
00000000
00000000
00000000
,
00000000
00000000
00000000
00000000
,
00000000
00000000
00000000
00000000
,
00000000
00000000
00000000
00000000
,
00000000
00000000
00000000
00000000
,
00001000
00000000
00000000
00010000
00010000
00000000
00000000
00001000
,
00001000
00000010
00001000
00000010
,
00000020
00000000
00000000
00010030
00020000
00000000
00000000
00030000
,
00000010
00001000
00000010
00000000
,
00000100
00000010
00000001
00000010
00000000
00000100
00001000
00000001
,
00000000
00001000
00010000
00010000
00000000
00010000
00001000
00020000
,
00000000
00000000
00000000
00000000
,
00000000
00000000
00000000
00000000
00031000
00011000
00000000
00000000
,
00011000
00000000
00010000
00000000
00010000
00000000
00000000
00010000
,
00000000
00001000
00000000
00000010
00000000
00000001
00000000
00000010
,
00000000
00000000
00001000
00000000
00001000
00000000
00000000
00001000
,
00000000
00001000
00000000
00010000
00000000
00001000
00200000
00000000
,
00310000
00000000
00010000
00000000
00010000
00010000
00000000
00100000
,
00000000
00010000
00000000
00010000
00000000
00010000
00000000
10000000
,
00020000
00000000
00030000
00100000
00200000
00000000
00300000
00000000
,
00010000
00000100
00000001
00000100
,
00011000
00000000
00100000
00000000
00100000
00100000
00000000
00010000
,
00000000
00010000
00000000
00100000
00000000
01000000
00000000
00100000
,
01000000
00000000
00010000
00000000
00010000
00001000
00000000
00001000
,
00000000
00001000
00000000
00000100
00000000
00000100
00000001
00000000
,
00000001
00000000
00001000
00000000
00000001
00000100
00000000
00000100
,
00000000
00010000
00000000
00010000
00000000
00010000
00010000
00100000
,
00100000
00000000
00000000
00100000
00001000
00000000
00000000
00001000
,
00000100
00000000
00000000
00000010
00001000
00000000
00001000
00000000
,
00022000
00000000
00000000
00033000
,
00000020
00000000
00000032
00000000
,
00000023
00000000
00000000
00000000
,
00020030
00000000
00032000
00000000
,
00013000
00000000
10000000
00010000
00000000
00000000
10000000
00010000
,
00000000
01010000
00110000
00011000
,
00001010
00000000
00010100
00000000
00001000
00010000
00001000
00010000
,
00000000
00000100
00001000
00000010
00010000
00000000
00001000
00000000
,
00001000
00000000
00001100
00000000
00000010
00000100
00000010
00000100
,
00000000
00001000
00000100
00001000
00000100
00000000
00001100
00000000
,
00010000
00000000
00010000
00010000
00000000
00000000
00001000
00001000
,
00000000
00001000
00010000
00100000
,
10000000
00000000
00100000
00010000
00000000
00000000
00010000
00001000
,
00000000
00001000
00000100
00001000
00000010
00000000
00011000
00000000
,
00022000
00000000
00000000
00000000
,
00000000
00000000
00000000
00033000
,
00000010
00000000
00001000
00010000
00000000
00010000
00000010
00000000
,
00001000
00000100
00000000
00001000
00100000
00000000
00101000
00000000
,
00000010
00001000
00001000
00001010
,
00010000
00010000
00011000
00010000
,
00001010
00000000
00000000
00001010
00000000
00000000
00001010
00000000
,
00000000
00001010
00000000
00000000
00010000
00000000
00001000
00000000
,
00010000
00001000
00010000
00001000
00000000
00100000
00010000
00100000
,
00000000
00010000
00100000
00010000
00000000
01000000
00100000
01000000
,
00000000
10000000
01000000
00000000
00100000
00000000
00010000
00000000
,
00000100
00000000
00001000
00000010
00000000
00000000
00001001
00000000
,
00000010
00000000
00000000
00000100
00001100
00000000
00000000
00100000
,
00110000
00000000
00000000
01000000
01100000
00000000
00000000
10000000
,
11000000
00000000
00000000
01000000
01010000
00000000
00110000
00000000
,
00011000
00000000
00000000
00000100
00001000
00000000
00000010
00000000
,
00000100
00000001
00000100
00000001
00000000
00000010
00001000
00000010
,
00000000
00000100
00010000
00000100
00000000
00100000
00010000
00100000
,
00000000
10000000
01000000
10000000
01000000
00100000
01000000
00000000
,
00010000
00010000
00010000
00000000
00001000
00000000
00010000
00000000
,
00000200
00000000
00000000
00000000
,
00000300
00001000
00000010
00000100
,
00002002
00000000
00000000
00000000
,
00000000
00000000
00000000
00000000
00000000
00000000
00000000
00000000
00000000
00000000
00000000
00000000
00000000
00000000
00000000
00000000
00000000
00000000
00000000
00000000
00000000
00000000
00000000
00000000
00000000
00000000
00000000
00000000
00000000
00000000
00000000
00000000
00000000
00000000
00000000
00000000
00000000
00000000
00000000
00000000
00000000
00000000
00000000
00000000
00000000
00000000
00000000
00000000
00000000
00000000
00000000
00000000
00000000
00000000
00000000
00000000
00000000
00000000
00000000
00000000
00000000
00000000
00000000
00000000
00000000
00000000
00000000
00000000
00000000
00000000
00000000
00000000
00000000
00000000
00000000
00000000
00000000
00000000
00000000
00000000
00000000
00000000
00000000
00000000
00000000
00000000
00000000
00000000
00000000
00000000
00000000
00000000
00000000
00000000
00000000
00000000
00000000
00000000
00000000
00000000
00000000
00000000
00000000
00000000
00000000
00000000
00000000
00000000
00000000
00000000
00000000
00000000
00000000
00000000
00000000
00000000
00000000
00000000
00000000
00000000
00000000
00000000
00000000
00000000
00000000
00000000
00000000
00000000
00000000
00000000
00000000
00000000
00000000
00000000
00000000
00000000
00000000
00000000
00000000
00000000
00000000
00000000
00000000
00000000
00000000
00003003
00000000
00000000
00000000
00000000
00000000
00000000
00000000
00000000
00000000
00000000
00000000
00000000
00000000
00000000
00000000
00000000
00000000
00000000
00000000
00000000
00000000
00000000
00000000
00000000
00000000
00000000
00000000
00000000
00000000
00000000
00000000
00000000
00000000
00000000
00000000
00000000
00000000
00000000
00000000
00000000
00000000
00000000
00000000
00000000
00000000
00000000
,
00022000
00000000
00000000
00000000
,
00000000
00000000
00000000
00000000
,
00000000
00000000
00000000
00000000
,
00000000
00000000
00000000
00033000
;
