#TITLE:STARLIGHT DANCEHALL;
#SUBTITLE:;
#ARTIST:P*Light;
#TITLETRANSLIT:;
#SUBTITLETRANSLIT:;
#ARTISTTRANSLIT:;
#GENRE:;
#CREDIT:;
#MENUCOLOR:;
#METERTYPE:DDR;
#BANNER:STARLIGHT DANCEHALL.png;
#BACKGROUND:STARLIGHT DANCEHALL-bg.png;
#LYRICSPATH:;
#CDTITLE:;
#MUSIC:STARLIGHT DANCEHALL.ogg;
#OFFSET:1.300;
#SAMPLESTART:86.860;
#SAMPLELENGTH:12.000;
#SELECTABLE:YES;
#LISTSORT:;
#BPMS:0.000=177.000,200.000=88.500,208.000=177.000;
#STOPS:;
#BGCHANGES:2.000=STARLIGHT DANCEHALL.avi=1.000=1=0=1,
330.000=STARLIGHT DANCEHALL-jacket.png=1.000=0=0=1,
99999=-nosongbg-=1.000=0=0=0 // don't automatically add -songbackground-
;
#ATTACKS:;

//---------------dance-single - ----------------
#NOTES:
     dance-single:
     :
     Beginner:
     4:
     0.191,0.389,0.044,0.124,0.000:
0000
0000
0000
0000
,
0000
0000
0000
0000
,
0000
0000
0000
0000
,
0000
0000
0000
0000
,
0000
0000
0000
0000
,
0000
0000
0000
0000
,
0000
0001
0000
0001
,
0000
0001
0000
0001
,
0000
1000
0000
1000
,
0000
1000
0000
0000
,
0020
0000
0000
0030
,
0000
0000
0000
0000
,
0200
0000
0000
0300
,
0000
0000
0000
0000
,
0001
0000
0001
0000
,
1000
0000
1000
0000
,
0001
0001
0001
0001
,
0001
0000
0000
0000
,
0000
0100
0000
0100
,
0000
0100
0000
0100
,
0000
0001
0000
0001
,
0000
1000
0000
1000
,
0000
0010
0000
0010
,
0000
0010
0000
0010
,
0010
0000
0010
0000
,
0002
0000
0003
0000
,
0000
0100
0000
0100
,
0000
0100
0000
0100
,
0000
0001
0000
0001
,
0000
1000
0000
1000
,
2000
0000
3000
0000
,
0002
0000
0003
0000
,
0010
0000
0010
0000
,
0200
0000
0300
0000
,
1000
0000
0000
0000
,
0001
0000
0000
0000
,
1000
0000
1000
0000
,
0001
0000
0001
0000
,
0100
0000
0000
0000
,
0010
0000
0000
0000
,
0100
0000
0100
0000
,
0010
0000
0010
0000
,
2000
0000
0000
3000
,
1000
0000
1000
0000
,
0002
0000
0000
0003
,
0001
0000
0001
0000
,
0200
0000
0300
0000
,
0020
0000
0030
0000
,
1000
0000
0001
0000
,
0100
0100
0100
0000
,
0001
0000
1000
0000
,
0001
0000
1000
0000
,
0000
0001
0000
0001
,
0000
1000
0000
1000
,
0000
0001
0000
0001
,
0001
0000
0000
0000
,
0020
0000
0000
0000
,
0000
0030
0000
0100
,
0200
0000
0000
0000
,
0000
0300
0000
0010
,
0010
0000
0100
0000
,
0010
0000
0100
0000
,
1001
1001
1001
0000
,
0220
0000
0330
0000
,
0010
0000
1000
0000
,
0100
0000
0001
0000
,
0010
0000
0001
0000
,
0100
0000
1000
0000
,
0010
0000
1000
0000
,
0100
0000
0001
0000
,
0010
0000
0001
0000
,
0100
0100
0100
0000
,
0010
0000
1000
0000
,
0010
0010
0010
0000
,
0001
0000
0100
0000
,
0001
0001
0001
0000
,
1000
0000
0001
0000
,
1000
0000
0001
0000
,
0010
0010
0010
0000
,
0100
0100
0100
0000
,
1001
0000
0000
0000
;

//---------------dance-double - ----------------
#NOTES:
     dance-double:
     :
     Easy:
     6:
     0.360,0.393,0.080,0.186,0.013:
00000000
00000000
00000000
00000000
,
00000000
00000000
00000000
00000000
,
00000000
00000000
00000000
00000000
,
00000000
00000000
00000000
00000000
,
00000000
00000000
00000000
00000000
,
00000000
00000000
00000000
00000000
,
00200000
00000000
00000000
00000000
,
00302000
00000000
00000000
00000000
,
00023000
00000000
00000000
00000000
,
00030200
00000000
00000000
00000300
,
00000010
00000010
00000010
00000010
,
00000010
00000010
00000010
00000000
,
00100000
00100000
00100000
00100000
,
00100000
00100000
00100000
00000000
,
00011000
00000000
00100000
00100000
,
00011000
00000000
00000100
00000100
,
00010000
00001000
00010000
00001000
,
00200000
00000000
00000000
00300000
,
10000000
10000000
10000000
10000000
,
10000000
10000000
10000000
10000000
,
10000000
10000000
10000000
10000000
,
01000000
00100000
00010000
00000100
,
00000001
00000001
00000001
00000001
,
00000001
00000001
00000001
00000001
,
00000010
00001000
00010000
00000000
,
00100000
00010000
00000100
00010000
,
01000000
10000000
01000000
00010000
,
01000000
10000000
01000000
00010000
,
00000010
00001000
00000010
00000001
,
00000010
00001000
00000010
00000001
,
00000200
00000300
00010000
00100000
,
02000000
03000000
00100000
00001000
,
00000100
00000010
00000001
00000100
,
00022000
00000000
00000000
00033000
,
01000000
00000000
00000000
00010000
00000000
00000000
00100000
00000000
,
00001000
00000000
00010000
00001000
00000000
00010000
00000000
00000000
,
00000100
00000010
00000100
00000010
,
00000001
00001000
00000001
00001000
,
00000001
00000000
00000000
00000100
00000000
00000000
00001000
00000000
,
00010000
00000000
00010000
00100000
00000000
01000000
00000000
00000000
,
10000000
01000000
00100000
00010000
,
00000000
00001000
00000000
00000000
00010000
00000000
00000000
00002000
,
00000100
00000100
00000100
00003100
,
00000000
00001000
00000000
00000000
00010000
00000000
00000000
00200000
,
00010000
00010000
00010000
00310000
,
00000000
00010000
00000000
00000000
00001000
00000000
00000000
00000200
,
00001000
00001000
00001000
00001300
,
00000000
00000001
00000000
00000000
00000100
00000000
00000000
00001000
,
00010000
00100000
10000000
01000000
,
00010000
00000000
00022000
00033000
,
10000000
00000000
00000000
00000000
00000000
00000000
00000000
00000000
00100000
00000000
00000000
00010000
00000000
00000000
00000000
00000000
,
00001000
00000000
00000000
00000100
00000000
00000000
00000000
00000000
00000010
00000000
00000000
00000001
00000000
00000000
00000000
00000000
,
00000000
00000000
00002000
00003000
00000000
00000000
00020000
00030000
,
00000000
00000000
00002000
00003000
00000000
00000000
00010000
00000000
,
00001000
00010000
00001000
00010000
,
00200000
00000000
00000000
00300000
,
01000000
01000000
01000000
01000000
,
01000000
01000000
01000000
00010000
,
00000100
00000100
00000100
00000100
,
00000100
00000100
00000100
00001000
,
00100000
00000000
00011000
00011000
,
00000100
00000000
00011000
00011000
,
00100000
00001000
00010000
00000100
,
00000020
00000000
00000000
00001030
,
00010000
00000100
00010000
00000100
,
00010000
00100000
00010000
00100000
,
00010000
00001000
00010000
00001000
,
01000000
00001000
01000000
00010000
,
01000000
10000000
01000000
00010000
,
00100000
00001000
00010000
00000100
,
00001000
00000100
00000001
00000100
,
00001000
00000100
00010000
00001000
,
00100000
00000000
00100000
00000000
10000000
00010000
10000000
00000000
,
01000000
01000000
10000000
00100000
,
00001000
00000000
00001000
00000000
00010000
00001000
00010000
00000000
,
00001000
00000010
00000001
00000100
,
00000010
00000000
00000010
00000000
00000001
00001000
00000001
00000000
,
00000100
00001000
00100000
00010000
,
01000000
01000000
00100000
00001000
,
00000100
00000100
00001000
00010000
,
00022000
00000000
00000000
00033000
;

//---------------dance-single - ----------------
#NOTES:
     dance-single:
     :
     Easy:
     6:
     0.360,0.393,0.080,0.186,0.013:
0000
0000
0000
0000
,
0000
0000
0000
0000
,
0000
0000
0000
0000
,
0000
0000
0000
0000
,
0000
0000
0000
0000
,
0000
0000
0000
0000
,
0020
0000
0000
0000
,
2030
0000
0000
0000
,
3002
0000
0000
0000
,
0203
0000
0000
0300
,
0010
0010
0010
0010
,
0010
0010
0010
0000
,
0010
0010
0010
0010
,
0010
0010
0010
0000
,
1001
0000
0010
0010
,
1001
0000
0100
0100
,
0001
1000
0001
1000
,
0020
0000
0000
0030
,
1000
0001
1000
0001
,
1000
0001
1000
0001
,
1000
0001
1000
0001
,
0010
0100
1000
0100
,
0001
1000
0001
1000
,
0001
1000
0001
1000
,
0010
1000
0001
0000
,
0010
0001
0100
0001
,
0100
1000
0100
0001
,
0100
1000
0100
0001
,
0010
1000
0010
0001
,
0010
1000
0010
0001
,
0200
0300
0001
0010
,
0200
0300
0010
1000
,
0100
0010
0001
0100
,
2002
0000
0000
3003
,
0100
0000
0000
0001
0000
0000
0010
0000
,
1000
0000
0001
1000
0000
0001
0000
0000
,
0100
0010
0100
0010
,
0001
1000
0001
1000
,
0001
0000
0000
0100
0000
0000
1000
0000
,
0001
0000
0001
0010
0000
0100
0000
0000
,
1000
0100
0010
0001
,
0000
1000
0000
0000
0001
0000
0000
2000
,
0100
0100
0100
3100
,
0000
1000
0000
0000
0001
0000
0000
0020
,
0001
0001
0001
0031
,
0000
0001
0000
0000
1000
0000
0000
0200
,
1000
1000
1000
1300
,
0000
0001
0000
0000
0100
0000
0000
1000
,
0001
0010
1000
0100
,
0001
0000
2002
3003
,
1000
0000
0000
0000
0000
0000
0000
0000
0010
0000
0000
0001
0000
0000
0000
0000
,
1000
0000
0000
0100
0000
0000
0000
0000
0010
0000
0000
0001
0000
0000
0000
0000
,
0000
0000
2000
3000
0000
0000
0002
0003
,
0000
0000
2000
3000
0000
0000
0001
0000
,
1000
0001
1000
0001
,
0020
0000
0000
0030
,
0100
0100
0100
0100
,
0100
0100
0100
0001
,
0100
0100
0100
0100
,
0100
0100
0100
1000
,
0010
0000
1001
1001
,
0100
0000
1001
1001
,
0010
1000
0001
0100
,
0020
0000
0000
1030
,
0001
0100
0001
0100
,
0001
0010
0001
0010
,
0001
1000
0001
1000
,
0100
1000
0100
0001
,
0100
1000
0100
0001
,
0010
1000
0001
0100
,
1000
0100
0001
0100
,
1000
0100
0001
1000
,
0010
0000
0010
0000
1000
0001
1000
0000
,
0100
0100
1000
0010
,
1000
0000
1000
0000
0001
1000
0001
0000
,
1000
0010
0001
0100
,
0010
0000
0010
0000
0001
1000
0001
0000
,
0100
1000
0010
0001
,
0100
0100
0010
1000
,
0100
0100
1000
0001
,
2002
0000
0000
3003
;

//---------------dance-double - ----------------
#NOTES:
     dance-double:
     :
     Hard:
     13:
     0.674,0.822,0.478,0.328,0.208:
00000000
00000000
00000000
00000000
,
00000000
00000000
00000000
00000000
,
00000000
00000000
00000000
00000000
,
00000000
00000000
00000000
00000000
,
00000000
00000000
00000000
00000000
,
00000000
00000000
00000000
00000000
,
10010000
00000000
10010000
00000000
10000000
01000000
00010000
00000000
,
00011000
00000000
00011000
00000000
00001000
00000100
00000001
00000000
,
00001001
00000000
00001001
00000000
00000001
00000010
00001000
00000000
,
00001000
00010000
00001000
00010000
00000100
00001000
00000010
00000001
,
00000200
00000010
00000010
00000010
,
00000010
00000010
00000310
00011000
,
01200000
01000000
01000000
01000000
,
01000000
01000000
01300000
00011000
,
00000200
00000300
00000200
00000300
00000200
00000300
00000200
00000300
,
00021000
00030000
00200000
00300000
00200000
00300000
00200000
00300000
,
00010000
00000000
00001000
00000000
00010000
00000000
00001000
00010000
00000000
00001000
00010000
00000000
00001000
00000000
00010000
00001000
,
00010000
00100000
00001000
00000100
,
00000010
00001000
00000010
00000100
00000010
00001000
00000010
00000100
,
00000010
00000001
00000100
00000001
00000010
00000001
00000100
00000001
,
00000010
00001000
00000100
00001000
00000010
00001000
00000100
00010000
,
00001000
00100000
00010000
00100000
00001000
00100000
00010000
01000000
,
10000000
01000000
00010000
01000000
10000000
00100000
00010000
00100000
,
10000000
00100000
00001000
00010000
00000100
00001000
00000100
00000001
,
00000010
00000000
00000110
00000000
00000001
00000100
00001000
00000000
,
00000010
00000100
00010000
00001000
01000000
00100000
00010000
00001000
,
00000100
00000000
00000000
00000010
00000000
00000000
00000100
00000000
00000000
00000010
00000000
00000000
00001000
00000000
00000001
00000100
,
00000001
00000000
00000000
00000100
00000000
00000000
00001000
00000000
00000000
00100000
00000000
00000000
00010000
00000000
10000000
00000000
,
01000000
00000000
00000000
00010000
00000000
00000000
00010000
00000000
00000000
00000100
00000000
00000000
00001000
00000000
00000010
00000000
,
00000001
00000000
00000000
00000100
00000000
00000000
00000100
00000000
00000000
00001000
00000000
00000000
00011000
00000000
00000000
00000000
,
00100000
00000000
00000000
00010000
00000000
00000000
00001000
00000000
00000000
00000100
00000000
00000000
00000010
00000000
00000001
00000000
,
00000100
00000000
00000000
00010000
00000000
00000000
01000000
00000000
00000000
10000000
00000000
00000000
01000000
00000000
00100000
00000000
,
00010000
00000100
00001000
00000000
00001000
00000100
00010000
00000000
,
00022000
00000000
00000000
00033000
,
01010000
00100000
00010000
00001000
00000000
00001000
00000010
00000000
,
00000002
00000000
00000103
00000020
00000000
00001030
00000200
00000000
,
00010300
00100000
00001000
00010000
,
00001000
00000100
00000010
00000001
00000010
00000100
00001000
00000000
,
00011000
01000000
00100000
10000000
00000000
10000000
01000000
00000000
,
00100000
00000000
00010000
00000200
00000000
00001300
00000020
00000000
,
00000130
00001000
00000100
00000001
,
00000010
00000000
00001000
00000000
00000000
00010000
00000000
00000000
01000000
00000000
00000000
00000000
10000000
00000000
02000000
00000000
,
00100000
00000000
00010000
00000000
00100000
00000000
00010000
03000000
,
00100000
00000000
00010000
00000000
00000000
00001000
00000000
00000000
00000010
00000000
00000000
00000000
00000100
00000000
00000002
00000000
,
00000010
00000100
00000010
00000100
,
00000013
00000000
00000100
00000000
00000000
00010000
00000000
00000000
00001000
00000000
00000000
00000000
00100000
00000000
00020000
00000000
,
01000000
00000000
10000000
00000000
01000000
00000000
10000000
00030000
,
00100000
00000000
01000000
00000000
00000000
00010000
00000000
00000000
00002000
00000000
00000000
00000000
00003100
00000000
00000010
00000000
,
00001001
00000110
00001100
00011000
,
00110000
00000000
00000000
00000000
00000000
00000000
00000000
00000000
00000000
00000000
00001000
00000000
00000000
00000000
00000000
00000000
00000000
00010000
00000000
00000000
00000000
00000000
00000000
00000000
00022000
00000000
00000000
00000000
00000000
00000000
00000000
00000000
00000000
00000000
00000000
00000000
00033000
00000000
00000000
00000000
00000000
00000000
00000000
00000000
00000000
00000000
00000000
00000000
,
00001000
00000000
00001000
00000000
00000010
00000001
00000010
00000000
00000100
00000000
00000100
00000000
00001000
00100000
00001000
00000000
,
00100000
00000000
01000000
00000000
00100000
10000000
00100000
00000000
01000000
00010000
01000000
00100000
00010000
00000100
00010000
00000000
,
00010000
00000000
00022000
00033000
00000100
00000000
00000220
00000330
,
00000001
00000000
00000100
00000000
00022000
00033000
02200000
03300000
,
10000000
00000000
01010000
00000000
10000000
01000000
00020000
00000000
,
00031000
00000100
00000001
00000100
00001000
00000010
00000001
00000010
,
00000100
00000000
00000000
00010000
00000000
00000000
00001000
00000000
00000000
00010000
00000000
00000000
00001000
00000000
00100000
00000000
,
00010000
00000000
00000000
01000000
00000000
00000000
00010000
00000000
00000000
01000000
00000000
00000000
20020000
00000000
30030000
00000000
,
10000000
00000000
00000000
01000000
00000000
00000000
00010000
00000000
00000000
00100000
00000000
00000000
00001000
00000000
00010000
00000000
,
00000100
00000000
00000000
00001000
00000000
00000000
00000010
00000000
00000000
00000001
00000000
00000000
00000110
00000000
00000000
00000000
,
00001001
00000000
00000000
00000010
00000000
00000000
00001000
00000000
00001100
00000000
00000000
00000000
00011000
00000000
00000000
00000000
,
00110000
00000000
00000000
01000000
00000000
00000000
00010000
00000000
00100000
00001000
00000000
00010000
00000100
00000000
00011000
00000000
,
00000100
00000000
00001000
00000100
00001000
00000000
00100000
00001000
00100000
00000000
01000000
00010000
01000000
00000000
00100000
10000000
,
02000000
00000000
00000000
03010000
,
00001000
00000100
00000001
00000100
00001000
00000100
00000001
00000100
,
00001000
00000010
00000100
00000010
00010000
00000010
00000100
00000010
,
00010000
00001000
00010000
01000000
00010000
00001000
00010000
01000000
,
10000000
01000000
00010000
01000000
10000000
00100000
00110000
00000000
,
10000000
01000000
00010000
01000000
10000000
01000000
00010000
00000100
,
00000010
00000100
00010000
00000100
00000010
00000100
00010000
00001000
,
01000000
00000000
01001000
00000000
00001000
00100000
01000000
00000000
,
10000000
00000000
00000000
00000000
00000000
00000000
00000000
00000000
00000000
00000000
00000000
11000000
00000000
00000000
00000000
00000000
00000000
00000000
00000000
00000000
00000000
00000000
00000000
00000000
00000000
01100000
00000000
00000000
00000000
00000000
00000000
00000000
00000000
00000000
00000000
00000000
00000000
00110000
00000000
00000000
00000000
00000000
00000000
00000000
00000000
00000000
00000000
00000000
00011000
00000000
00000000
00000000
00000000
00000000
00000000
00000000
00000000
00000000
00000000
00000000
00000000
00000000
00000000
00000000
,
00000011
00000000
00001100
00000000
00000001
00000100
00001000
00000000
,
00110000
00000000
11000000
00000000
10000000
01000000
00010000
00000000
,
00110000
00000000
00001100
00000000
00001000
00000100
00000001
00000000
,
00000010
00000010
00000010
00000001
00000100
00001000
00000100
00000001
,
00001100
00000000
00001100
00000000
00011000
00001000
00010000
00000000
,
01100000
00000000
01100000
00000000
10010000
00010000
10000000
00000000
,
01100000
00000000
00110000
00000000
00010000
00000100
00001000
00000000
,
00000100
00000100
00000100
00010000
00001000
00100000
01000000
10000000
,
20020000
00000000
00000000
30030000
;

//---------------dance-single - ----------------
#NOTES:
     dance-single:
     :
     Hard:
     12:
     0.680,0.858,0.478,0.328,0.190:
0000
0000
0000
0000
,
0000
0000
0000
0000
,
0000
0000
0000
0000
,
0000
0000
0000
0000
,
0000
0000
0000
0000
,
0000
0000
0000
0000
,
1001
0000
1001
0000
1000
0100
0001
0000
,
1001
0000
1001
0000
1000
0100
0001
0000
,
1001
0000
1001
0000
0001
0010
1000
0000
,
1000
0001
1000
0001
0100
1000
0010
0001
,
0200
0010
0010
0010
,
0010
0010
0310
1001
,
0120
0100
0100
0100
,
0100
0100
0130
1001
,
0200
0300
0200
0300
0200
0300
0200
0300
,
1002
0003
0020
0030
0020
0030
0020
0030
,
0001
0000
1000
0000
0001
0000
1000
0001
0000
1000
0001
0000
1000
0000
0001
1000
,
0001
0010
1000
0100
,
0010
1000
0010
0100
0010
1000
0010
0100
,
0010
0001
0100
0001
0010
0001
0100
0001
,
0010
1000
0100
1000
0010
1000
0100
0001
,
1000
0010
0001
0010
1000
0010
0001
0100
,
1000
0100
0001
0100
1000
0010
0001
0010
,
1000
0010
1000
0001
0100
1000
0100
0001
,
0010
0000
0110
0000
0001
0100
1000
0000
,
0010
0100
0001
1000
0100
0010
0001
1000
,
0100
0000
0000
0010
0000
0000
0100
0000
0000
0010
0000
0000
1000
0000
0001
0100
,
0001
0000
0000
0100
0000
0000
1000
0000
0000
0010
0000
0000
0001
0000
1000
0000
,
0100
0001
0100
0001
1000
0010
1000
0010
,
0100
0001
0100
0010
1000
0100
1000
0100
,
0010
0000
0000
0001
0000
0000
1000
0000
0000
0100
0000
0000
0010
0000
0001
0000
,
0100
0000
0000
0001
0000
0000
0100
0000
0000
1000
0000
0000
0100
0000
0010
0000
,
0001
0100
1000
0000
1000
0100
0001
0000
,
2002
0000
0000
3003
,
0101
1000
0001
0100
0000
0100
1000
0000
,
0002
0000
0013
2000
0000
3100
0020
0000
,
0031
1000
0100
0001
,
0100
0010
1000
0001
1000
0010
0100
0000
,
0101
0010
1000
0100
0000
0100
0010
0000
,
1000
0000
0001
0020
0000
0130
2000
0000
,
3010
0100
0010
0001
,
1000
0000
0100
0000
0000
0001
0000
0000
0010
0000
0000
0000
0100
0000
0020
0000
,
1000
0000
0001
0000
1000
0000
0001
0030
,
1000
0000
0001
0000
0000
0100
0000
0000
1000
0000
0000
0000
0010
0000
0002
0000
,
1000
0010
1000
0010
,
1003
0000
0010
0000
0000
0001
0000
0000
0100
0000
0000
0000
1000
0000
0002
0000
,
0010
0000
0100
0000
0010
0000
0100
0003
,
1000
0000
0010
0000
0000
0001
0000
0000
0200
0000
0000
0000
0310
0000
1000
0000
,
0101
1010
0110
0101
,
1001
0000
0000
0000
0000
0000
0000
0000
0000
0000
0100
0000
0000
0000
0000
0000
0000
0001
0000
0000
0000
0000
0000
0000
2002
0000
0000
0000
0000
0000
0000
0000
0000
0000
0000
0000
3003
0000
0000
0000
0000
0000
0000
0000
0000
0000
0000
0000
,
1000
0000
1000
0000
0010
0001
0010
0000
0100
0000
0100
0000
1000
0010
1000
0000
,
0010
0000
0100
0000
0010
1000
0010
0000
0100
0001
0100
0010
0001
1000
0110
0000
,
0001
0000
0202
0303
1000
0000
2020
3030
,
0001
0000
1000
0000
0202
0303
2020
3030
,
0100
0000
0011
0000
0100
0010
0002
0000
,
0103
1000
0001
1000
0100
0010
0001
0010
,
1000
0000
0000
0001
0000
0000
0100
0000
0000
0001
0000
0000
0100
0000
1000
0000
,
0001
0000
0000
0010
0000
0000
0001
0000
0000
0010
0000
0000
0202
0000
0303
0000
,
0100
0000
0000
0010
0000
0000
0001
0000
0000
1000
0000
0000
0100
0000
0001
0000
,
1000
0000
0000
0100
0000
0000
0010
0000
0000
0001
0000
0000
1010
0000
0000
0000
,
0101
0000
0000
0010
0000
0000
0100
0000
1100
0000
0000
0000
0101
0000
0000
0000
,
1001
0000
0000
0010
0000
0000
0001
0000
1000
0100
0000
0001
1000
0000
0101
0000
,
1000
0000
0100
1000
0100
0000
0010
0100
0010
0000
0001
1000
0001
0000
0010
0100
,
0002
0000
0000
1003
,
0100
1000
0001
1000
0100
1000
0001
1000
,
0100
0010
1000
0010
1000
0010
1000
0010
,
1000
0100
1000
0001
1000
0100
1000
0001
,
0100
0001
1000
0001
0100
0010
1010
0000
,
0100
0001
1000
0001
0100
0001
1000
0010
,
0100
0010
1000
0010
0100
0010
1000
0100
,
0001
0000
0101
0000
0100
0010
0001
0000
,
0100
0000
0000
0000
0000
0000
0000
0000
0000
0000
0000
0101
0000
0000
0000
0000
0000
0000
0000
0000
0000
0000
0000
0000
0000
0011
0000
0000
0000
0000
0000
0000
0000
0000
0000
0000
0000
1010
0000
0000
0000
0000
0000
0000
0000
0000
0000
0000
1100
0000
0000
0000
0000
0000
0000
0000
0000
0000
0000
0000
0000
0000
0000
0000
,
0101
0000
0110
0000
0001
0010
0100
0000
,
1010
0000
0101
0000
0100
0001
1000
0000
,
1010
0000
0110
0000
0100
0010
0001
0000
,
0100
0100
0100
0001
0010
0100
0010
0001
,
0110
0000
0110
0000
1100
0100
1000
0000
,
0011
0000
0011
0000
1100
1000
0100
0000
,
0011
0000
1010
0000
1000
0010
0100
0000
,
0010
0010
0010
1000
0100
0010
0001
0100
,
2002
0000
0000
3003
;

//---------------dance-single - Copied from----------------
#NOTES:
     dance-single:
     Copied from:
     Medium:
     10:
     0.468,0.572,0.204,0.212,0.124:
0000
0000
0000
0000
,
0000
0000
0000
0000
,
0000
0000
0000
0000
,
0000
0000
0000
0000
,
0000
0000
0000
0000
,
0000
0000
0000
0000
,
0010
0000
0010
0000
0010
0100
0010
0000
,
1000
0000
1000
0000
1000
0001
1000
0000
,
0001
0000
0001
0000
0001
1000
0001
0000
,
0100
0000
0100
0000
0001
0100
0001
0000
,
1000
0001
1000
0001
,
1000
0001
1000
0020
,
1030
0001
1000
0001
,
1000
0001
1000
0200
,
0310
0010
0010
0010
,
0100
0100
0100
0100
,
0001
0000
1000
0000
0001
0000
1000
0000
0000
0001
0000
0000
2000
0000
0000
0000
,
3020
0000
0100
0130
,
1000
0001
0001
0100
,
0001
0010
1000
0001
,
0100
0000
0010
0100
0010
0100
0010
0000
,
0010
0000
1000
0000
0010
0100
0000
0100
,
0001
0100
0010
0100
,
0001
0001
0100
0100
,
1000
0000
1000
0000
0010
0100
0010
0000
,
1000
0100
0010
0001
,
0001
0000
0000
0001
0000
0000
0001
0000
0000
0000
0000
0000
1000
0000
0000
0000
,
0010
0000
0000
0010
0000
0000
0010
0000
0000
0000
0000
0000
0010
0000
0000
0000
,
0100
0000
0000
0100
0000
0000
0100
0000
0000
0000
0000
0000
0001
0000
0000
0000
,
0100
0010
1000
0010
,
0100
0000
0000
0010
0000
0000
0001
0000
0000
0000
0000
0000
1001
0000
0000
0000
,
0010
0000
0000
0100
0000
0000
1000
0000
0000
0000
0000
0000
1001
0000
0000
0000
,
0100
0100
0100
1001
,
2002
0000
0000
3003
,
0010
0000
1000
0100
0000
0010
0001
0000
,
0100
0000
0010
0001
0000
0010
1000
0000
,
0010
0100
1000
0001
,
0100
0100
0100
0000
1000
0000
1001
0000
,
1000
0000
0010
0001
0000
0010
1000
0000
,
1000
0000
0100
0001
0000
0100
1000
0000
,
1000
0001
0100
1000
,
0000
0000
0001
0000
0000
0010
0000
0000
1000
0000
0000
0000
0000
0000
2000
0000
,
0010
0001
0001
3010
,
0000
0000
0100
0000
0000
1000
0000
0000
0001
0000
0000
0000
0000
0000
0020
0000
,
0100
1000
0100
1030
,
0000
0000
1000
0000
0000
0001
0000
0000
0100
0000
0000
0000
0000
0000
0200
0000
,
0010
0010
0010
0310
,
0000
0000
0100
0000
0000
0010
0000
0000
1000
0000
0000
0000
0000
0000
0010
0000
,
0100
1000
0001
0010
,
0001
0100
2002
3003
,
1000
0100
0001
0000
1000
0100
0001
0000
,
0001
0100
1000
0000
0001
0100
1000
0000
,
0000
0000
2000
3000
0000
0000
0002
0003
,
0000
0000
0000
0000
0020
0030
0200
0300
,
0000
0000
1001
0000
0000
0000
2002
3003
,
0200
0000
0000
0300
,
0001
1001
0010
0110
,
1000
0000
1001
0000
0100
0000
0220
0330
,
0001
1001
0110
0010
,
1000
0000
1001
0000
0110
0000
0020
0030
,
0100
0000
0000
0000
0110
0000
0010
0010
,
0010
0000
0000
0000
0000
0000
0000
0000
0010
0100
0000
0100
0010
0000
0000
0000
,
1000
0001
1000
0001
1000
0001
1000
0000
,
0020
0000
0000
0031
,
1000
0000
0000
0001
0000
0000
0100
0000
0000
1000
0000
0000
0001
0000
0000
0000
,
0010
0000
0000
0001
0000
0000
0010
0000
0000
1000
0000
0000
0001
0000
0000
0000
,
0010
0000
0000
0100
0000
0000
1000
0000
0000
0001
0000
0000
0100
0000
0000
0000
,
0001
0000
0000
0100
0000
0000
1000
0000
0000
0001
0000
0000
1000
0000
0000
0000
,
0100
0000
0000
0010
0000
0000
0100
0000
0000
1000
0000
0000
0010
0000
0000
0000
,
0001
0000
0000
1000
0000
0000
0100
0000
0000
0010
0000
0000
0001
0000
0000
0000
,
0010
0000
0000
0001
0000
0000
0100
0000
0000
0010
0000
0000
0100
0000
0000
0000
,
0001
0000
0000
0100
0000
0000
1000
0000
0000
0010
0000
0000
1001
0000
0000
0000
,
0001
0000
0100
0000
0010
0100
0010
0000
,
0010
0000
0010
0000
0100
0001
1000
0000
,
0100
0000
0100
0000
0100
0010
0100
0000
,
0010
1000
0100
0000
1000
0010
0100
0000
,
1001
0000
0001
0000
0010
1000
0010
0000
,
0110
0000
1000
0000
1000
0001
1000
0000
,
1010
0000
0100
0000
0101
0010
0100
0000
,
0010
1000
0010
1000
0010
1000
0010
0000
,
2002
0000
0000
3003
;

//---------------dance-double - ----------------
#NOTES:
     dance-double:
     :
     Medium:
     10:
     0.520,0.608,0.354,0.257,0.119:
00000000
00000000
00000000
00000000
,
00000000
00000000
00000000
00000000
,
00000000
00000000
00000000
00000000
,
00000000
00000000
00000000
00000000
,
00000000
00000000
00000000
00000000
,
00000000
00000000
00000000
00000000
,
10000000
00000000
10000000
00000000
10000000
01000000
00010000
00000000
,
00100000
00000000
00100000
00000000
00100000
00001000
00010000
00000000
,
00001000
00000000
00001000
00000000
00001000
00000010
00000100
00000000
,
00000001
00000000
00000001
00000000
00000001
00000100
00001000
00000100
,
00000001
00000001
00000001
00000001
,
00000001
00000000
00000001
00000000
00000001
00000000
00002200
00003300
,
00010000
00010000
00010000
00010000
,
00010000
00000000
00010000
00000000
00010000
00000000
22000000
33000000
,
00100000
00100000
00011000
00011000
,
00000100
00000100
00011000
00011000
,
00100000
00001000
00100000
00001000
00010000
00000100
00010000
00000100
,
00002000
00000000
00010000
00013000
,
00000200
00001000
00001000
00001300
,
00001000
00001000
00001000
00001000
,
00010000
00001000
00010000
00000000
00001000
00010000
00001000
00000000
,
00100000
00000000
00100000
00000000
00100000
00010000
00100000
00010000
,
00100000
01000000
00100000
01000000
,
00010000
10000000
00010000
10000000
,
10000000
00000000
10000000
00000000
10000000
01000000
00010000
00000000
,
00100000
00001000
00010000
00000000
00001000
00000010
00000100
00000010
,
00001000
00001100
00001000
00001100
,
00010000
00011000
00010000
00011000
,
00100000
00110000
00100000
00110000
,
00001000
00010000
01000000
00000000
01000000
00010000
00001000
00000000
,
00000010
00000000
00000101
00000000
00000010
00000100
00001000
00000000
,
00000100
00000000
00011000
00000000
00001000
00100000
00010000
00000000
,
01000000
00100000
01000000
00000000
00100000
01000000
00100000
00000000
,
20020000
00000000
00000000
30030000
,
10000000
00100000
10000000
00100000
00000000
00100000
00010000
00000000
,
00010000
00000000
00010000
00001000
00000000
00001000
00000100
00000000
,
00000010
00000001
00000100
00001000
,
00000100
00000001
00000010
00001000
,
00000100
00010000
00000100
00010000
00000000
00001000
00100000
00000000
,
00010000
00000000
10000000
00010000
00000000
00010000
10000000
00000000
,
00100000
00010000
01000000
10000000
,
00100000
00000000
00000000
00010000
00000000
00000000
00001000
00000000
00000000
00000100
00000000
00000000
00000010
00000000
00000001
00000000
,
00000200
00000000
00000000
00000300
,
00000100
00000000
00000000
00001000
00000000
00000000
00010000
00000000
00000000
00100000
00000000
00000000
01000000
00000000
10000000
00000000
,
00200000
00000000
00000000
00300000
,
00010000
00000000
00000000
01000000
00000000
00000000
10000000
00000000
00000000
00100000
00000000
00000000
00010000
00000000
00000100
00000000
,
00002000
00000000
00000000
00003000
,
00001000
00000000
00000000
00000010
00000000
00000000
00000001
00000000
00000000
00000100
00000000
00000000
00001000
00000000
00010000
00000000
,
00000200
00000000
00000000
00000300
,
00011000
00000000
00010000
00010000
00022000
00000000
00033000
00000000
,
00200000
00000000
00310000
00001000
00000200
00000000
00001300
00010000
,
00200000
00000000
00310000
00001000
00000100
00000100
00001000
00010000
,
00100000
00000000
00002000
00003000
00000000
00000000
00002000
00003000
,
00000000
00000000
00000000
00000000
00020000
00030000
00002000
00003000
,
00000000
00000000
00000000
00020000
,
00031000
00000100
00000010
00000000
00000010
00001000
00000100
00000000
,
00010000
00010000
00010000
00010000
,
00010000
00000000
00010000
00000000
00010000
00000000
00022000
00033000
,
01000000
01000000
01000000
01000000
,
01000000
00000000
01000000
00000000
01000000
00000000
02200000
03300000
,
10000000
00000000
00000000
01000000
00000000
00000000
00010000
00000000
00011000
00000000
00000000
00000000
00011000
00000000
00000000
00000000
,
00010000
00000000
00000000
01000000
00000000
00000000
10000000
00000000
01100000
00000000
00000000
01100000
00000000
00000000
01000000
00000000
,
00010000
00100000
00010000
00000000
00001000
00000100
00001000
00000000
,
00020000
00000000
00001000
00001000
00000000
00001000
00031000
00000000
,
00100000
00000000
00000000
00010000
00000000
00000000
00001000
00000000
00000000
00000100
00000000
00000000
00001000
00000000
00000000
00000000
,
00010000
00000000
00000000
00100000
00000000
00000000
10000000
00000000
00000000
00100000
00000000
00000000
00010000
00000000
00000000
00000000
,
00001000
00000000
00000000
00000100
00000000
00000000
00000001
00000000
00000000
00000100
00000000
00000000
00001000
00000000
00000000
00000000
,
00010000
00000000
00000000
00001000
00000000
00000000
00100000
00000000
00000000
00010000
00000000
00000000
01100000
00000000
00000000
00000000
,
01000000
00000000
00000000
00010000
00000000
00000000
00001000
00000000
00000000
00000100
00000000
00000000
00001000
00000000
00000000
00000000
,
00010000
00000000
00000000
00000100
00000000
00000000
00000001
00000000
00000000
00000100
00000000
00000000
00001000
00000000
00000000
00000000
,
00010000
00000000
00000000
00100000
00000000
00000000
10000000
00000000
00000000
00100000
00000000
00000000
00010000
00000000
00000000
00000000
,
00001000
00000000
00000000
00010000
00000000
00000000
00000100
00000000
00000000
00001000
00000000
00000000
00000110
00000000
00000000
00000000
,
00001100
00000000
00001100
00000000
00010000
00100000
01000000
00000000
,
01100000
00000000
01100000
00000000
00100000
00010000
00001000
00000000
,
00001010
00000000
00001010
00000000
00000001
00000010
00000100
00000000
,
00001000
00010000
00001000
00000000
00010000
00001000
00010000
00000000
,
00011000
00000000
00101000
00000000
01000000
00100000
00010000
00000000
,
00011000
00000000
00010100
00000000
00001000
00000100
00000001
00000000
,
00001010
00010100
00101000
01100000
,
10000000
01000000
00100000
00000000
00001000
00000100
00000010
00000000
,
00022000
00000000
00000000
00033000
;

//---------------dance-single - Copied from----------------
#NOTES:
     dance-single:
     Copied from:
     Challenge:
     14:
     0.733,0.786,0.354,0.416,0.509:
0000
0000
0000
0000
,
0000
0000
0000
0000
,
0000
0000
0000
0000
,
0000
0000
0000
0000
,
0000
0000
0000
0000
,
0000
0000
0000
0000
,
1001
0000
0110
0000
0001
0100
0101
0000
,
1001
0000
0110
0000
1000
0100
1100
0000
,
1001
0000
1001
0000
0001
0010
0011
0000
,
1000
1000
1000
0100
0001
0001
0001
0100
,
2000
3000
0020
0030
0002
0003
0020
0030
,
2000
3000
0200
0300
0020
0030
MMMM
0000
,
0200
0300
0020
0030
0002
0003
0200
0300
,
2000
3000
0200
0300
0002
0003
MMMM
0000
,
0210
0300
0200
0300
0200
0300
0200
0300
,
1002
0003
0020
0030
0020
0030
0020
0030
,
0001
0000
1000
0001
1000
0000
0001
1000
0000
0001
1000
0010
1000
0001
1000
0010
,
2000
0000
3010
0020
0100
0030
0110
0000
,
1000
0100
1000
0010
1000
0100
1000
0010
,
1000
0001
0010
0001
1000
0001
0010
0001
,
1000
0100
1000
0100
0010
0001
0010
0001
,
0100
MMMM
0100
MMMM
0100
0100
0100
0000
,
0100
0010
0001
0010
0100
1000
0001
1000
,
0100
1000
0100
0001
0010
0100
0010
0001
,
1000
0000
0000
0000
1010
0000
0100
0001
0100
0000
0010
0000
0100
0000
0000
0000
,
1000
0010
0001
0100
0010
1000
0101
0100
,
0010
0000
0000
1000
0000
0000
0010
0000
0000
1000
0000
0000
0100
0000
0001
0010
,
0001
0000
0000
0010
0000
0000
0100
0000
0000
1000
0000
0000
0001
0000
0000
0000
,
0010
1000
0010
1000
0010
0100
0010
0100
,
0010
MMMM
0010
MMMM
0010
0010
0010
0000
,
1000
0000
0000
0001
0000
0000
0100
0000
0000
0010
0000
0000
1000
0000
0001
0000
,
0010
0000
0000
0001
0000
0000
0010
0000
0000
0100
0000
0000
0010
0000
1000
0000
,
0001
1000
0001
0000
0100
0010
0100
0000
1000
0001
1000
0000
0010
0100
0010
0000
,
1000
0000
0100
0000
0010
0000
0001
0000
0000
1001
0000
0001
1000
0000
0000
0000
,
0011
0100
0001
0010
0000
0010
1100
0000
,
0002
0000
1003
0200
0000
0310
2000
0000
,
3001
0010
0100
1000
0010
0100
0001
0100
,
0010
1000
0100
0001
0100
0000
MMMM
0000
,
0011
1000
0100
0010
0000
0010
1010
0000
,
0100
0000
1001
0200
0000
0310
0002
0000
,
1003
1001
1010
MMMM
,
0100
0000
0010
0000
0000
0001
0000
0000
1000
0000
0000
0000
0010
0000
2000
0000
,
0100
0000
0001
0000
0100
0000
0001
3000
,
0100
0000
0001
0000
0000
0010
0000
0000
0100
0000
0000
MMMM
0000
0000
0002
0000
,
0100
1000
0100
1000
,
0103
0000
1000
0000
0000
0001
0000
0000
0010
0000
0000
MMMM
0000
0000
0002
0000
,
1000
0000
0010
0000
1000
0000
0010
0003
,
0100
0000
1000
0000
0000
0001
0000
0000
0020
0000
0000
0000
1030
0000
0100
0000
,
0010
0001
0000
0000
0001
0100
0000
0000
0100
1000
0000
0000
1000
0010
0000
0000
,
0101
0000
0000
0000
0000
0000
0000
0000
0000
0000
0010
0000
0000
0000
0000
0000
0000
0001
0000
0000
0000
0000
0000
0000
0202
0000
0000
0000
0000
0000
0000
0000
0000
0000
0000
0000
0303
0000
0000
0000
0000
0000
0000
0000
0000
0000
0000
0000
,
MMMM
0000
MMMM
0000
1000
0001
1000
0000
MMMM
0000
MMMM
0000
0100
1000
0100
0000
,
MMMM
0000
MMMM
0000
1000
0100
1000
0000
0010
0001
0010
1000
0001
0100
1010
0000
,
0001
0000
0022
0033
0100
0010
2200
3300
,
MMMM
0000
MMMM
0000
2002
3003
0220
0330
,
0010
0000
1001
0000
0010
1000
0002
0000
,
0013
0100
0001
0100
0010
1000
0001
1000
,
0100
0000
0000
0001
0000
0000
0010
0000
0000
0001
0000
0000
0010
0000
0100
0000
,
0001
0000
0000
1000
0000
0000
0001
0000
0000
1000
0000
0000
MMMM
0000
0000
0000
,
0010
0000
0000
1000
0000
0000
0001
0000
0000
0100
0000
0000
0010
0100
0010
0100
,
0010
0000
0000
0100
0000
0000
1000
0000
0000
0001
0000
0000
MMMM
0000
0000
0000
,
0011
0000
0000
1000
0000
0000
0010
0000
0110
0000
0000
0000
MMMM
0000
0000
0000
,
0101
0000
0000
1000
0000
0000
0001
0000
0100
0010
0000
0001
0100
0000
0010
0100
,
0010
0000
0010
0100
0010
0000
1000
0010
1000
0000
0001
0100
0001
0000
1000
0010
,
0002
0000
0100
0100
0000
0103
0110
0010
,
0100
0000
0010
0100
0000
0010
0100
0000
0010
0100
0000
0000
0001
0000
0100
0000
,
0010
0000
1000
0100
0000
1000
0100
0000
1000
0100
0000
0000
1000
0010
0100
0010
,
1000
0000
0100
0010
0000
0100
0010
0000
0100
0010
0000
0000
0010
1000
0001
1000
,
0010
0000
0001
0100
0000
0001
0100
0000
0010
1000
0000
0000
1100
0000
0000
0000
,
0010
0000
1000
0010
0000
1000
0010
0000
1000
0010
0000
0000
0001
0000
0010
0000
,
1000
0000
0100
0010
0000
0100
0010
0000
0100
0010
0000
0000
0100
1000
0010
1000
,
0010
0000
1000
0100
0000
1000
0100
0000
1000
0100
0000
0000
0100
0010
0001
0010
,
0100
0000
0001
1000
0000
0001
1000
0000
0100
0010
0000
0000
1010
0000
0000
0000
,
0010
0000
1000
0010
0000
1000
0010
0000
1000
0010
0000
0000
MMMM
0000
0000
0000
,
1000
0000
0100
0010
0000
0100
0010
0000
0100
0010
0000
0000
MMMM
0000
0000
0000
,
0100
0000
0010
1000
0000
0010
1000
0000
0010
1000
0000
0000
MMMM
0000
0000
0000
,
0010
0000
0001
0010
0000
0001
0010
0000
0100
0010
0000
0000
1010
0000
0000
0000
,
0100
0000
0010
0100
0000
0010
0100
0000
0010
0100
0000
0000
MMMM
0000
0000
0000
,
0010
0000
1000
0100
0000
1000
0100
0000
1000
0100
0000
0000
1000
0010
0100
0010
,
0100
0000
0010
1000
0000
0010
1000
0000
0010
1000
0000
0000
1000
0100
1000
0000
,
0100
0000
MMMM
0000
1000
1100
0100
0110
,
2002
0000
0000
3003
;

//---------------dance-double - Copied from----------------
#NOTES:
     dance-double:
     Copied from:
     Challenge:
     14:
     0.750,0.965,0.823,0.425,0.319: // measure 1
00000000
00000000
00000000
00000000
,  // measure 2
00000000
00000000
00000000
00000000
,  // measure 3
00000000
00000000
00000000
00000000
,  // measure 4
00000000
00000000
00000000
00000000
,  // measure 5
00000000
00000000
00000000
00000000
,  // measure 6
00000000
00000000
00000000
00000000
,  // measure 7
00011000
00000000
00001100
00000000
00000001
00000010
00001000
00000000
,  // measure 8
00101000
00000000
01100000
00000000
00010000
00100000
10000000
00000000
,  // measure 9
10100000
00000000
00110000
00000000
00001000
00000010
00001000
00000000
,  // measure 10
00010000
00001000
00010000
00001000
00100000
00010000
01000000
10000000
,  // measure 11
0020MMMM
0100MMMM
0100MMMM
0100MMMM
,  // measure 12
0100MMMM
0100MMMM
0130MMMM
00011000
,  // measure 13
MMMM0210
MMMM0010
MMMM0010
MMMM0010
,  // measure 14
MMMM0010
MMMM0010
MMMM0310
00011000
,  // measure 15
0200MMMM
03000000
0200MMMM
03000000
0200MMMM
03000000
0200MMMM
03000000
,  // measure 16
00012000
00003000
MMMM0020
00000030
MMMM0020
00000030
MMMM0020
00000030
,  // measure 17
00001000
00000000
00010000
00000100
00010000
00000000
00001000
00010000
00000000
00001000
00100000
00000000
00010000
00100000
00010000
00100000
,  // measure 18
00020000
00000000
00001000
00031000
0001MMMM
00000000
MMMM1100
00000000
,  // measure 19
00010200
00010000
00010000
00010000
,  // measure 20
00010000
00010000
00010000
00010300
,  // measure 21
00000110
00000000
00000001
00000010
00001000
00000010
00001000
00000100
,  // measure 22
0001MMMM
00000000
00001000
00000000
01000000
01000000
01000000
MMMM1000
,  // measure 23
00020000
00001000
00001000
00001000
,  // measure 24
00032000
01000000
01000000
01003000
,  // measure 25
01010000
00000000
00101000
00000000
00001010
00000010
00000010
00000000
,  // measure 26
00000011
00000010
00001010
00000000
00010100
00001000
00110000
00000000
,  // measure 27
00100000
00000000
00000000
01000000
00000000
00000000
10100000
00000000
00000000
01000000
00000000
00000000
00010000
00000000
10000000
00100000
,  // measure 28
10000000
00000000
00000000
00100000
00000000
00000000
01010000
00000000
00000000
00001000
00000000
00000000
00011000
00000000
00000000
00000000
,  // measure 29
00010000
00000100
00001000
00000010
00000100
00000001
00000010
00000100
,  // measure 30
MMMM1000
00000000
00011000
00000000
0011MMMM
00010000
00010000
00000000
,  // measure 31
00001000
00000000
00000000
00001000
00000000
00000000
00011000
00000000
00000000
00100000
00000000
00000000
01000000
00000000
00100000
00000000
,  // measure 32
00010000
00000000
00000000
00001000
00000000
00000000
00000010
00000000
00000000
00000100
00000000
00000000
00000010
00000000
00001000
00000000
,  // measure 33
00000100
00010000
00000100
00010000
00001000
00010000
00001000
00010000
00000010
00010000
00000010
00010000
00001000
00010000
00001000
00000000
,  // measure 34
00021000
00000000
00001000
00000000
00001000
00000000
00031000
00000000
00000000
00101000
00000000
00010000
00000200
00000000
00000000
00000000
,  // measure 35
00001300
00000100
00001000
00010000
00000000
00010000
01000000
00000000
,  // measure 36
20000000
00000000
30100000
02000000
00000000
03010000
00200000
00000000
,  // measure 37
00301000
00010000
00000100
00000010
00000100
00000010
00001000
00000010
,  // measure 38
00001000
00010000
00001000
01000000
00100000
01000000
00010000
00000000
,  // measure 39
00100000
00010000
00000100
00010000
00000000
00001000
00011000
00000000
,  // measure 40
00001100
00000000
00001000
00200000
00000000
00310000
02000000
00000000
,  // measure 41
03100000
10000000
00010000
10000000
00100000
00010000
00100000
00001000
,  // measure 42
00010000
00000000
00001000
00000000
00000000
00000110
00000000
00000000
00001010
00000000
00000000
00000000
00000001
00000000
00000020
00000000
,  // measure 43
00000100
00000000
00001000
00000000
00000100
00000000
00001000
00000030
,  // measure 44
00000100
00000000
00010000
00000000
00000000
00001000
00000000
00000000
01000000
00000000
00000000
00000000
00100000
00000000
00200000
00000000
,  // measure 45
01000000
10000000
01000000
10000000
,  // measure 46
01300000
00000000
00100000
00000000
00000000
01000000
00000000
00000000
00001000
00000000
00000000
00000000
00010000
00000000
00002000
00000000
,  // measure 47
MMMM0100
00000000
00010000
00000000
MMMM0100
00000000
00010000
00003000
,  // measure 48
00000100
00000000
00000010
00000000
00000000
00001000
00000000
00000000
00000200
00000000
00000000
00000000
00010300
00000000
00001000
00000000
,  // measure 49
00010000
00110000
00011000
00001100
,  // measure 50
00011000
00000000
00000000
00000000
00000000
00000000
00000000
00000000
00000000
00000000
00010000
00000000
00000000
00000000
00000000
00000000
00000000
00001000
00000000
00000000
00000000
00000000
00000000
00000000
00022000
00000000
00000000
00000000
00000000
00000000
00000000
00000000
00000000
00000000
00000000
00000000
00033000
00000000
00000000
00000000
00000000
00000000
00000000
00000000
00000000
00000000
00000000
00000000
,  // measure 51
20010000
00100000
00010000
30020000
02030000
00100000
00010000
03002000
,  // measure 52
00023000
00000100
00000010
00032000
00100000
01000000
00103000
01010000
,  // measure 53
00011000
00000000
0022MMMM
00330000
00011000
00000000
MMMM2200
00003300
,  // measure 54
00011000
00000000
0101MMMM
00000000
00022000
00033000
MMMM2200
00003300
,  // measure 55
00000001
00000000
00001010
00000000
00000001
00000010
00000100
00000000
,  // measure 56
00010000
00001000
00100000
00001000
00010000
01000000
10000000
01000000
,  // measure 57
00100000
00000000
00000000
00001000
00000000
00000000
00010000
00000000
00000000
00001000
00000000
00000000
00010000
00000000
00000100
00000000
,  // measure 58
00001000
00000000
00000000
00000010
00000000
00000000
00001000
00000000
00000000
00000010
00000000
00000000
00002002
00000000
00003003
00000000
,  // measure 59
00000001
00000000
00000000
00000010
00000000
00000000
00001000
00000000
00000000
00000100
00000000
00000000
00010000
00001000
00010000
00001000
,  // measure 60
00010000
00000000
00000000
00001000
00000000
00000000
00000010
00000000
00000000
00000001
00000000
00000000
00000110
00000000
00000000
00000000
,  // measure 61
00001001
00000000
00000000
00000010
00000000
00000000
00001000
00000000
00001100
00000000
00000000
00000000
00011000
00000000
00110000
00000000
,  // measure 62
01100000
00000000
00000000
01000000
00000000
00000000
00010000
00000000
00100000
00001000
00000000
00010000
00000100
00000000
00010000
00001000
,  // measure 63
00000100
00000000
00010000
00100000
00010000
00000000
00000100
00010000
00000100
00000000
00000010
00001000
00000010
00000000
00000100
00000001
,  // measure 64
00000020
00000000
00010000
00010000
00000000
00010000
00010030
00011000
,  // measure 65
00010100
00000000
00000000
00001100
00000000
00000000
00000110
00000000
00000000
00001010
00000000
00000000
00011000
00000000
00010000
00000000
,  // measure 66
00110000
00000000
00000000
01100000
00000000
00000000
11000000
00000000
00000000
01100000
00000000
00000000
10000000
01000000
00100000
00010000
,  // measure 67
00100000
00000000
00000000
00101000
00000000
00000000
00010010
00000000
00000000
00001100
00000000
00000000
00000100
00010000
00001000
00100000
,  // measure 68
00010000
00000000
00000000
10010000
00000000
00000000
11000000
00000000
00000000
01100000
00000000
00000000
20020000
00000000
30030000
00000000
,  // measure 69
00101000
00000000
00000000
00010100
00000000
00000000
00101000
00000000
00000000
00010100
00000000
00000000
00001000
00000000
00010000
00000000
,  // measure 70
0100MMMM
00000000
00000000
00010000
00000000
00000000
00001000
00000000
00000000
01000000
00000000
00000000
00010000
10000000
00010000
10000000
,  // measure 71
00010000
00000000
00000000
11000000
00000000
00000000
01100000
00000000
00000000
00110000
00000000
00000000
00010000
00100000
00010000
00100000
,  // measure 72
00010000
00000000
00000000
00110000
00000000
00000000
00011000
00000000
00000000
00000010
00000000
00000000
00001001
00000000
00000000
00000000
,  // measure 73
MMMM1100
00000000
0011MMMM
00000000
00001000
00010000
00000100
00000000
,  // measure 74
00011000
00000000
0101MMMM
00000000
00010000
01000000
00100000
00000000
,  // measure 75
0101MMMM
00000000
MMMM1100
00000000
00000100
00001000
00000010
00000000
,  // measure 76
00000001
00000010
00001000
00000100
00010000
00001000
00100000
00010000
,  // measure 77
01000000
10000000
11000000
00000000
01000000
00010000
01010000
00000000
,  // measure 78
00100000
00001000
00011000
00000000
00010000
00000100
00001100
00000000
,  // measure 79
00000001
00000010
00000100
00001000
00000100
00010000
00001000
00100000
,  // measure 80
00010000
10000000
01000000
00100000
00001000
00010000
00000100
00000010
,  // measure 81
00002002
00000000
00000000
00003003
;
