#TITLE:Ruti'n;
#SUBTITLE:(GOTH Wild Electro Remix);
#ARTIST:BEXTER remixed by GOTH;
#TITLETRANSLIT:;
#SUBTITLETRANSLIT:;
#ARTISTTRANSLIT:;
#GENRE:;
#CREDIT:;
#BANNER:RUTI'N (GOTH Wild Electro Remix).png;
#BACKGROUND:RUTI'N (GOTH Wild Electro Remix)-bg.png;
#LYRICSPATH:;
#CDTITLE:;
#MUSIC:Ruti'n (GOTH Wild Electro Remix).ogg;
#OFFSET:-0.060000;
#SAMPLESTART:10.774286;
#SAMPLELENGTH:17.142857;
#SELECTABLE:YES;
#BPMS:0.000000=112.000000
;
#STOPS:
;
#BGCHANGES:0.000=Ruti'n (GOTH Wild Electro Remix).avi=1.000=0=0=0=StretchNoLoop====,
99999=-nosongbg-=1.000=0=0=0 // don't automatically add -songbackground-
;
#KEYSOUNDS:;
#ATTACKS:;

//---------------dance-single - ----------------
#NOTES:
     dance-single:
     :
     Hard:
     13:
     0.588827,0.732762,0.441014,0.033924,0.725129,486.000000,434.000000,52.000000,4.000000,0.000000,0.000000,0.588827,0.732762,0.441014,0.033924,0.725129,486.000000,434.000000,52.000000,4.000000,0.000000,0.000000:
// measure 0
0000
0000
0000
0000
,  // measure 1
0000
0000
0000
0000
,  // measure 2
0000
0000
0000
0000
,  // measure 3
0000
0000
0000
0000
,  // measure 4
0000
0000
0000
0000
,  // measure 5
1000
0000
0100
0000
0001
0000
0100
1000
0000
1000
0100
0000
0001
0000
0010
0000
,  // measure 6
1000
0000
0010
0000
0001
0000
0010
1000
0000
1000
0010
0000
0001
0000
0100
0000
,  // measure 7
1000
0000
0100
0000
1000
0000
0100
0001
0000
0001
0100
0000
1000
0000
0100
0000
,  // measure 8
0010
0000
0100
0000
0010
0000
0100
0010
0000
0010
0000
0010
0100
0000
0001
0000
,  // measure 9
1000
0000
0100
0000
1000
0000
0100
0001
0000
0001
0000
0001
0100
0000
0010
0000
,  // measure 10
1000
0000
0100
0000
0010
0000
0100
0001
0000
0001
0000
0001
0100
0000
0010
0000
,  // measure 11
1000
0000
0001
0000
1000
0000
0001
0100
0000
0100
0000
0001
0100
0000
0001
0000
,  // measure 12
1000
0000
0001
0000
1000
0000
0001
1000
0000
0001
0000
1000
0001
0000
0000
0000
,  // measure 13
0110
0000
0000
0000
1001
0000
0100
0000
0000
1000
0010
1000
0000
0001
0100
0001
,  // measure 14
0100
0000
0010
0100
0000
0001
1000
0001
0000
1000
0000
0010
0100
0000
0100
0000
,  // measure 15
1000
0000
0000
0000
0000
0001
0100
0001
0000
1000
0001
1000
0000
0010
1000
0010
,  // measure 16
1000
0000
0010
0100
0000
0010
0100
0010
0000
0100
0000
0010
0100
0000
1001
0000
,  // measure 17
1100
0000
0000
0000
0000
0001
1000
0001
0000
1000
0100
1000
0000
0001
0100
0001
,  // measure 18
1000
0000
1000
0010
0000
0100
0001
0100
0000
0001
0000
0001
1000
0000
1000
0000
,  // measure 19
0010
0000
0000
0000
0000
1000
0100
1000
0000
0001
0100
0001
0000
1000
0100
0010
,  // measure 20
0001
0000
0100
0000
1000
0000
0100
0000
0001
0010
0000
0010
0100
0000
1000
0000
,  // measure 21
1001
0000
0000
0000
0010
0000
0010
0000
0000
1000
0100
1000
0000
0001
0100
0001
,  // measure 22
0100
0000
0010
0010
0000
1000
0001
1000
0000
0010
0000
0010
0100
0000
0100
0000
,  // measure 23
0001
0000
0000
0000
0000
1000
0100
1000
0000
0001
0100
0001
0000
1000
0010
1000
,  // measure 24
0010
0000
0100
0100
0000
0001
1000
0001
0000
0100
0000
0100
0010
0000
0010
0000
,  // measure 25
1001
0000
0000
0000
0000
0100
1000
0100
0000
1000
0100
1000
0000
0001
0100
0001
,  // measure 26
0100
0000
0010
0010
0000
0100
0001
0100
0000
0001
0000
0001
1000
0000
1000
0000
,  // measure 27
0101
0000
0000
0000
0000
1000
0100
1000
0000
0001
0010
0100
0000
1000
0100
0000
,  // measure 28
0101
0000
0101
0000
1100
0000
1100
0000
0001
0010
0100
1000
0100
0000
1001
0000
,  // measure 29
0110
0000
0000
0000
1001
0000
0000
1000
0000
0000
1000
0000
1001
0000
0000
0000
,  // measure 30
0110
0000
0000
0000
1001
0000
0000
0001
0000
0001
0000
0001
1000
0000
0000
0000
,  // measure 31
0110
0000
0000
0000
0010
0000
0000
1000
0000
0000
1000
0000
0001
0000
0000
0000
,  // measure 32
0110
0000
0000
0000
0010
0000
0000
0001
0000
0001
0000
0001
1000
0000
0001
0000
,  // measure 33
1000
0000
0100
0000
1000
0100
0000
1000
0000
0100
0000
0010
0001
0000
0010
0000
,  // measure 34
0100
0000
0001
0000
0100
0001
0000
0100
0000
0010
0000
1000
0010
0000
1000
0000
,  // measure 35
0100
0010
0100
0010
1000
0001
1000
0001
,  // measure 36
0100
0010
0000
0100
0000
0010
0000
0000
2002
0000
0000
0000
3003
0000
0000
0000
,  // measure 37
1001
0000
1001
0000
0110
0000
0110
0000
1000
0001
1000
0001
0100
0010
0100
0000
,  // measure 38
1001
0000
1001
0000
0110
0000
0110
0000
0001
1000
0001
1000
0010
0100
0010
0000
,  // measure 39
1100
0000
1100
0000
0101
0000
0101
0000
1000
0010
1000
0010
1000
0001
1000
0000
,  // measure 40
0011
0000
0000
0000
0100
0000
0000
1000
0001
0000
0000
0000
0100
0000
0000
0001
1000
0000
0000
0000
0001
0000
1000
0000
0001
0000
1000
0000
0001
0000
0000
0000
,  // measure 41
0110
0000
0110
0000
1001
0000
1001
0000
0100
0010
0100
0001
1000
0001
1000
0000
,  // measure 42
0110
0000
0110
0000
1001
0000
1001
0000
0010
0100
0010
1000
0001
1000
0001
0000
,  // measure 43
0101
0000
0101
0000
1100
0000
1100
0000
0001
0010
0001
0010
0001
1000
0001
0000
,  // measure 44
1001
0000
0110
0000
1001
0000
0110
0000
1000
0100
0010
0001
0100
0000
1001
0000
,  // measure 45
0010
0000
0010
0000
0001
0001
0000
0100
0000
0100
0000
1000
0010
0000
0000
0000
,  // measure 46
0100
0000
0100
0000
1000
1000
0000
0010
0000
0010
0000
0001
0100
0000
0000
0000
,  // measure 47
0010
0000
0010
0000
1000
0001
0000
0010
0000
0010
0000
1000
0001
0000
0000
0000
,  // measure 48
0100
0000
0100
0000
0001
1000
0000
0100
0000
0100
0000
0001
1000
0000
0000
0000
,  // measure 49
0001
0000
0010
0000
0100
1000
0000
1000
0000
0100
0000
0010
0001
0000
0000
0000
,  // measure 50
1000
0000
0100
0000
0010
0001
0000
0001
0000
0010
0000
0100
1000
0000
0000
0000
,  // measure 51
0100
0000
0010
0000
0100
0000
0010
1000
0000
1000
0000
1000
0001
0000
0000
0000
,  // measure 52
0001
0000
0100
0001
0000
0100
0000
0100
0010
0000
1000
0000
1001
0000
0000
0000
,  // measure 53
0220
0000
0000
0000
,  // measure 54
0330
0000
0000
0000
;

//---------------dance-single - ----------------
#NOTES:
     dance-single:
     :
     Medium:
     10:
     0.398609,0.412179,0.245950,0.042405,0.165380,329.000000,300.000000,29.000000,5.000000,0.000000,0.000000,0.398609,0.412179,0.245950,0.042405,0.165380,329.000000,300.000000,29.000000,5.000000,0.000000,0.000000:
0000
0000
0000
0000
,
0000
0000
0000
0000
,
0000
0000
0000
0000
,
0000
0000
0000
0000
,
0000
0000
0000
0000
,
0010
0000
0001
0000
0100
0100
0100
0000
,
0010
0000
1000
0000
0100
0100
0100
0000
,
0010
0000
0100
0000
1000
1000
1000
0000
,
0100
0000
0010
0000
0001
0001
0001
0000
,
1000
0000
0100
0000
0001
0001
0001
0000
,
0001
0000
0100
0000
1000
1000
1000
0000
,
0010
0001
1000
0100
,
0010
1000
0010
1000
0001
0100
1001
0000
,
0100
0000
0000
0000
1001
0000
0000
0000
0000
0000
1000
0010
0000
0000
1000
0010
,
0000
0000
1000
0010
0000
0000
1000
0010
0000
0000
0100
0000
0100
0000
0100
0000
,
1001
0000
0000
0000
0000
0000
0001
0010
0000
0000
0001
0010
0000
0000
0001
0010
,
0000
0000
0001
0010
0000
0000
0001
0010
0000
0000
0010
0000
0010
0000
0010
0000
,
1001
0000
0000
0000
0000
0000
1000
0010
0000
0000
1000
0010
0000
0000
1000
0010
,
0000
0000
0100
0001
0000
0000
0100
0001
0000
0000
0100
0000
0100
0000
0100
0000
,
1001
0000
0000
0000
0000
0000
0001
0010
0000
0000
0001
0010
0000
0000
0001
0000
,
0001
0000
1000
0000
0001
0000
1000
0000
0000
0010
0000
0000
0100
0000
0100
0000
,
1001
0000
0000
0000
0110
0000
0000
0000
0000
0000
1000
0100
0000
0000
1000
0100
,
0000
0000
0010
0001
0000
0000
0010
0001
0000
0000
0100
0000
0100
0000
0100
0000
,
1001
0000
0000
0000
0000
0000
0001
0010
0000
0000
0001
0010
0000
0000
0001
0010
,
0000
0000
0100
1000
0000
0000
0100
1000
0000
0000
0010
0000
0010
0000
0010
0000
,
1001
0000
0000
0000
0100
0000
0100
0001
0000
0000
0001
1000
0000
0000
1000
0001
,
0000
0000
0001
0010
0000
0000
0010
0100
0000
0000
0100
0000
0100
0000
0100
0000
,
1001
0000
0000
0000
0010
0000
0001
1000
0000
0000
1000
0001
0000
0000
0001
0000
,
0100
0000
0100
0000
0010
0000
0010
0000
0000
1000
0000
1000
0001
0000
0001
0000
,
2000
3000
0002
0003
,
0000
0100
0010
0100
0020
0000
0030
0000
,
1000
0000
0100
0000
0001
0000
0100
0000
1000
0000
0000
0001
0000
0000
0001
0000
,
0000
0000
0001
0000
0100
0000
1000
0000
0100
0000
0000
0001
0000
0000
0001
0000
,
1000
0001
0000
0000
1000
0000
0000
0000
0001
0100
0000
0000
0001
0000
0000
0000
,
0000
1000
0100
0010
0001
0000
1001
0000
,
0010
0100
0010
0100
0001
1000
0001
1000
,
0010
0100
0010
0100
0010
0000
1001
0000
,
0010
0010
1000
0100
1000
0100
0001
0001
,
0010
0010
0001
0100
0001
0100
1000
1000
,
0010
0010
1000
0100
1000
0001
0100
0001
,
0010
0010
0100
0100
0010
0010
0010
0010
,
1001
0000
1000
1000
0100
0100
0001
0001
,
1001
0000
0001
0001
0100
0100
1000
1000
,
0110
0000
1000
1000
0100
0100
0001
0001
,
1000
0010
1000
0010
0100
0100
0100
0100
,
1001
0000
0010
0000
1000
0100
0001
0000
,
1001
0000
0010
0000
0001
0100
1000
0000
,
0110
0000
1001
0000
0010
0100
1000
0000
,
0110
0000
1001
0000
0100
0010
0001
0000
,
1100
0000
0101
0000
0001
0010
0100
1000
,
0001
0000
1100
0000
1000
0100
0010
0001
,
1000
0000
0101
0000
0010
0100
0010
0100
,
0010
1001
1100
0101
,
2002
0000
0000
0000
,
3003
0000
0000
0000
;

//---------------dance-double - ----------------
#NOTES:
     dance-double:
     :
     Hard:
     13:
     0.534306,0.572471,0.237469,0.033924,0.686965,441.000000,413.000000,28.000000,4.000000,0.000000,0.000000,0.534306,0.572471,0.237469,0.033924,0.686965,441.000000,413.000000,28.000000,4.000000,0.000000,0.000000:
00000000
00000000
00000000
00000000
,
00000000
00000000
00000000
00000000
,
00000000
00000000
00000000
00000000
,
00000000
00000000
00000000
00000000
,
00000000
00000000
00000000
00000000
,
00100000
00000000
00010000
00000000
00100000
00000000
00000000
00001000
00000000
00001000
00000000
00000000
00000100
00000000
00000000
00000000
,
00000001
00000000
00000010
00000000
00000001
00000000
00000000
00000100
00000000
00000100
00000000
00000000
00001000
00000000
00000000
00000000
,
00010000
00000000
00100000
00000000
00010000
00000000
00000000
01000000
00000000
01000000
00000000
00000000
10010000
00000000
00000000
00000000
,
10000000
00000000
01000000
00000000
00100000
00000000
00000000
00010000
00000000
00001000
00000000
00000000
00000100
00000000
00000010
00000000
,
00000001
00000000
00000100
00000000
00001000
00000000
00000000
00010000
00000000
00100000
00000000
00000000
10010000
00000000
00000000
00000000
,
10000000
00000000
01000000
00000000
00010000
00000000
00000000
00001000
00000000
00000100
00000000
00000000
00001001
00000000
00000000
00000000
,
00000001
00000000
00000010
00000000
00001000
00000000
00000000
00010000
00000000
00100000
00000000
00000000
10010000
00000000
00000000
00000000
,
10000000
01000000
00100000
00010000
00001000
00000100
00000010
00000000
,
00001001
00000000
00000000
00000000
00001100
00000000
00000000
00000000
00000000
00000100
00010000
00000100
00000000
00010000
00001000
00010000
,
00000000
00001000
00100000
00001000
00000000
00100000
00010000
00100000
00000000
00010000
00000000
00010000
01000000
00000000
01000000
00000000
,
10100000
00000000
00000000
00000000
00000000
00010000
01000000
00010000
00000000
00100000
00010000
00100000
00000000
00010000
00001000
00010000
,
00001000
00000000
00010000
00000100
00000000
00000000
00000010
00001000
00000000
00000001
00000000
00000001
00000100
00000000
00000100
00000000
,
00001001
00000000
00000000
00000000
00000000
00000010
00001000
00000010
00000000
00010000
00001000
00010000
00000000
00001000
00100000
00001000
,
00100000
00000000
00010000
00100000
00000000
00000000
01000000
00010000
00000000
00100000
00000000
00100000
10000000
00000000
00010000
00000000
,
01000000
00000000
00000000
00000000
00100000
00010000
00100000
00010000
00000000
00001000
00010000
00001000
00000000
00010000
00000100
00010000
,
00000100
00000000
00000100
00000000
00000010
00000000
00000010
00000000
00000000
00001001
00000000
00000000
00001100
00000000
00000101
00000000
,
00001001
00000000
00000000
00000000
00000010
00001000
00000010
00001000
00000000
00000100
00001000
00000100
00000000
00010000
00001000
00010000
,
00000000
00100000
00010000
00100000
00000000
01000000
00100000
01000000
00000000
10000000
00000000
10000000
01000000
00000000
00100000
00000000
,
00010000
00000000
00000000
00000000
00010000
00001000
00010000
00001000
00000000
00000100
00001000
00000100
00000000
00000010
00000100
00000010
,
00000100
00000000
00000001
00001000
00000000
00000010
00001000
00000001
00000000
00000001
00000000
00000010
00000100
00000000
00010000
00000000
,
00011000
00000000
00000000
00000000
00100000
00001000
00010000
00001000
00000000
00100000
00001000
00010000
00000000
00100000
00010000
01000000
,
00000000
00100000
00000000
11000000
00000000
01000000
00100000
00010000
00000000
01000000
00000000
00010000
00001000
00000000
00001000
00000000
,
00000100
00000000
00000000
00000000
00000010
00000100
00001000
00000000
00010000
00000000
00001000
00000000
01000000
00000000
00100000
00000000
,
10010000
00000000
00010000
00000000
11000000
00000000
11000000
00000000
01000000
00100000
00010000
01000000
10000000
00000000
10010000
00000000
,
01000000
00000000
00100000
00000000
10000000
00010000
00000000
00010000
00000000
00010000
00000000
00010000
10000000
00000000
00000000
00000000
,
00100000
00000000
00010000
00000000
00010000
00001000
00000000
00001000
00000000
00001000
00000000
00001000
00000000
00010000
00000000
00000000
,
00000100
00000000
00001000
00000000
00000010
00000100
00000000
00000100
00000000
00000100
00000000
00000100
00000001
00000000
00000000
00000000
,
00000001
00000000
00001000
00000000
00000010
00000100
00000000
00000100
00000000
00000100
00000000
00000100
00000010
00000000
00001000
00000000
,
00000100
00001000
00010000
00001000
00100000
00010000
01000000
10000000
,
00100000
00010000
00001000
00000100
00000001
00000010
00000100
00001000
,
00010000
00100000
01000000
10000000
01000000
00100000
00010000
00001000
,
00000010
00000100
00000000
00000010
00000000
00000100
00000000
00000000
00002002
00000000
00000000
00000000
00003003
00000000
00000000
00000000
,
00000010
00000000
00000100
00000000
00010000
00001000
00010000
00001000
00000000
00010000
00001000
00010000
00000000
00001000
00010000
00001000
,
00010000
00000000
00001000
00000000
00000000
00001000
00100000
00010000
00000000
00010000
01000000
00100000
01000000
00000000
00100000
00000000
,
10010000
00000000
10010000
00000000
01000000
00100000
00010000
00000000
00010000
00001000
00010000
00000000
00000100
00001000
00000100
00000000
,
00000010
00000000
00001000
00000000
00000001
00000000
00000010
00000000
00000010
00000100
00000000
00001000
00000100
00000000
00000100
00000000
,
00000010
00000000
00000010
00000000
00010000
00001000
00010000
00000000
00001000
01000000
00001000
00000000
01000000
00010000
01000000
00010000
,
01000000
00000000
01000000
00000000
00100000
10000000
00100000
00000000
01000000
00010000
01000000
00010000
01000000
00000000
00100000
00000000
,
00010000
00000000
00010000
00000000
00000100
00001000
00000100
00000000
00001000
00000010
00001000
00000010
00001000
00000000
00000001
00000000
,
00001001
00000000
00000001
00000000
00000110
00000000
00000110
00000000
00000000
00000010
00000000
00010000
00001000
00000000
00010000
00000000
,
00001000
00000000
00100000
00000000
01000000
10000000
00000000
10000000
00000000
00100000
00000000
00000000
00010000
00000000
00000000
00000000
,
00001000
00000000
00000100
00000000
00000100
00000001
00000000
00000010
00000000
00000010
00000000
00000000
00001000
00000000
00000000
00000000
,
00001000
00000000
00010000
00000000
00100000
00010000
00000000
00010000
00000000
00010000
00000000
00010000
01000000
00000000
00000000
00000000
,
00100000
00000000
00000000
10000000
00000000
01000000
00000000
00000000
00100000
00000000
00010000
00000000
00011000
00000000
00000000
00000000
,
00000100
00000000
00001000
00000000
00000010
00001000
00000000
00000100
00000000
00000001
00000000
00000010
00001000
00000000
00000100
00000000
,
00010000
00000000
00001000
00000000
00100000
00010000
00000000
01000000
00000000
00100000
00000000
10000000
01000000
00000000
00100000
00000000
,
00010000
00000000
00001000
00010000
00000000
00001000
00000000
00010000
00001000
00000000
00000100
00000000
00000010
00000000
00000000
00000000
,
00000001
00000000
00000100
00001000
00000000
00001000
00000000
00010000
00001000
00000000
00011000
00000000
00011000
00000000
00000000
00000000
,
00022000
00000000
00000000
00000000
,
00033000
00000000
00000000
00000000
;

//---------------dance-double - ----------------
#NOTES:
     dance-double:
     :
     Medium:
     10:
     0.380435,0.389280,0.271393,0.101773,0.038165,314.000000,282.000000,32.000000,12.000000,0.000000,0.000000,0.380435,0.389280,0.271393,0.101773,0.038165,314.000000,282.000000,32.000000,12.000000,0.000000,0.000000:
00000000
00000000
00000000
00000000
,
00000000
00000000
00000000
00000000
,
00000000
00000000
00000000
00000000
,
00000000
00000000
00000000
00000000
,
00000000
00000000
00000000
00000000
,
00100000
10000000
00100000
10000000
00100000
00010000
00100000
00000000
,
00010000
00001000
00010000
00001000
00000100
00001000
00000100
00000000
,
00000010
00000100
00000010
00000100
00000001
00001000
00000001
00000000
,
00000100
00001000
00010000
00100000
,
10000000
01000000
10000000
00000000
00010000
00010000
00010000
00000000
,
00001000
00010000
00001000
00000000
00000010
00000010
00000010
00000000
,
00000001
00000100
00000001
00000000
00001000
00001000
00001000
00000000
,
00022000
00000000
00033000
00011000
,
00200000
00000000
00310000
00000000
10000000
01000000
00100000
00010000
,
00001000
00000100
00000010
00000001
00000100
00000000
00001001
00000000
,
00000200
00000000
00001300
00000000
00000001
00000010
00000100
00001000
,
00010000
00100000
01000000
10000000
00200000
00000000
00310000
00000000
,
11000000
00000000
00110000
00000000
10000000
00100000
01000000
00010000
,
00001000
01000000
00100000
10000000
00020000
00000000
10030000
00000000
,
01100000
00000000
00011000
00000000
00001000
00000100
00000010
00000001
,
00000010
00000100
00010000
00001000
00000000
00011000
00011000
00000000
,
00000200
00000000
00001300
00000000
00000001
00000010
00000100
00001000
,
00010000
00100000
01000000
10000000
00100000
00000000
10010000
00000000
,
00200000
00000000
00310000
00000000
10000000
01000000
00100000
00010000
,
00001000
00000100
00000010
00000001
00000200
00000000
00001300
00000000
,
00000011
00000000
00001100
00000000
00000001
00000100
00000010
00001000
,
00010000
00000010
00000100
00000001
00002000
00000000
00003001
00000000
,
00000110
00000000
00011000
00000000
00001000
00000100
00000010
00000001
,
00000010
00000100
00001000
00000100
00000010
00000001
00000100
00000000
,
00001001
00000110
00001000
00010000
,
10010000
01100000
00010000
00001000
,
00000010
00000100
00001000
00000000
00010000
00100000
01000000
00000000
,
10000000
01000000
00100000
00010000
00001000
00000100
00000010
00000000
,
00000010
00000100
01000000
00100000
,
00100000
01000000
00000100
00000010
,
00000010
00000100
00000010
00000000
00100000
01000000
00100000
00000000
,
10000000
01100000
00011000
00000110
,
00000001
00001000
00000000
00000100
00000100
00000100
00000100
00000100
,
00010000
00100000
00000000
01000000
01000000
01000000
01000000
00000000
,
10000000
00010000
00000000
00100000
00100000
00100000
00100000
00010000
,
00001000
00000001
00001000
00000001
00000010
00000010
00000010
00000000
,
00000001
00000010
00000100
00000000
01000000
01000000
00100000
00000000
,
10000000
01000000
00100000
00000010
00000010
00000100
00000000
00000000
,
00000001
00000010
00000100
00000000
00010000
00001000
01000000
00000000
,
10010000
00011000
00001001
00011000
,
00011000
00000000
00000000
00000000
00001000
00010000
00000000
00000000
00010000
00000000
00001000
00000000
00000100
00000000
00000000
00000000
,
00001001
00000000
00000000
00000000
00000001
00001000
00000000
00000000
00001000
00000000
00001000
00000000
00010000
00000000
00000000
00000000
,
10010000
00000000
01100000
00000000
10000000
01000000
00010000
00000000
,
00010000
00001000
00000100
00000000
00000010
00000010
00001001
00000001
,
00000100
00000000
00000000
00000000
00001000
00000000
00000000
00000000
00010000
00001000
00000000
00001000
00010000
00000000
00000000
00000000
,
00100000
00000000
00000000
00000000
10010000
00000000
00000000
00000000
01000000
00100000
00000000
00100000
01000000
00000000
00000000
00000000
,
10000000
00000000
01000000
00000000
00100000
00000000
00000000
00010000
00000000
00010000
00000000
00010000
00001000
00000000
00000000
00000000
,
00000100
00000100
00000010
00000001
00000010
00000100
00010000
00001000
,
00022000
00000000
00000000
00000000
,
00033000
00000000
00000000
00000000
;

//---------------dance-double - ----------------
#NOTES:
     dance-double:
     :
     Easy:
     5:
     0.264124,0.343482,0.373166,0.271393,0.000000,218.000000,174.000000,44.000000,32.000000,0.000000,0.000000,0.264124,0.343482,0.373166,0.271393,0.000000,218.000000,174.000000,44.000000,32.000000,0.000000,0.000000:
00000000
00000000
00000000
00000000
,
00000000
00000000
00000000
00000000
,
00000000
00000000
00000000
00000000
,
00000000
00000000
00000000
00000000
,
00000000
00000000
00000000
00000000
,
01000000
00100000
01000000
10010000
,
00100000
01000000
00100000
00010000
,
00000010
00000100
00000010
00001001
,
00000100
00000010
00000100
00010000
,
10000000
01000000
00010000
10000000
,
00010000
00100000
01000000
10000000
,
00010000
00000100
00010000
00001000
,
00000010
00000010
00000010
00001001
,
00000220
00000330
00000001
00001000
,
00010000
10000000
01000000
10010000
,
02200000
03300000
10000000
00010000
,
00001000
00000001
00000100
00001001
,
00000220
00000330
00000001
00000100
,
00001000
00010000
01000000
10000000
,
02200000
03300000
10000000
01000000
,
00010000
00001000
00000100
00000001
,
00002002
00003003
00000110
00000110
,
00001001
00001001
00000110
00000100
,
00022000
00033000
01100000
01000000
,
10010000
10000000
01100000
00100000
,
20020000
30030000
00100000
00010000
,
00000100
00001000
00000010
00000001
,
00002002
00003003
00000100
00010000
,
00100000
10000000
01000000
10010000
,
01100000
00000000
00100000
00000000
,
10000000
01000000
00010000
00000000
,
00001000
00000100
00000001
00000100
,
00001000
01000000
10000000
01000000
,
00010000
00010000
00001000
00001000
,
00010000
00001000
00010000
00001000
,
00000001
00000010
00000100
00001000
,
00010000
00100000
01000000
10000000
,
02200000
03300000
10010000
01100000
,
20020000
30030000
01100000
10010000
,
00220000
00330000
00002200
00003300
,
00100000
00001000
00010000
00000100
,
00002002
00003003
00000110
00001001
,
00000220
00000330
00001001
00000110
,
00002000
00003000
00020000
00030000
,
01100000
10010000
01100000
10010000
,
10010000
01000000
01000000
01000000
,
00010000
00001000
00000100
00000100
,
00001001
00000010
00000010
00000100
,
00010000
00001000
00010000
00001000
,
00010000
00100000
01000000
10000000
,
10000000
01000000
00100000
00010000
,
00001000
00000100
00000010
00000001
,
00000001
00000010
00000100
00010000
,
00022000
00000000
00000000
00000000
,
00033000
00000000
00000000
00000000
;

//---------------dance-single - ----------------
#NOTES:
     dance-single:
     :
     Easy:
     5:
     0.273817,0.343482,0.441014,0.271393,0.000000,226.000000,174.000000,52.000000,32.000000,0.000000,0.000000,0.273817,0.343482,0.441014,0.271393,0.000000,226.000000,174.000000,52.000000,32.000000,0.000000,0.000000:
0000
0000
0000
0000
,
0000
0000
0000
0000
,
0000
0000
0000
0000
,
0000
0000
0000
0000
,
0000
0000
0000
0000
,
0100
0010
0100
1001
,
0010
0100
0010
0001
,
0010
0100
0010
1001
,
0100
0010
0100
1001
,
1000
0100
0001
1001
,
0001
0100
1000
1001
,
0010
0100
0010
0100
,
0010
0010
0010
1001
,
0220
0330
1000
0001
,
1000
0001
0100
1001
,
0220
0330
1000
0001
,
1000
0001
0100
1001
,
0220
0330
0001
0100
,
1000
0001
0100
1000
,
0220
0330
1000
0100
,
0001
1000
0100
0001
,
2002
3003
0110
0110
,
1001
1001
0110
0100
,
2002
3003
0110
0110
,
1001
1001
0110
0010
,
2002
3003
0010
0001
,
0100
1000
0010
0001
,
2002
3003
0010
1000
,
0100
0001
0010
1001
,
0110
0000
0010
0000
,
1000
0100
0001
0000
,
0001
0100
1000
0100
,
0001
0010
1000
0100
,
0001
0010
1000
0100
,
0001
1000
0001
1000
,
0001
0010
0100
1000
,
0001
1000
0001
1000
,
0220
0330
1001
0110
,
2002
3003
0110
1001
,
0022
0033
2200
3300
,
0010
1000
0100
0001
,
2002
3003
0110
1001
,
0220
0330
1001
0110
,
2000
3000
0002
0003
,
0110
1001
0110
1001
,
1001
0100
0100
0100
,
0001
0010
0010
0010
,
1000
0100
0010
0001
,
0001
0010
0100
1000
,
1001
0010
0010
0010
,
1001
0100
0100
0100
,
1001
0010
1001
0100
,
0001
0010
0100
1000
,
2002
0000
0000
0000
,
3003
0000
0000
0000
;

//---------------dance-single - ----------------
#NOTES:
     dance-single:
     :
     Beginner:
     3:
     0.142966,0.160292,0.025443,0.025443,0.000000,118.000000,115.000000,3.000000,3.000000,0.000000,0.000000,0.142966,0.160292,0.025443,0.025443,0.000000,118.000000,115.000000,3.000000,3.000000,0.000000,0.000000:
0000
0000
0000
0000
,
0000
0000
0000
0000
,
0000
0000
0000
0000
,
0000
0000
0000
0000
,
0000
0000
0000
0000
,
0010
0000
0001
0000
,
0100
0000
1000
0000
,
0010
0000
1000
0000
,
0100
0000
0001
0000
,
0010
0000
0010
0000
,
0100
0000
0100
0000
,
1000
0000
0001
0000
,
2000
0000
3000
0000
,
1000
0000
1000
1000
,
1000
1000
1000
0000
,
0001
0000
0001
0001
,
0001
0001
0001
0000
,
0100
0000
0100
0100
,
0100
0100
0100
0000
,
0010
0000
0010
0000
,
0010
0000
0010
0000
,
0100
0000
0100
0100
,
0100
0100
0100
0000
,
0001
0000
0001
0001
,
0001
0001
0001
0000
,
0010
0000
0010
0010
,
0010
0010
0010
0000
,
1000
0000
1000
0000
,
1000
0000
1000
0000
,
1001
0000
0000
0000
,
0010
0000
0010
0000
,
0100
0000
0100
0000
,
1000
0000
0001
0000
,
1000
0000
0001
0000
,
0010
0000
0100
0000
,
1000
0000
0001
0000
,
0010
0010
0010
0000
,
1000
0000
0001
0001
,
0001
0000
1000
1000
,
1000
0000
0010
0010
,
0010
0000
0100
0000
,
0001
0000
1000
1000
,
1000
0000
0001
0001
,
0001
0000
0100
0100
,
0100
0000
0010
0000
,
1001
0000
1000
1000
,
0000
0000
0001
0001
,
0000
0000
0100
0100
,
0000
0000
0010
0010
,
0000
0000
0001
0001
,
0000
0000
0100
0100
,
0000
0000
1000
1000
,
0000
0001
0001
0000
,
2002
0000
0000
0000
,
3003
0000
0000
0000
;
