#TITLE:Rise Up;
#SUBTITLE:;
#ARTIST:B.E.R.;
#TITLETRANSLIT:;
#SUBTITLETRANSLIT:;
#ARTISTTRANSLIT:;
#GENRE:;
#CREDIT:;
#BANNER:Rise Up.png;
#BACKGROUND:Rise Up-bg.png;
#LYRICSPATH:;
#CDTITLE:;
#MUSIC:Rise Up.ogg;
#OFFSET:-0.280000;
#SAMPLESTART:113.540291;
#SAMPLELENGTH:18.539991;
#SELECTABLE:YES;
#BPMS:0.000000=124.000000
;
#STOPS:
;
#BGCHANGES:;
#KEYSOUNDS:;
#ATTACKS:;

//---------------dance-single - ----------------
#NOTES:
     dance-single:
     :
     Hard:
     10:
     0.379159,0.399245,0.165412,0.067669,0.022556,353.000000,331.000000,22.000000,9.000000,0.000000,0.000000,0.379159,0.399245,0.165412,0.067669,0.022556,353.000000,331.000000,22.000000,9.000000,0.000000,0.000000:
0000
0000
0000
0000
,
0000
0000
0000
0000
,
0000
0000
0000
0000
,
0000
0000
0000
0000
,
0001
0000
0100
0000
0001
0000
0100
0000
0001
0000
0000
0001
0000
0000
1000
0000
,
0001
0000
0000
0001
0100
0000
0000
0100
0010
0000
0000
0010
1000
0000
0000
1000
,
0100
0000
1000
0000
0100
0000
1000
0000
0010
0000
0000
0010
0000
0000
0010
0000
,
1000
0001
1000
0001
0100
0010
0100
0010
,
1000
0000
0101
0000
1000
0001
0100
0001
,
1000
0000
0110
0000
1000
0010
0100
0010
,
1000
0000
0001
0010
0000
0000
1000
0000
,
0001
0010
0001
0000
0010
0100
0010
0000
,
0100
0000
1001
0000
0010
0100
0001
0100
,
0010
0000
1001
0000
0001
0100
0010
0000
,
1000
0000
0001
0100
0001
0000
0100
0000
,
0010
0100
0010
0000
0001
1000
0010
1000
,
0001
0000
1000
0000
1000
0010
1000
0100
,
1000
0000
0001
0000
0001
0100
0001
0100
,
0001
1000
0001
1000
0001
0000
0100
0000
,
0001
1000
0100
0000
0010
1000
0001
0000
,
1000
0000
1000
0010
1000
0000
0001
0000
,
0100
0001
0100
0000
0001
0100
0010
0000
,
0100
0000
0001
1000
0100
0000
1000
0001
,
1000
0010
0200
0000
0001
0000
0310
0000
,
1001
0110
1000
0010
,
0100
0001
1000
0001
0100
0000
1001
0000
,
0010
1000
0001
1000
0100
0000
1000
0010
,
1000
0000
0001
0100
0001
0100
0001
0000
,
0010
0000
1001
0000
0100
0000
0001
1000
,
0001
0110
1000
0010
,
1000
0001
1000
0000
0010
0000
0001
0100
,
0001
0000
1000
0100
1000
0100
1000
0000
,
0000
1001
0000
0110
0000
0001
0100
0001
,
0100
0010
0000
1000
0001
0000
1001
0000
,
0100
0000
0010
0000
1000
0100
1000
0000
,
0001
0100
0001
0000
0010
0100
0010
0000
,
0000
1001
0000
0110
0000
1000
0100
1000
,
0100
1000
0000
0001
0100
0000
0001
0000
,
1000
0000
0001
0000
0100
0010
1000
0001
,
0000
1000
0001
0100
0010
0100
0010
0000
,
1000
0001
0100
0000
0020
0000
0001
0000
,
0100
0000
1000
1030
0000
0000
0000
0001
,
0100
0001
1000
0001
0000
0000
1000
0000
,
0010
1000
0100
0000
0001
0000
0010
0000
,
0100
1000
0200
1000
,
0010
0000
0001
0301
0000
0001
1000
0001
,
0000
0001
0100
0001
0000
0000
1000
0000
,
0010
0200
0001
0010
,
1000
0310
0001
1000
,
0100
0000
0010
1000
0000
0000
0001
0000
,
0100
0001
0100
0001
0000
0000
0100
0010
,
0000
1000
0010
0000
0100
0000
0001
0000
,
1000
0001
1000
0000
0010
0000
0010
0000
,
1000
0000
0001
0000
0100
0010
0100
0000
,
0010
0100
0010
0000
0010
0000
1000
0000
,
0001
0000
0100
0000
0010
1000
0002
0000
,
0100
0000
0103
0000
1001
0000
0010
0110
,
0000
1000
1001
0000
0010
0110
0000
0000
,
0110
1001
0200
0001
,
1000
0301
0020
1000
,
0001
0000
1030
0000
0001
0000
0100
1000
,
0000
0100
0000
0001
1000
0001
1000
0000
,
0010
1001
0200
1000
,
0010
1300
0020
0001
,
0100
0000
0031
0000
1000
0000
0001
0100
,
0000
0001
0000
1000
0001
1000
0010
0000
,
1000
0001
0000
1001
0000
0000
0000
0000
;

//---------------dance-single - ----------------
#NOTES:
     dance-single:
     :
     Beginner:
     3:
     0.119226,0.174999,0.052631,0.022556,0.000000,111.000000,104.000000,7.000000,3.000000,0.000000,0.000000,0.119226,0.174999,0.052631,0.022556,0.000000,111.000000,104.000000,7.000000,3.000000,0.000000,0.000000:
0000
0000
0000
0000
,
0000
0000
0000
0000
,
0000
0000
0000
0000
,
0000
0000
0000
0000
,
0001
0000
0001
0000
,
1000
1000
1000
0000
,
0001
0000
0001
0000
,
1000
1000
1000
0000
,
0010
0000
0000
0000
,
0100
0000
0000
0000
,
0010
0000
0010
0000
,
0010
0000
0000
0000
,
0100
0000
0000
0000
,
0010
0000
0000
0000
,
0100
0000
0100
0000
,
0100
0000
0000
0000
,
0001
0000
1000
0000
,
0001
0000
1000
0000
,
0001
0001
0001
0000
,
1000
1000
1000
0000
,
0010
0000
0010
0000
,
0010
0010
0010
0000
,
0100
0000
0100
0000
,
0100
0100
0100
0000
,
0010
0000
0001
0000
,
1000
0000
0001
0000
,
1000
0000
0010
0000
,
0100
0000
0010
0000
,
0100
0000
1000
0000
,
0001
0000
1000
0000
,
0001
0000
0100
0000
,
0100
0000
0010
0000
,
0010
0000
1001
0000
,
0000
0000
1001
0000
,
0000
0000
0010
0000
,
0010
0000
0100
0000
,
0100
0000
1001
0000
,
0000
0000
1001
0000
,
0000
0000
0010
0000
,
0010
0000
0100
0000
,
0100
0000
0002
0000
,
0000
0000
0003
0000
,
0000
0000
1000
0000
,
1000
0000
1000
0000
,
0000
0000
2000
0000
,
0000
0000
3000
0000
,
0000
0000
0001
0000
,
0001
0000
0001
0000
,
0000
0000
0200
0000
,
0000
0000
0300
0000
,
0000
0000
0010
0000
,
0010
0000
0010
0000
,
0000
0000
1000
0000
,
1000
0000
1000
0000
,
0000
0000
0001
0000
,
0001
0000
0001
0000
,
0000
0000
1001
0000
,
0000
0000
1001
0000
,
0000
0000
1000
0000
,
1000
0000
1000
0000
,
0000
0000
0001
0000
,
0001
0000
0001
0000
,
0000
0000
0100
0000
,
0100
0000
0010
0000
,
0010
0000
1000
0000
,
1000
0000
0001
0000
,
0001
0000
1001
0000
;

//---------------dance-double - ----------------
#NOTES:
     dance-double:
     :
     Hard:
     10:
     0.354455,0.399997,0.105262,0.045112,0.022556,330.000000,316.000000,14.000000,6.000000,0.000000,0.000000,0.354455,0.399997,0.105262,0.045112,0.022556,330.000000,316.000000,14.000000,6.000000,0.000000,0.000000:
00000000
00000000
00000000
00000000
,
00000000
00000000
00000000
00000000
,
00000000
00000000
00000000
00000000
,
00000000
00000000
00000000
00000000
,
00010000
00000000
00001000
00000000
00010000
00000000
00001000
00000000
00010000
00000000
00000000
00010000
00000000
00000000
00000000
00000000
,
00010000
00000000
00000000
00010000
00001000
00000000
00000000
00001000
00000100
00000000
00000000
00000100
00000010
00000000
00000000
00000010
,
00000001
00000000
00000100
00000000
00000010
00000000
00001000
00000000
00000100
00000000
00000000
00000100
00000000
00000000
00000100
00000000
,
00001000
00000100
00001000
00000100
00010000
00001000
00010000
00001000
,
00100000
00000000
00010000
00000000
01000000
00010000
01000000
00010000
,
01000000
00000000
10010000
00000000
10000000
00100000
10000000
00100000
,
10000000
00000000
00010000
00100000
00000000
00000000
00100000
00000000
,
00010000
00100000
00010000
00000000
00001000
00010000
00001000
00000000
,
00000100
00000000
00001000
00000000
00000010
00000001
00000100
00000001
,
00000010
00000000
00001001
00000000
00000100
00001000
00000100
00000000
,
00001000
00000000
00100000
00001000
00100000
00000000
00010000
00000000
,
10000000
00100000
10000000
00000000
00010000
10000000
00100000
10000000
,
00010000
00000000
10000000
00000000
10000000
00100000
10000000
01000000
,
10000000
00000000
00010000
00000000
00010000
01000000
00010000
01000000
,
00010000
00000000
00001000
00010000
00001000
00000000
00000100
00000000
,
00010000
00000010
00010000
00000000
00001000
00000001
00001000
00000000
,
00000010
00000000
00000100
00000010
00000100
00000000
00001000
00000100
,
00001000
00000100
00001000
00000000
00010000
00001000
00010000
00000000
,
00001000
00000000
01000000
00010000
01000000
00000000
10000000
00010000
,
10000000
00100000
02000000
00000000
00010000
00000000
03100000
00000000
,
10010000
01100000
10000000
00100000
,
01000000
00010000
00000000
00010000
00100000
00000000
00001000
00000000
,
00010000
00000000
00000010
00000000
00000100
00000000
00001000
00000010
,
00001000
00000000
00000010
00000100
00000010
00000100
00000010
00000000
,
00001000
00000000
00000100
00000000
00010000
00000000
00001000
00010000
,
00001000
00010000
00100000
01000000
,
10000000
00010000
10000000
00000000
00100000
00000000
00010000
01000000
,
00010000
00000000
10000000
01000000
10000000
01000000
10000000
00000000
,
00000000
10010000
00000000
01100000
00000000
00010000
01000000
00010000
,
01000000
00001000
00000000
00010000
00010000
00000000
00001000
00000000
,
00010000
00000000
00000010
00000000
00001000
00000100
00001000
00000000
,
00000001
00000100
00000001
00000000
00000010
00000100
00000010
00000000
,
00000000
00001001
00000000
00000110
00000000
00001000
00000100
00001000
,
00000100
00001000
00000000
00000100
00010000
00000000
00001000
00000000
,
00100000
00000000
00010000
00000000
01000000
00100000
10000000
00010000
,
00000000
10000000
00010000
01000000
00100000
01000000
00100000
00000000
,
10000000
00010000
01000000
00000000
00020000
00000000
00000000
00000000
,
00000000
00000000
00030000
00001000
00000000
00000000
00000100
00000000
,
00000010
00001000
00000001
00001000
00000000
00000000
00000010
00001000
,
00000010
00001000
00000200
00000000
00000000
00000000
00000000
00000000
,
00000300
00000000
00002000
00000000
,
00000000
00000000
00003000
00010000
00000000
00000000
00000000
01000000
,
00000000
00010000
00000000
10000000
00000000
00000000
00100000
00000000
,
10000000
00010000
20000000
00000000
00000000
00000000
00000000
00000000
,
30000000
00000000
00010000
10000000
,
01000000
00000000
00100000
10000000
00000000
00000000
00010000
00000000
,
01000000
00010000
01000000
00010000
00000000
00000000
00010000
00000100
,
00000000
00000100
00000001
00000000
00000010
00000000
00000100
00000000
,
00001000
00000100
00001000
00000000
00000100
00000000
00000100
00000000
,
00010000
00000000
00010000
00000000
00001000
00010000
00001000
00000000
,
00010000
01000000
00010000
00000000
00100000
00000000
00010000
00000000
,
10000000
00000000
00100000
00000000
01000000
01000000
02000000
00000000
,
00000000
00000000
03000000
00000000
10010000
00000000
00100000
01100000
,
00000000
10000000
10010000
00000000
00100000
01100000
00000000
00000000
,
01100000
10010000
00100000
00010000
,
00001000
00000100
00001000
00000100
00001000
00000000
00000010
00000000
,
00000001
00000100
00000001
00000000
00001000
00000000
00000100
00001000
,
00000000
00010000
00000000
00100000
00010000
01000000
00000000
10000000
,
00100000
01000000
00010000
00000000
00100000
00000000
00001000
00000000
,
00010000
00000000
00000100
00001000
00000100
00000000
00001000
00000000
,
00000010
00000001
00000100
00000000
00000010
00000000
00001000
00000100
,
00000000
00010000
00000000
00001000
00100000
00010000
00000000
00001000
,
00000000
00010000
00000000
00001000
00010000
00000000
00000000
00000000
;

//---------------dance-double - ----------------
#NOTES:
     dance-double:
     :
     Medium:
     7:
     0.273897,0.349339,0.120300,0.082706,0.000000,255.000000,239.000000,16.000000,11.000000,0.000000,0.000000,0.273897,0.349339,0.120300,0.082706,0.000000,255.000000,239.000000,16.000000,11.000000,0.000000,0.000000:
00000000
00000000
00000000
00000000
,
00000000
00000000
00000000
00000000
,
00000000
00000000
00000000
00000000
,
00000000
00000000
00000000
00000000
,
00000000
00010000
10000000
01000000
,
10000000
00010000
00100000
00001000
,
00010000
00000010
00000100
00000100
,
00000001
00001000
00000001
00001000
,
00000020
00000000
00000000
00000000
00000030
00001000
00000001
00002000
,
00000000
00000000
00000000
00003000
00000000
00000000
00000000
00000000
,
00000010
00000000
00000100
00000010
00000000
00000000
00000100
00000000
,
00000010
00000100
00000010
00000000
00000000
00001000
00000100
00001000
,
00000000
00000000
00010000
00000000
00000000
00001000
00100000
00001000
,
00000000
00100000
00000000
00100000
,
00010000
00000000
01000000
00010000
00000000
01000000
00010000
00000000
,
01000000
00100000
01000000
00000000
00000000
00100000
10000000
00100000
,
10000000
00000000
00010000
00000000
00000000
00100000
00010000
00100000
,
00010000
00100000
00000000
00001000
,
00010000
00000000
00010000
00000000
,
00000100
00000100
00001000
00001000
,
00000010
00000000
00000001
00001000
00000001
00000000
00000100
00000000
,
00000001
00001000
00000100
00010000
,
00001000
00000000
01000000
00010000
01000000
00000000
00010000
00000000
,
10000000
00020000
00100000
01030000
,
10010000
01100000
20000000
00000000
,
30000000
00100000
00000000
01000000
00000000
00010000
10000000
00010000
,
00000000
00000000
00100000
00000000
00001000
00000000
00010000
00010000
,
00000000
00000010
00000000
00000100
00000000
00000001
00000000
00001000
,
00000001
00001000
00000020
00000000
,
00000000
00000100
00000000
00000130
00000000
00000001
00001000
00000001
,
00000000
00000000
00001000
00000000
00000100
00000000
00010000
00001000
,
00000000
00100000
00000000
00010000
00000000
01000000
00000000
00100000
,
00100000
01000000
00000000
10010000
00000000
01000000
00100000
01000000
,
00000000
10010000
00000000
01100000
00000000
00000000
10000000
00000000
,
00010000
00100000
00001000
00010000
,
00000010
00000000
00001000
00000000
00000001
00000100
00000001
00000000
,
00000000
00000110
00000000
00001001
00000000
00000100
00000010
00000100
,
00000000
00000110
00000000
00001001
00000000
00000000
00001000
00000000
,
00000100
00010000
00001000
01000000
,
00010000
00000000
10000000
00000000
00100000
00100000
00200000
00000000
,
00000000
00300000
20000000
00000000
,
00000000
00000000
00000000
30010000
00000000
00000000
00000000
00000000
,
00000000
00100000
00100000
00100000
00000000
00000000
00010000
00000000
,
00001000
00010000
00002000
00000000
00000000
00000000
00000000
00000000
,
00000000
00003000
00000020
00000000
,
00000000
00000000
00000000
00000130
00000000
00000001
00001000
00000001
,
00000000
00000100
00000010
00000100
00000000
00000000
00000001
00001000
,
00000001
00000100
00000020
00000000
00000000
00000000
00000000
00000000
,
00000000
00000030
00000001
00000100
,
00000010
00000000
00001000
00001000
00000000
00000000
00000000
00000000
,
00000000
00000100
00010000
00000100
00000000
00000000
00010000
00001000
,
00000000
00011000
00100000
00010000
,
01000000
00100000
10000000
01000000
,
00100000
00000000
00010000
00000000
00100000
00010000
00100000
00000000
,
00001000
00010000
00001000
00000000
00000100
00000000
00001000
00000000
,
00000010
00000000
00000001
00001000
00000000
00000002
00000000
00000000
,
00000000
00000000
00000003
00000000
00001001
00000000
00000000
00000110
,
00000000
00000000
00001001
00000000
00000000
00000110
00000000
00000000
,
00000110
00000100
00001000
00000010
,
00000001
00000100
00001000
00000010
,
00000001
00000100
00001000
00010000
,
00100000
00000000
00010000
00100000
00010000
00000000
10000000
01000000
,
10000000
00100000
10000000
01000000
,
00010000
00100000
10000000
01000000
,
00010000
00000000
00100000
00000000
00001000
00000000
00010000
00001000
,
00010000
00000000
00000100
00001000
00000100
00000000
00000000
00000000
,
00000000
00000010
00000000
00001001
00000000
00000000
00000000
00000000
;

//---------------dance-single - ----------------
#NOTES:
     dance-single:
     :
     Medium:
     7:
     0.280342,0.349339,0.135337,0.090225,0.000000,261.000000,243.000000,18.000000,12.000000,0.000000,0.000000,0.280342,0.349339,0.135337,0.090225,0.000000,261.000000,243.000000,18.000000,12.000000,0.000000,0.000000:
0000
0000
0000
0000
,
0000
0000
0000
0000
,
0000
0000
0000
0000
,
0000
0000
0000
0000
,
1001
0001
1000
0100
,
1000
0001
1000
0001
,
1000
0010
0100
0100
,
0001
1000
0001
1000
,
0020
0000
0000
0000
0030
0100
0010
0200
,
0000
0000
0000
0300
0000
0000
0000
0000
,
0001
0000
1000
0001
0000
0000
1000
0000
,
0010
0100
0010
0000
0000
0100
0010
0100
,
0000
0000
0001
0000
0000
1000
0010
1000
,
0000
0010
0000
0010
,
0001
0000
0100
0001
0000
0100
0001
0000
,
0100
0010
0100
0000
0000
0010
1000
0010
,
1000
0000
0001
0000
0000
0010
0001
0010
,
0001
0010
0100
1000
,
0001
1000
0001
1000
,
0100
0100
1000
1000
,
0010
0000
0001
1000
0001
0000
0100
0000
,
0001
1000
0100
0001
,
1000
0000
0100
0001
0100
0000
0001
0000
,
1000
0002
0010
0103
,
1001
0110
2000
0000
,
3000
0010
0000
0100
0000
0001
1000
0001
,
0000
0000
0010
0000
1000
0000
0001
0001
,
0000
0010
0000
0100
0000
1000
0000
0001
,
1000
0001
0020
0000
,
0000
0100
0000
0130
0000
1000
0001
1000
,
0000
0000
0010
0000
0100
0000
0001
1000
,
0000
0010
0000
0001
0000
0100
0000
0010
,
0010
0100
0000
1001
0000
0100
0010
0100
,
0000
1001
0000
0110
0000
0000
1000
0000
,
0001
0010
1000
0001
,
0100
0000
0010
0000
1000
0100
1000
0000
,
0000
1001
0000
1001
0000
0010
0100
0010
,
0000
1001
0000
1001
0000
0000
0010
0000
,
1000
0001
0010
0100
,
0001
0000
1000
0000
0010
0010
0020
0000
,
0000
0030
2000
0000
,
0000
0000
0000
3001
0000
0000
0000
0000
,
0000
0010
0010
0010
0000
0000
0100
0000
,
0001
1000
0002
0000
0000
0000
0000
0000
,
0000
0003
0200
0000
,
0000
0000
0000
0310
0000
1000
0001
1000
,
0000
0001
1000
0001
0000
0000
0010
0100
,
0010
0100
0020
0000
0000
0000
0000
0000
,
0000
0030
0001
0100
,
1000
0000
0100
0100
0000
0000
0000
0000
,
0000
1000
0001
1000
0000
0000
0001
0100
,
0000
1001
0010
0001
,
0100
0010
1000
0100
,
0010
0000
0001
0000
0010
0001
0010
0000
,
1000
0001
1000
0000
0100
0000
0001
0000
,
1000
0000
0010
0100
0000
2002
0000
0000
,
0000
0000
3003
0000
0110
0000
0000
1001
,
0000
0000
0110
0000
0000
1001
0000
0000
,
0110
0100
1000
0010
,
0001
0100
1000
0010
,
0001
1000
0100
0001
,
0010
0000
0001
0010
0001
0000
1000
0100
,
1000
0010
1000
0100
,
0001
0010
1000
0100
,
0001
0000
0010
0000
1000
0000
0001
1000
,
0001
0000
0100
1000
0100
0000
0000
0000
,
0000
0010
0000
1001
0000
0000
0000
0000
;

//---------------dance-double - ----------------
#NOTES:
     dance-double:
     :
     Easy:
     5:
     0.185820,0.274481,0.090225,0.112781,0.000000,173.000000,161.000000,12.000000,15.000000,0.000000,0.000000,0.185820,0.274481,0.090225,0.112781,0.000000,173.000000,161.000000,12.000000,15.000000,0.000000,0.000000:
00000000
00000000
00000000
00000000
,
00000000
00000000
00000000
00000000
,
00000000
00000000
00000000
00000000
,
00000000
00000000
00000000
00000000
,
00000000
00010000
00000000
00010000
,
00000000
00001000
00000000
00001000
,
00000000
00010000
00000000
00001000
,
00000000
00000100
00000000
00000010
,
00001000
00000001
00000000
00000001
,
00001000
00000001
00000000
00001000
,
00000100
00001000
00000000
00010000
,
00001000
00010000
00000000
00100000
,
00010000
10000000
00000000
10000000
,
00010000
01000000
00000000
01000000
,
00010000
00100000
00000000
00001000
,
00010000
00001000
00000000
00010000
,
00000100
00001000
00000000
00000010
,
00000100
00000010
00000000
00001000
,
00000001
00001000
00000000
00000001
,
00000100
00000001
00001000
00000001
,
00000010
00000010
00000100
00000100
,
00001000
00000001
00000100
00000000
,
00010000
00010000
00001000
00001000
,
00100000
00100000
00100000
00000000
,
10010000
10010000
20020000
00000000
,
30030000
00100000
20000000
30000000
,
00020000
00030000
00100000
00001000
,
00010000
00000000
00000000
00000100
00000000
00001000
00000000
00000001
,
00000000
00000000
00000020
00000000
,
00000200
00000330
00001000
00000001
,
00010000
00000100
00010000
00001000
,
01000000
00010000
01000000
00100000
,
00000000
10010000
00000000
10010000
00000000
00000000
00000000
00000000
,
00000000
10010000
00000000
10010000
00000000
00000000
10000000
00000000
,
00000000
10000000
10000000
00000000
,
00100000
00000000
00001000
00010000
,
00000000
00011000
00000000
00011000
00000000
00000000
00000000
00000000
,
00000000
00011000
00000000
00011000
00000000
00000000
00001000
00000000
,
00000000
00010000
00001000
00000000
,
00010000
00000000
00100000
00200000
,
00000000
00300000
20000000
00000000
,
00000000
00000000
00000000
30010000
00000000
00000000
00000000
00000000
,
00000000
00010000
00000000
00010000
,
00000000
00002000
00000000
00000000
,
00000000
00003000
00000020
00000000
,
00000000
00000000
00000000
00000130
00000000
00000000
00000000
00000000
,
00000000
00000010
00000000
00000010
,
00000000
00002000
00000000
00000000
,
00000000
00003000
00000200
00000000
,
00000000
00000000
00000000
00010300
00000000
00000000
00000000
00000000
,
00000000
00001000
00000000
00010000
,
00000000
00100000
00000000
01000000
,
00000000
00100000
10000000
01000000
,
00100000
00010000
02000000
03000000
,
00002000
00003000
00010000
00000100
,
00001000
00000001
00002000
00000000
,
00000000
00000000
00003000
00000000
00000010
00000000
00000000
00000010
,
00000000
00000000
00000010
00000000
00000000
00000010
00000000
00000000
,
00000010
00000010
00001000
00000010
,
00000001
00000000
00001000
00000010
,
00000001
00000000
00000100
00010000
,
00001000
00000000
00000100
00010000
,
00001000
00000000
01000000
00010000
,
10000000
00000000
01000000
00010000
,
10000000
00000000
00100000
00010000
,
01000000
00000000
00100000
00000000
,
00000000
00100000
00000000
10010000
00000000
00000000
00000000
00000000
;

//---------------dance-single - ----------------
#NOTES:
     dance-single:
     :
     Easy:
     5:
     0.184746,0.274481,0.090225,0.112781,0.000000,172.000000,160.000000,12.000000,15.000000,0.000000,0.000000,0.184746,0.274481,0.090225,0.112781,0.000000,172.000000,160.000000,12.000000,15.000000,0.000000,0.000000:
0000
0000
0000
0000
,
0000
0000
0000
0000
,
0000
0000
0000
0000
,
0000
0000
0000
0000
,
0000
0001
0000
0001
,
0000
1000
0000
1000
,
0000
0001
0000
1000
,
0000
1000
0000
0001
,
1000
0001
0000
1000
,
0001
1000
0000
1000
,
0100
1000
0000
0001
,
0100
0001
0000
0010
,
0001
1000
0000
0010
,
1000
0001
0000
0100
,
0001
1000
0000
0100
,
1000
0001
0000
0001
,
0100
1000
0000
1000
,
0100
0001
0000
0001
,
0010
1000
0000
1000
,
0010
0001
0000
1000
,
0010
1000
0010
1000
,
0010
0010
0010
0000
,
0010
0001
0010
0001
,
0010
0010
0010
0000
,
1001
1001
2002
0000
,
3003
0010
2000
3000
,
0002
0003
0010
1000
,
0001
0000
0000
0100
0000
1000
0000
0001
,
0000
0000
0020
0000
,
0200
0330
1000
0001
,
0100
0001
1000
0001
,
0100
0001
1000
0010
,
0000
1001
0000
1001
0000
0000
0000
0000
,
0000
1001
0000
1001
0000
0000
1000
0000
,
0000
1000
1000
0000
,
0010
0000
0001
0001
,
0000
1001
0000
1001
0000
0000
0000
0000
,
0000
1001
0000
1001
0000
0000
0001
0000
,
0000
0001
0001
0000
,
0010
0000
0010
0020
,
0000
0030
2000
0000
,
0000
0000
0000
3001
0000
0000
0000
0000
,
0000
0001
0000
0001
,
0000
2000
0000
0000
,
0000
3000
0002
0000
,
0000
0000
0000
1003
0000
0000
0000
0000
,
0000
0010
0000
0010
,
0000
0002
0000
0000
,
0000
0003
0200
0000
,
0000
0000
0000
1300
0000
0000
0000
0000
,
0000
0001
0000
0010
,
0000
0100
0000
1000
,
0000
0001
0010
0100
,
1000
0010
0200
0300
,
2000
3000
0001
0100
,
1000
0100
0002
0000
,
0000
0000
0003
0000
0010
0000
0000
0010
,
0000
0000
0010
0000
0000
0010
0000
0000
,
0010
0010
1000
0010
,
0001
0000
1000
0010
,
0001
0000
0001
0100
,
1000
0000
0001
0100
,
1000
0000
0100
0001
,
1000
0000
0100
0001
,
1000
0000
0010
0001
,
0100
0000
0010
0000
,
0000
0010
0000
1001
0000
0000
0000
0000
;
