#TITLE:PEACE BREAKER;
#SUBTITLE:;
#ARTIST:omnipotenx;
#TITLETRANSLIT:;
#SUBTITLETRANSLIT:;
#ARTISTTRANSLIT:;
#GENRE:;
#CREDIT:;
#MENUCOLOR:;
#METERTYPE:DDR;
#BANNER:PEACE BREAKER.png;
#BACKGROUND:PEACE BREAKER-jacket.png;
#LYRICSPATH:;
#CDTITLE:;
#MUSIC:PEACE BREAKER.mp3;
#OFFSET:-0.758;
#SAMPLESTART:77.127;
#SAMPLELENGTH:12.000;
#SELECTABLE:YES;
#LISTSORT:;
#DISPLAYBPM:80:320;
#BPMS:0.000=160.000,36.000=320.000,52.000=160.000,116.000=320.000,180.000=80.000,196.000=160.000,220.000=80.000,222.000=160.000,224.000=320.000,228.000=160.000,292.000=320.000,419.667=160.000;
#STOPS:419.667=0.313
;
#BGCHANGES:0.000=PEACE BREAKER.avi=1.000=0=0=0,
99999=-nosongbg-=1.000=0=0=0 // don't automatically add -songbackground-
;
#ATTACKS:;

//---------------dance-double - ----------------
#NOTES:
     dance-double:
     :
     Hard:
     18:
     0.977,1.000,0.404,0.285,0.708: // measure 1
00000000
00000000
00000000
00000000
,  // measure 2
00000000
00000000
00000000
00000000
,  // measure 3
00000000
00000000
00000000
00000000
,  // measure 4
00000000
00000000
00000000
00000000
,  // measure 5
00000000
00000000
00000000
00000000
00000000
00000000
00000000
00100000
,  // measure 6
00110000
00000000
00000000
00000000
00000000
00000000
00000000
00010000
,  // measure 7
00011000
00000000
00000000
00000000
00000000
00000000
00000000
00000100
,  // measure 8
00001100
00000000
00000000
00010000
00011000
00000000
00000000
00001000
,  // measure 9
00101000
00000000
00110000
00000000
00020000
02030000
03200000
00300000
,  // measure 10
10000000
01000000
10000000
01000000
10000000
00000000
00010000
01000000
,  // measure 11
00010000
01000000
00010000
00000000
00100000
00001000
00100000
00001000
,  // measure 12
00100000
00000000
00010000
00000010
00010000
00000010
00010000
00000000
,  // measure 13
00001000
00000100
00000010
00000001
00000100
00000010
00001000
00000000
,  // measure 14
00001001
00000000
00000000
00000001
00000010
00000000
00000100
00000000
00000110
00000000
00000000
00001000
00000100
00000000
00000010
00000000
,  // measure 15
00000110
00000000
00000000
00000001
00000100
00000000
00000110
00000000
00002000
00000000
00003200
00000000
00020300
00000000
00032000
00000000
,  // measure 16
00103000
00000000
00000000
00010000
00100000
00000000
01000000
00000000
01100000
00000000
00000000
10000000
01000000
00000000
00100000
00000000
,  // measure 17
01100000
00000000
00000000
00010000
10000000
00000000
01000000
00000000
20000000
00000000
00000000
00000000
30200000
00000000
01000000
00000000
,  // measure 18
01300000
00000000
00000000
10000000
01000000
00000000
00100000
00000000
01100000
00000000
00000000
01000000
00010000
00000000
00100000
00000000
,  // measure 19
00110000
00000000
00000000
00010000
00001000
00000000
00010000
00000000
00000200
00000000
00020300
00000000
00032000
00000000
00203000
00000000
,  // measure 20
00320000
00000000
00030000
00001000
00000200
00000000
00000320
00000000
00000032
00000000
00000000
00000000
00000203
00000000
00000000
00000000
,  // measure 21
00020300
00000000
00032000
00000000
00103000
00010000
01000000
10010000
,  // measure 22
01100000
00000000
00000000
10000000
00100000
00000000
00000000
10000000
00100000
00000000
00000000
10000000
00100000
00000000
00000000
01000000
,  // measure 23
00010000
00100000
00010000
00100000
00001000
00010000
00001000
00010000
00000100
00001000
00000100
00001000
00000010
00000001
00000010
00000001
,  // measure 24
00000100
00000000
00000000
00001000
00000010
00000000
00000000
00001000
00000010
00000000
00000000
00001000
00000010
00000000
00000000
00001000
,  // measure 25
00000100
00010000
00000100
00010000
00001000
00100000
00001000
00100000
00010000
01000000
00010000
01000000
00100000
10000000
01000000
10000000
,  // measure 26
00100000
00000000
00000000
00100000
01000000
00000000
00000000
00100000
01000000
00000000
00000000
00100000
01000000
00000000
00000000
00100000
,  // measure 27
01000000
00100000
01000000
00001000
00100000
00001000
00100000
00000010
00010000
00000010
00010000
00000010
00000100
00000010
00000100
00000010
,  // measure 28
00001000
00000000
00000000
00000100
00010000
00000000
00000000
00000100
00010000
00000000
00000000
00000100
00010000
00000000
00000000
00000100
,  // measure 29
00010000
00001000
00010000
00001000
00100000
00010000
00100000
00010000
10000000
01000000
00100000
00010000
01000000
00100000
00001000
00010000
,  // measure 30
00001000
00010000
00001000
00100000
,  // measure 31
00010000
00100000
00010000
00100000
00010000
01000000
00010000
01000000
,  // measure 32
10000000
01000000
10000000
01000000
00100000
00010000
00100000
00001000
,  // measure 33
00010000
00000100
00010000
00000010
00001000
00000010
00000200
00000000
,  // measure 34
00000301
00000010
00000001
00000100
00000010
00001000
00000100
00010000
,  // measure 35
00001000
01000000
00100000
10000000
01000000
00100000
00010000
01000000
,  // measure 36
00100000
10000000
01000000
00100000
00010000
00100000
00010000
00100000
,  // measure 37
00000100
00000000
00010000
00000010
00001000
00000001
00010000
00000100
,  // measure 38
00100000
00000000
00010000
00000100
00001000
00000010
00010000
00001000
,  // measure 39
01000000
00100000
10000000
00010000
00100000
00001000
00010000
00000010
,  // measure 40
00000100
00000000
00000010
00001000
00000010
00001000
00000100
00001000
,  // measure 41
00000100
00000000
00000000
00010000
00000000
00000000
00001000
00000000
00000000
00100000
00000000
00000000
00010000
00000000
01000000
00000000
00010000
00000000
01000000
00000000
00010000
00000000
01000000
00000000
,  // measure 42
00010000
00100000
00010000
00100000
00010000
00100000
00010000
00100000
,  // measure 43
10000000
01000000
10000000
01000000
10000000
01000000
10000000
01000000
,  // measure 44
00100000
00001000
00010000
00000100
00001000
00000010
00000001
00000100
,  // measure 45
00001000
00100000
00010000
01000000
10000000
00100000
00001000
00010000
,  // measure 46
00011000
00000000
00101000
00000000
00000000
01010000
00000000
00000000
10100000
00000000
00000000
01100000
00000000
00110000
00000000
00011000
,  // measure 47
00000000
00000000
00001010
00000000
00000000
00000011
00000000
00000000
00000110
00000000
00000000
00001010
00000000
00011000
00000000
00110000
,  // measure 48
00000000
00000000
01010000
00000000
00000000
11000000
00000000
00000000
01010000
00000000
00000000
00110000
00000000
00011000
00000000
00001100
,  // measure 49
00000000
00000000
00000000
00000000
00000110
00000000
00000000
00000000
00000000
00000000
00000101
00000000
00000000
00000000
00000000
00000000
00000001
00000000
00000100
00000000
00000010
00000000
00001000
00000000
00000100
00010000
00001000
00100000
00010000
00000000
10000000
00000000
,  // measure 50
02000000
00000000
03100000
00200000
00000000
10300000
20000000
00000000
,  // measure 51
30100000
00200000
00000000
02300000
00000000
03002000
00000000
00013000
,  // measure 52
00010000
00010000
00020000
00000000
00030100
00000200
00000000
00001300
,  // measure 53
00002000
00000000
00003010
00000100
00000010
00000100
00000001
00000020
,  // measure 54
00002000
00000030
00003200
00000000
00000000
00020300
00000000
00000000
,  // measure 55
00031000
00010000
00001000
00100000
00010000
01000000
00100000
10000000
,  // measure 56
00100000
00000000
01000000
00000000
00000000
10010000
00000000
00000000
10000000
00000000
01000000
00000000
00100000
00000000
00010000
00000000
,  // measure 57
00001000
00010000
00001000
00010000
00001000
00010000
00001000
00010000
,  // measure 58
00011000
00000000
00000000
00010000
00000100
00000000
00000000
00000100
00001000
00000000
00000001
00000100
00000001
00000000
00000000
00000001
,  // measure 59
00000100
00000000
00000000
00000100
00000010
00000000
00001000
00000100
00001000
00000000
00000100
00010000
00000100
00000000
00001000
00000000
,  // measure 60
00010000
00000000
00000000
00010000
00001000
00000000
00000000
00001000
00100000
00000000
00010000
01000000
00010000
00000000
00000000
00010000
,  // measure 61
01000000
00000000
00000000
01000000
00100000
00000000
10000000
00100000
10000000
00000000
01000000
00000000
01000000
00100000
01000000
00100000
,  // measure 62
01000000
00000000
00000000
01000000
00010000
00000000
00000000
00010000
00100000
00000000
00001000
00100000
00001000
00000000
00000000
00001000
,  // measure 63
00010000
00000000
00000000
00010000
00000100
00000000
00001000
00000100
00001000
00000000
00000010
00000100
00000010
00000000
00000100
00000000
,  // measure 64
00000000
00000000
00000010
00001000
00000010
00000000
00000000
00000100
00010000
00000000
00001000
00000000
00100000
00001000
00100000
00000000
,  // measure 65
00010000
00100000
00010000
00100000
10000000
01000000
10000000
01000000
00100000
00010000
00100000
00010000
01000000
00100000
10000000
01000000
,  // measure 66
00100000
00000000
00000000
00100000
00001000
00000000
00000000
00001000
00010000
00000000
00001000
00010000
00001000
00000000
00000000
00001000
,  // measure 67
00010000
00000000
00000000
00010000
00000100
00000000
00000100
00001000
00000100
00000000
00000010
00000001
00000010
00000000
00000001
00000000
,  // measure 68
00000100
00000000
00000000
00000100
00001000
00000000
00000000
00001000
00010000
00000000
00100000
00001000
00100000
00000000
00000000
00100000
,  // measure 69
00010000
00000000
00000000
00010000
01000000
00000000
00100000
00000000
10000000
00000000
01000000
00000000
00100000
00010000
00100000
00010000
,  // measure 70
00100000
00000000
00000000
00100000
00001000
00000000
00000000
00001000
00010000
00000000
00001000
00010000
00001000
00000000
00000000
00001000
,  // measure 71
00010000
00000000
00000000
00010000
00000100
00000000
00001000
00000000
00000010
00000000
00000001
00000000
00000100
00000000
00001010
00000000
,  // measure 72
00000100
00000010
00000100
00000010
00000100
00000010
00000200
00000000
00000301
00001000
00000001
00001000
00000001
00001000
00000002
00000000
,  // measure 73
00000103
00000010
00001000
00000100
00010000
00001000
01000000
00100000
10000000
00010000
00000000
10000000
00010000
00000000
10010000
00000000
,  // measure 74
10000000
01000000
10000000
01000000
10000000
01000000
10000000
01000000
,  // measure 75
00010000
00000000
01000000
00000000
00010000
00000000
01000000
00000000
00000000
00010000
00000000
00000000
01000000
00000000
00000000
00010000
00000000
00000000
01000000
00000000
00010000
00000000
01000000
00000000
,  // measure 76
00010000
00000000
00000000
00100000
00000000
00000000
00010000
00000000
00000000
00100000
00000000
00000000
00010000
00000000
00000000
00100000
00000000
00000000
00010000
00000000
00100000
00000000
00010000
00000000
,  // measure 77
00100000
00000000
00000000
00001000
00000000
00000000
00100000
00000000
00000000
00001000
00000000
00000000
00100000
00000000
00000000
00001000
00000000
00000000
00100000
00000000
00001000
00000000
00100000
00000000
,  // measure 78
00001000
00000000
00000000
00010000
00000000
00000000
00000100
00000000
00000000
00010000
00000000
00000000
00000100
00000000
00010000
00000000
00000100
00000000
00010000
00000000
00000000
00000100
00000000
00000000
,  // measure 79
00001000
00000000
00000000
00000010
00000000
00000000
00001000
00000000
00000000
00000001
00000000
00000000
00000100
00000000
00000001
00000000
00000100
00000000
00000001
00000000
00000000
00000100
00000000
00000000
,  // measure 80
00000001
00000000
00000000
00000110
00000000
00001001
00000000
00000010
,  // measure 81
00001000
00000000
00000000
00000100
00000000
00000000
00010000
00000000
00001000
00000000
00010000
00000000
00001000
00000000
00000000
00100000
00000000
00000000
00001000
00000000
00100000
00000000
00001000
00000000
,  // measure 82
00100000
00000000
00100000
00110000
00000000
01000000
01010000
00000000
,  // measure 83
10000000
00000000
10000000
11000000
00000000
01000000
01010000
00000000
,  // measure 84
00110000
00000000
00100000
00101000
00000000
00001000
00011000
00000000
,  // measure 85
00010100
00000000
00010000
00010100
00000000
00001000
00001100
00000000
,  // measure 86
00000010
00000100
00001000
00000100
00010000
00001000
00100000
00010000
,  // measure 87
10000000
00000000
00000000
01000000
00000000
00000000
00100000
00000000
00000000
00010000
00000000
00000000
10000000
00000000
01000000
00000000
10000000
00000000
01000000
00000000
00100000
00000000
00010000
00000000
,  // measure 88
00100000
00000000
00000000
00010000
00000000
00000000
01000000
00000000
00000000
00100000
00000000
00000000
10000000
00000000
00100000
00000000
10000000
00000000
00100000
00000000
10000000
00000000
00100000
00000000
,  // measure 89
10000000
00000000
00000000
01000000
00000000
00000000
00010000
00000000
00000000
00100000
00000000
00000000
00001000
00000000
00010000
00000000
00001000
00000000
00010000
00000000
00001000
00000000
00010000
00000000
,  // measure 90
00001000
00010000
00001000
00010000
00100000
00010000
00100000
00010000
,  // measure 91
10000000
01000000
10000000
01000000
00100000
00010000
00100000
00010000
,  // measure 92
00000100
00001000
00000100
00001000
00000010
00000001
00000010
00000001
,  // measure 93
00000100
00000010
00001000
00000100
00000010
00000001
00000100
00000010
,  // measure 94
00001000
00000100
00001000
00000100
00010000
00001000
00010000
00001000
,  // measure 95
00100000
00010000
00100000
00010000
01000000
00100000
01000000
00100000
,  // measure 96
10000000
01000000
00100000
00010000
01000000
00100000
10000000
01000000
,  // measure 97
00100000
00001000
00010000
00001000
00010000
00000100
00001000
00000010
,  // measure 98
00000100
00000001
00000010
00000100
00000010
00000100
00001000
00000100
,  // measure 99
00010000
00001000
00010000
00001000
01000000
00100000
10000000
01000000
,  // measure 100
00100000
00001000
00010000
00000010
00000100
00000001
00000010
00010000
,  // measure 101
00000100
00000000
00000000
00010000
00000000
00000000
00000100
00000000
00000000
00010000
00000000
00000000
00000100
00000000
00010000
00000000
00000100
00000000
00010000
00000000
00000100
00000000
00010000
00000000
,  // measure 102
00000100
00000000
00000000
00001000
00000000
00000000
00000100
00000000
00000000
00001000
00000000
00000000
00000100
00000000
00001000
00000000
00000100
00000000
00001000
00000000
00000100
00000000
00001000
00000000
,  // measure 103
00000100
00001000
00000100
00000000
00010000
00001000
00010000
00000000
,  // measure 104
00100000
00010000
00100000
00000000
10000000
01000000
10000000
00000000
,  // measure 105
10000000
01000000
00100000
00010000
01000000
00100000
10000000
01000000
00100000
00010000
01000000
00000000
,  // measure 106
20020000
00000000
00000000
00000000
,  // measure 107
00000000
00000000
00000000
30030000
;

//---------------dance-single - ----------------
#NOTES:
     dance-single:
     :
     Hard:
     18:
     0.982,1.000,0.419,0.255,0.824:
0000
0000
0000
0000
,
0000
0000
0000
0000
,
0000
0000
0000
0000
,
0000
0000
0000
0000
,
0000
0000
0000
0000
0000
0000
0000
0010
,
1010
0000
0000
0000
0000
0000
0000
1000
,
1100
0000
0000
0000
0000
0000
0000
0001
,
0101
0000
0000
1000
1100
0000
0000
0100
,
0110
0000
1010
0000
2000
3002
0203
0300
,
1000
0001
0100
0001
0100
0000
0010
0001
,
1000
0001
1000
0000
0001
0100
0010
0100
,
0010
0000
0100
0010
1000
0010
1000
0000
,
0100
0001
0010
1000
0001
0010
0100
0000
,
1100
0000
0000
1000
0010
0000
0001
0000
0011
0000
0000
0100
0001
0000
0010
0000
,
0011
0000
0000
1000
0001
0000
0011
0000
0100
0010
0001
0010
0100
1000
0100
0000
,
0110
0000
0000
1000
0010
0000
0001
0000
0011
0000
0000
0100
0001
0000
0010
0000
,
0011
0000
0000
1000
0100
0000
0001
0000
0010
0100
0010
0000
1000
0001
1000
0000
,
0001
0000
0000
0100
0001
0000
0010
0000
0011
0000
0000
0001
1000
0000
0010
0000
,
1010
0000
0000
1000
0100
0000
1000
0000
0002
0000
2003
0000
3200
0000
0320
0000
,
2030
0000
3000
0100
0002
0000
0023
0000
2030
0000
0000
0000
3002
0000
0000
0000
,
2003
0000
3200
0000
0310
1000
0001
1100
,
0011
0000
0000
0100
0010
0000
0000
0100
0010
0000
0000
0100
0010
0000
0000
1000
,
0100
0010
0100
0010
0001
0100
0001
0100
1000
0001
1000
0001
0010
0100
0010
0100
,
1000
0000
0000
0001
0010
0000
0000
0001
0010
0000
0000
0001
0010
0000
0000
0001
,
1000
0100
1000
0100
0001
0010
0001
0010
0100
1000
0100
1000
0010
0001
1000
0001
,
0010
0000
0000
0010
1000
0000
0000
0010
1000
0000
0000
0010
1000
0000
0000
0010
,
1000
0010
1000
0001
0010
0001
0010
0100
1000
0100
1000
0100
0001
0100
0001
0100
,
0010
0000
0000
0001
1000
0000
0000
0001
1000
0000
0000
0001
1000
0000
0000
0001
,
1000
0010
1000
0010
0100
1000
0100
1000
0001
0010
0100
1000
0010
0100
0001
1000
,
0001
0010
0100
1000
,
1000
0100
1000
0100
1000
0010
1000
0010
,
0001
0000
0000
0001
0000
0000
0100
0010
0100
0010
0100
0000
,
0010
0000
0010
0100
0001
0100
0002
0000
,
0103
0000
0000
0010
0000
0000
0100
0000
0000
0001
0000
0000
1000
0000
0100
0000
1000
0000
0100
0000
1000
0000
0100
0000
,
1000
0100
0022
0000
,
0033
0000
0000
0000
0000
0000
0010
0000
0001
0000
0010
0000
0001
0000
0010
0000
0001
0000
0010
0000
0000
0001
0000
0000
,
1000
0000
0000
0000
0000
0000
1000
0000
0100
0000
1000
0000
0100
0000
1000
0000
0100
0000
1000
0000
0000
0010
0000
0000
,
0100
0000
1000
0010
0001
0010
1000
0001
,
0010
0000
0000
0100
0000
0000
0001
0000
0000
1000
0000
0000
0001
0000
1000
0000
0001
0000
1000
0000
0001
0000
1000
0000
,
0000
0000
0010
0001
0010
0001
0100
0001
,
0100
0000
0000
1000
0000
0000
0001
0000
0000
0100
0000
0000
0001
0000
0000
0010
0000
0000
0001
0000
1000
0000
0001
0000
,
1000
0000
0000
0100
0000
0000
1000
0000
0000
0100
0000
0000
1000
0000
0100
0000
1000
0000
0100
0000
1000
0000
0000
0000
,
0001
0000
0000
0010
0000
0000
0001
0000
0000
0010
0000
0000
0001
0000
0010
0000
0001
0000
0010
0000
0001
0000
0000
0000
,
0100
0001
1000
0100
0001
0010
0100
1000
,
0001
0100
1000
0010
0001
0100
0001
1000
,
1001
0000
0101
0000
0000
0011
0000
0000
1100
0000
0000
1010
0000
1001
0000
0101
,
0000
0000
0110
0000
0000
1010
0000
0000
0011
0000
0000
0110
0000
0101
0000
1001
,
0000
0000
0011
0000
0000
0110
0000
0000
0011
0000
0000
1001
0000
0101
0000
0110
,
0000
0000
0000
0000
1010
0000
0000
0000
0000
0000
0011
0000
0000
0000
0000
0000
0001
0000
0010
0000
1000
0000
0100
0000
0010
0001
0100
0000
0001
0000
1000
0000
,
0020
0000
1030
2000
0000
3100
0200
0000
,
1300
2000
0000
3020
0000
0230
0000
0301
,
0001
0001
0002
0000
0013
0020
0000
0130
,
0200
0000
1300
0010
1000
0010
0001
2000
,
0200
3000
0320
0000
0000
0032
0000
0000
,
0103
0001
0100
1000
0001
0010
1000
0100
,
0100
0000
0010
0000
0000
1001
0000
0000
0001
0000
0010
0000
0100
0000
1000
0000
,
0001
1000
0001
1000
0001
1000
0001
1000
,
1001
0000
0000
1000
0010
0000
0000
0010
0001
0000
1000
0010
1000
0000
0000
1000
,
0010
0000
0000
0010
0100
0000
0001
0010
0001
0000
0010
1000
0010
0000
0001
0000
,
1000
0000
0000
1000
0001
0000
0000
0001
0100
0000
1000
0010
1000
0000
0000
1000
,
0010
0000
0000
0010
0100
0000
0001
0100
0001
0000
0010
0000
0010
0100
0010
0100
,
0010
0000
0000
0010
1000
0000
0000
1000
0100
0000
0001
0100
0001
0000
0000
0001
,
1000
0000
0000
1000
0010
0000
0001
0010
0001
0000
0100
0010
0100
0000
0010
0000
,
0000
0000
0100
0001
0100
0000
0000
0010
1000
0000
0001
0000
0100
0001
0100
0000
,
1000
0100
1000
0100
0001
0010
0001
0010
0100
1000
0100
1000
0010
0100
0001
0010
,
0100
0000
0000
0100
0001
0000
0000
0001
1000
0000
0001
1000
0001
0000
0000
0001
,
1000
0000
0000
1000
0010
0000
0010
0001
0010
0000
0100
1000
0100
0000
1000
0000
,
0010
0000
0000
0010
0001
0000
0000
0001
1000
0000
0100
0001
0100
0000
0000
0100
,
1000
0000
0000
1000
0010
0000
0100
0000
0001
0000
0010
0000
0100
1000
0100
1000
,
0100
0000
0000
0100
0001
0000
0000
0001
1000
0000
0001
1000
0001
0000
0000
0001
,
1000
0000
0000
1000
0010
0000
0001
0000
0100
0000
1000
0000
0010
0000
0101
0000
,
0010
0100
0010
0100
0010
0100
0020
0000
1030
0001
1000
0001
1000
0001
2000
0000
,
3010
0100
0001
0010
1000
0001
0100
0010
1000
0001
0000
1000
0001
0000
0101
0000
,
0001
1000
0001
1000
0001
1000
0001
1000
,
0100
0000
1000
0000
0100
0000
1000
0000
0000
0100
0000
0000
1000
0000
0000
0100
0000
0000
1000
0000
0000
0000
0000
0000
,
0100
0000
0000
0010
0000
0000
0100
0000
0000
0010
0000
0000
0100
0000
0000
0010
0000
0000
0100
0000
0010
0000
0100
0000
,
0010
0000
0000
0001
0000
0000
0010
0000
0000
0001
0000
0000
0010
0000
0000
0001
0000
0000
0010
0000
0001
0000
0010
0000
,
0001
0000
0000
0100
0000
0000
0010
0000
0000
0100
0000
0000
0010
0000
0100
0000
0010
0000
0100
0000
0000
0010
0000
0000
,
0001
0000
0000
1000
0000
0000
0001
0000
0000
0100
0000
0000
0010
0000
0100
0000
0010
0000
0100
0000
0000
0010
0000
0000
,
0100
0000
0000
1010
0000
0101
0000
1000
,
0001
0000
0000
0010
0000
0000
0100
0000
0001
0000
0100
0000
0001
0000
0000
0010
0000
0000
0001
0000
0010
0000
0001
0000
,
0010
0000
0010
0110
0000
1000
1100
0000
,
0001
0000
0001
1001
0000
1000
1100
0000
,
0110
0000
0010
0011
0000
0001
0101
0000
,
0110
0000
0100
0110
0000
0001
0011
0000
,
1000
0010
0001
0010
0100
0001
0010
0100
,
0001
0000
0000
1000
0000
0000
0010
0000
0000
0100
0000
0000
0001
0000
1000
0000
0001
0000
1000
0000
0010
0000
0100
0000
,
0010
0000
0000
0100
0000
0000
1000
0000
0000
0010
0000
0000
0001
0000
0010
0000
0001
0000
0010
0000
0001
0000
0010
0000
,
0001
0000
0000
1000
0000
0000
0100
0000
0000
0010
0000
0000
0001
0000
0100
0000
0001
0000
0100
0000
0001
0000
0100
0000
,
0001
0100
0001
0100
0010
0100
0010
0100
,
0001
1000
0001
1000
0010
0100
0010
0100
,
0010
0001
0010
0001
1000
0100
1000
0100
,
0010
1000
0001
0010
1000
0100
0010
1000
,
0001
0010
0001
0010
0100
0001
0100
0001
,
0010
0100
0010
0100
1000
0010
1000
0010
,
0001
1000
0010
0100
1000
0010
0001
1000
,
0010
0000
0000
0001
0000
0000
0100
0000
0000
0001
0000
0000
0100
0000
0000
0010
0000
0000
0001
0000
1000
0000
0001
0000
,
1000
0100
1000
0010
1000
0010
0001
0010
,
0100
0001
0100
0001
1000
0010
0001
1000
,
0010
0000
0100
0000
0010
0000
0100
0000
0000
1000
0000
0000
0010
0000
0000
0100
0000
0000
1000
0000
0000
0100
0000
0000
,
0010
0000
0000
0100
0000
0000
0010
0000
0000
0100
0000
0000
0010
0000
0100
0000
0010
0000
0100
0000
0010
0000
0100
0000
,
0010
0001
0010
0001
0010
1000
0010
1000
,
0010
0000
0100
0000
0010
0000
0100
0000
0010
0000
0000
0000
0100
0000
0000
0001
0000
0000
0100
0000
0010
0000
0100
0000
,
0010
0100
0010
0000
0001
1000
0001
0000
,
0001
0010
0100
1000
0010
0100
0001
0010
0100
1000
0010
0100
,
2002
0000
0000
0000
,
0000
0000
0000
3003
;

//---------------dance-double - ----------------
#NOTES:
     dance-double:
     :
     Medium:
     14:
     0.646,0.759,0.195,0.232,0.307:
00000000
00000000
00000000
00000000
,
00000000
00000000
00000000
00000000
,
00000000
00000000
00000000
00000000
,
00000000
00000000
00000000
00000000
,
00000000
00000000
00000000
00000000
,
10100000
00000000
00000000
00000000
,
01100000
00000000
00000000
00000000
,
01010000
00000000
01010000
00000000
,
00011000
00000000
00011000
00000000
00010000
00001000
00010000
00000000
,
00010000
00001000
00000000
00010000
00000100
00000000
00001000
00000010
,
00000000
00000100
00000001
00000000
00000010
00001000
00000000
00000100
,
00010000
00000000
00001000
00100000
00000000
00010000
01000000
00000000
,
10000000
00100000
01000000
00010000
,
11000000
00000000
00000000
10000000
01000000
00000000
00000000
01000000
00100000
00000000
00000000
00100000
00010000
00000000
00000000
00010000
,
01000000
00000000
00000000
01000000
00001000
00000000
00000000
00001000
00020000
00000000
00000000
00000000
00030000
00000000
00000000
00000000
,
00010000
00000000
00000000
00010000
00000100
00000000
00000000
00000100
00001000
00000000
00000000
00001000
00000010
00000000
00000000
00000010
,
00000100
00000000
00000000
00000100
00000001
00000000
00000000
00000001
00000020
00000000
00000000
00000000
00000030
00000000
00000100
00000000
,
00000010
00000000
00000000
00000010
00001000
00000000
00000000
00001000
00000100
00000000
00000000
00000100
00010000
00000000
00000000
00010000
,
00001000
00000000
00000000
00001000
01000000
00000000
00000000
01000000
00200000
00000000
00000000
00000000
01300000
00000000
00000000
00000000
,
10000000
00020000
01030000
00200000
,
20300000
32000000
03002000
00023000
,
00031000
00022000
00000000
00033000
,
00001000
00001000
00100000
00100000
00010000
00010000
01000000
00100000
,
10000000
22000000
00000000
33000000
,
10000000
10000000
00100000
00100000
01000000
01000000
00010000
00100000
,
00001000
00022000
00000000
00033000
,
00010000
00010000
00000100
00000100
00001000
00000010
00001000
00000010
,
00001000
00002200
00000000
00003300
,
00000100
00000100
00010000
00010000
00001000
00010000
00001000
00000000
,
00010000
01000000
00010000
01000000
,
00100000
10000000
00100000
10000000
,
01000000
00100000
02000000
03000000
,
00010000
01000000
00001000
00100000
,
00001000
00010000
00000200
00000300
,
00001000
00000100
00000020
00000030
,
00001000
00000020
00000000
00000030
,
00000001
00000200
00000000
00000300
,
00000010
00001000
00000100
00010000
,
00001000
00000000
00010000
00001000
00020000
00000000
00000000
00000000
,
00030000
00001000
00100000
00010000
,
01000000
00100000
10000000
01000000
,
00010000
10000000
00010000
10000000
00020000
00000000
00000000
00000000
,
01030000
00100000
01000000
00100000
02000000
00000000
00000000
00000000
,
03010000
00100000
00001000
00010000
,
00000010
00000100
00000001
00001000
,
00001001
00000000
00000010
00000000
00000000
00001000
00000000
00000000
00000100
00000000
00000000
00010000
00000000
00001000
00000000
00010000
,
00000000
00000000
00001000
00000000
00000000
00100000
00000000
00000000
00010000
00000000
00000000
01000000
00000000
00100000
00000000
01000000
,
00000000
00000000
10000000
00000000
00000000
00100000
00000000
00000000
01000000
00000000
00000000
00010000
00000000
00100000
00000000
00010000
,
00000000
00000000
00100000
00000000
00000000
00001000
00000000
00000000
00010000
00000000
00000000
00000100
00000000
00001000
00000000
00000010
,
00000100
00000000
00001010
00000000
00000000
00001100
00000000
00000000
,
00001010
00000000
00000000
00010000
00000000
00001000
00000000
00010000
,
00000000
00000000
01010000
00000000
00000000
00110000
00000000
00000000
,
01010000
00000000
00000000
00100000
00000000
00001000
00000000
00100000
,
00000000
00000000
00010100
00000000
00000000
00001100
00000000
00000000
,
00010100
00000000
00000000
00001000
00000000
00000010
00000000
00000100
,
00000000
00000000
00000010
00000000
00000000
00000100
00000000
00000000
00000010
00000000
00000000
00000000
00000000
00000000
00000100
00000000
,
00000000
00000001
00000100
00001000
,
00001010
00000000
00000000
00000010
00001000
00000000
00000000
00001000
00000100
00000000
00000000
00000100
00010000
00000000
00000000
00010000
,
00001000
00000000
00000000
00001000
00100000
00000000
00000000
00100000
00010000
00000000
00000000
00010000
01000000
00000000
00100000
00000000
,
10000000
00000000
00000000
10000000
01000000
00000000
00000000
01000000
00100000
00000000
00000000
00100000
00010000
00000000
00000000
00010000
,
01000000
00000000
00000000
01000000
00001000
00000000
00000000
00001000
00010000
00000000
00000000
00010000
00000010
00000000
00000100
00000000
,
00001000
00000000
00000000
00001000
00000010
00000000
00000000
00000010
00000100
00000000
00000000
00000100
00000001
00000000
00000000
00000001
,
00000010
00000000
00000000
00000010
00001000
00000000
00000000
00001000
00000100
00000000
00000000
00000100
00010000
00000000
00001000
00000000
,
00010000
00000000
00000000
00010000
00001000
00000000
00000000
00001000
00100000
00000000
00000000
00100000
00010000
00000000
00000000
00010000
,
01000000
00000000
00000000
01000000
00100000
00000000
10000000
00000000
01000000
00000000
10010000
00000000
01000000
00000000
10010000
00000000
,
01000000
00000000
00000000
01000000
10000000
00000000
00000000
10000000
00100000
00000000
00000000
00100000
00010000
00000000
00000000
00010000
,
01000000
00000000
00000000
01000000
00001000
00000000
00000000
00001000
00010000
00000000
00000000
00010000
00000100
00000000
00000000
00000100
,
00001000
00000000
00000000
00001000
00000010
00000000
00000000
00000010
00000001
00000000
00000000
00000001
00000100
00000000
00000000
00000100
,
00000010
00000000
00000000
00000010
00001000
00000000
00000000
00001000
00000100
00000000
00010000
00000000
00001000
00000000
00100000
00000000
,
00010000
00000000
00000000
00010000
01000000
00000000
00000000
01000000
10000000
00000000
00000000
10000000
00100000
00000000
00000000
00100000
,
01000000
00000000
00000000
01000000
00010000
00000000
00100000
00000000
00010000
00000000
00100000
00000000
00001000
00000000
00010000
00000000
,
00001000
00000000
00010000
00001000
00020000
00000000
00000000
00000000
00031000
00000000
00010000
00000100
00020000
00000000
00000000
00000000
,
00030010
00000100
00001000
00000001
00000010
00000100
00001000
00000010
,
00001000
00001000
00001000
00001000
,
00010000
00010000
00010000
00010000
,
01000000
01000000
01000000
01000000
,
00100000
00100000
00100000
00100000
,
10000000
01000000
10000000
00000000
01000000
00000000
01000000
00000000
,
00100000
00010000
00100000
00000000
01000000
00000000
01000000
00000000
,
00100000
00001000
00100000
00000000
00010000
00000000
00010000
00000000
,
00001000
00010000
00001000
00000000
00010000
00000000
00010000
00000000
,
00000100
00001000
00000100
00001000
00000100
00000000
00001000
00000000
,
00000010
00000100
00000010
00000100
00000010
00000000
00000100
00000000
,
00000001
00000010
00000001
00000010
00000001
00000000
00000100
00000000
,
00000010
00001000
00000010
00001000
00000010
00000000
00000100
00000000
,
00010000
00001000
00010000
00001000
00010000
00001000
00010000
00000000
,
00100000
00001000
00100000
00001000
00100000
00001000
00100000
00000000
,
00100000
00010000
01000000
00000000
00100000
10000000
01000000
00000000
,
10000000
01000000
00100000
00010000
01000000
00000000
10010000
00000000
,
10000000
01000000
10000000
01000000
10000000
00000000
00100000
00010000
,
00100000
00010000
00100000
00000000
01000000
00100000
01000000
00100000
,
01000000
00000000
00100000
00001000
00100000
00001000
00100000
00000000
,
00010000
00001000
00010000
00000000
00001000
00000010
00001000
00000000
,
00000001
00000010
00000001
00000010
00000001
00000000
00000100
00001000
,
00000100
00001000
00000100
00000000
00000010
00000100
00000010
00000100
,
00000010
00000000
00000100
00010000
00000100
00010000
00000100
00000000
,
00001000
00010000
00001000
00000000
00010000
01000000
00010000
00000000
,
01000000
00100000
10000000
01000000
00100000
00000000
01000000
00100000
,
01000000
00100000
00010000
00000000
00100000
00001000
00010000
00001000
,
00010000
00000000
00010000
00000100
00010000
00000100
00001000
00000000
,
00000010
00001000
00000100
00000000
00000010
00000001
00000100
00000000
,
00000001
00001000
00000001
00001000
00000001
00001000
00000020
00000000
,
00001030
00000100
00001000
00000100
00001000
00000100
00002000
00000000
,
00003100
00010000
00001000
00000000
00010000
00001000
00100000
00000000
,
00010000
00100000
01000000
10000000
00010000
00100000
01000000
10000000
,
20020000
00000000
00000000
00000000
,
00000000
00000000
00000000
30030000
;

//---------------dance-single - ----------------
#NOTES:
     dance-single:
     :
     Medium:
     14:
     0.646,0.759,0.195,0.232,0.307:
0000
0000
0000
0000
,
0000
0000
0000
0000
,
0000
0000
0000
0000
,
0000
0000
0000
0000
,
0000
0000
0000
0000
,
1001
0000
0000
0000
,
1100
0000
0000
0000
,
0110
0000
0110
0000
,
0011
0000
0011
0000
1000
0001
1000
0000
,
0010
0001
0000
0010
1000
0000
0001
0100
,
0000
1000
0010
0000
0100
0001
0000
1000
,
0010
0000
0001
0100
0000
0010
1000
0000
,
0001
0100
1000
0010
,
1001
0000
0000
0001
1000
0000
0000
1000
0010
0000
0000
0010
0001
0000
0000
0001
,
1000
0000
0000
1000
0100
0000
0000
0100
0002
0000
0000
0000
0003
0000
0000
0000
,
0001
0000
0000
0001
1000
0000
0000
1000
0100
0000
0000
0100
0010
0000
0000
0010
,
1000
0000
0000
1000
0001
0000
0000
0001
0020
0000
0000
0000
0030
0000
1000
0000
,
0010
0000
0000
0010
0100
0000
0000
0100
1000
0000
0000
1000
0001
0000
0000
0001
,
0100
0000
0000
0100
1000
0000
0000
1000
0020
0000
0000
0000
1030
0000
0000
0000
,
0100
0002
1003
0020
,
0230
2300
3200
0302
,
0103
0022
0000
0033
,
0001
0001
1000
1000
0010
0010
0100
1000
,
0001
0202
0000
0303
,
0001
0001
1000
1000
0100
0100
0010
1000
,
0001
0022
0000
0033
,
0010
0010
0100
0100
0001
1000
0001
1000
,
0001
2002
0000
3003
,
0100
0100
0010
0010
0001
0010
0001
0000
,
0100
0001
0100
0001
,
1000
0010
1000
0010
,
0001
1000
0002
0003
,
0100
0001
0010
1000
,
0010
0100
0002
0003
,
0010
0001
2000
3000
,
0010
2000
0000
3000
,
0100
0002
0000
0003
,
1000
0010
0001
0100
,
0010
0000
0100
0010
0200
0000
0000
0000
,
0300
0010
1000
0100
,
0001
1000
0010
0001
,
0100
0010
0100
0010
0200
0000
0000
0000
,
0301
1000
0001
1000
0002
0000
0000
0000
,
0103
1000
0010
0100
,
1000
0001
0100
0010
,
0011
0000
1000
0000
0000
0001
0000
0000
0100
0000
0000
0010
0000
0001
0000
0010
,
0000
0000
0001
0000
0000
1000
0000
0000
0010
0000
0000
0100
0000
1000
0000
0100
,
0000
0000
0001
0000
0000
1000
0000
0000
0100
0000
0000
0010
0000
1000
0000
0010
,
0000
0000
1000
0000
0000
0001
0000
0000
0010
0000
0000
0100
0000
0001
0000
1000
,
0100
0000
1001
0000
0000
0101
0000
0000
,
1001
0000
0000
0010
0000
0001
0000
0010
,
0000
0000
0110
0000
0000
1010
0000
0000
,
0110
0000
0000
1000
0000
0001
0000
1000
,
0000
0000
0110
0000
0000
0101
0000
0000
,
0110
0000
0000
0001
0000
1000
0000
0100
,
0000
0000
1000
0000
0000
0100
0000
0000
1000
0000
0000
0000
0000
0000
0100
0000
,
0000
0010
0100
0001
,
1001
0000
0000
1000
0001
0000
0000
0001
0100
0000
0000
0100
0010
0000
0000
0010
,
0001
0000
0000
0001
1000
0000
0000
1000
0010
0000
0000
0010
0100
0000
1000
0000
,
0001
0000
0000
0001
0100
0000
0000
0100
1000
0000
0000
1000
0010
0000
0000
0010
,
0100
0000
0000
0100
0001
0000
0000
0001
0010
0000
0000
0010
1000
0000
0100
0000
,
0001
0000
0000
0001
1000
0000
0000
1000
0100
0000
0000
0100
0010
0000
0000
0010
,
1000
0000
0000
1000
0001
0000
0000
0001
0100
0000
0000
0100
0010
0000
0001
0000
,
0010
0000
0000
0010
0001
0000
0000
0001
1000
0000
0000
1000
0010
0000
0000
0010
,
0100
0000
0000
0100
1000
0000
0001
0000
0100
0000
0011
0000
0100
0000
0011
0000
,
0100
0000
0000
0100
0001
0000
0000
0001
1000
0000
0000
1000
0010
0000
0000
0010
,
0100
0000
0000
0100
0001
0000
0000
0001
0010
0000
0000
0010
0100
0000
0000
0100
,
0001
0000
0000
0001
1000
0000
0000
1000
0010
0000
0000
0010
0100
0000
0000
0100
,
1000
0000
0000
1000
0001
0000
0000
0001
0100
0000
0010
0000
0001
0000
1000
0000
,
0010
0000
0000
0010
0100
0000
0000
0100
0001
0000
0000
0001
1000
0000
0000
1000
,
0100
0000
0000
0100
0010
0000
1000
0000
0010
0000
1000
0000
0001
0000
0010
0000
,
0001
0000
0010
0001
0020
0000
0000
0000
0031
0000
0010
0100
0020
0000
0000
0000
,
1030
0100
0001
0010
1000
0100
0001
1000
,
0001
0001
0001
0001
,
0010
0010
0010
0010
,
0100
0100
0100
0100
,
1000
1000
1000
1000
,
0001
0100
0001
0000
0100
0000
0100
0000
,
1000
0010
1000
0000
0100
0000
0100
0000
,
1000
0001
1000
0000
0010
0000
0010
0000
,
0001
0010
0001
0000
0010
0000
0010
0000
,
0100
0001
0100
0001
0100
0000
0001
0000
,
1000
0100
1000
0100
1000
0000
0100
0000
,
0010
1000
0010
1000
0010
0000
0100
0000
,
1000
0001
1000
0001
1000
0000
0100
0000
,
0010
0001
0010
0001
0010
0001
0010
0000
,
1000
0001
1000
0001
1000
0001
1000
0000
,
1000
0010
0100
0000
1000
0001
0100
0000
,
0001
0100
1000
0010
0100
0000
0011
0000
,
0001
0100
0001
0100
0001
0000
1000
0010
,
1000
0010
1000
0000
0100
1000
0100
1000
,
0100
0000
1000
0001
1000
0001
1000
0000
,
0010
0001
0010
0000
0001
1000
0001
0000
,
0010
1000
0010
1000
0010
0000
0100
0001
,
0100
0001
0100
0000
1000
0100
1000
0100
,
1000
0000
0100
0010
0100
0010
0100
0000
,
0001
0010
0001
0000
0010
0100
0010
0000
,
0100
1000
0001
0100
1000
0000
0100
1000
,
0100
1000
0010
0000
1000
0001
0010
0001
,
0010
0000
0010
0100
0010
0100
0001
0000
,
1000
0001
0100
0000
1000
0010
0100
0000
,
0010
0001
0010
0001
0010
0001
2000
0000
,
3001
0100
0001
0100
0001
0100
0002
0000
,
0103
0010
0001
0000
0010
0001
1000
0000
,
0010
1000
0100
0001
0010
1000
0100
0001
,
2002
0000
0000
0000
,
0000
0000
0000
3003
;

//---------------dance-single - ----------------
#NOTES:
     dance-single:
     :
     Beginner:
     9:
     0.250,0.320,0.262,0.142,0.000:
0000
0000
0000
0000
,
0000
0000
0000
0000
,
0000
0000
0000
0000
,
0000
0000
0000
0000
,
0000
0000
0000
0000
,
1001
0000
0000
0000
,
1001
0000
0000
0000
,
0010
0000
0010
0000
,
0010
0010
0010
0010
,
0020
0000
0000
0000
,
0000
0000
0000
0000
,
0000
0000
0000
0000
,
0000
0000
0000
0030
,
0010
0000
0100
0000
,
0010
0000
0200
0300
,
0100
0000
0010
0000
,
0100
0000
0020
0030
,
0010
0000
0100
0000
,
0010
0000
0200
0300
,
0100
0200
0000
0000
,
0000
0000
0000
0300
,
0000
0020
0000
0030
,
0010
0010
0010
0000
,
0000
0200
0000
0300
,
0100
0100
0100
0000
,
0000
0002
0000
0003
,
0001
0001
0001
0000
,
0000
2000
0000
3000
,
1000
1000
1000
0000
,
0010
0000
0010
0000
,
0010
0000
0010
0000
,
0100
0000
0100
0000
,
0100
0000
0100
0000
,
0001
0000
0002
0003
,
0001
0000
0001
0000
,
0000
2000
3000
0000
,
1000
0000
2000
3000
,
0000
0000
0010
0000
,
0010
0000
0020
0030
,
0000
0000
0100
0000
,
0100
0000
0100
0000
,
1001
0000
0000
0000
,
1001
0000
0000
0000
,
0110
0000
0110
0000
,
0110
0000
0110
0000
,
0200
0000
0300
0000
,
0002
0000
0003
0000
,
2000
0000
3000
0000
,
0020
0000
0030
0000
,
0100
0100
0000
0100
,
0000
0100
0000
0100
,
0000
0010
0000
0010
,
0000
0010
0000
0010
,
0000
1000
0000
1000
,
0000
0001
0000
0001
,
0000
0000
0010
0000
,
0010
0000
0000
0000
,
0010
0010
0000
0010
,
0000
0100
0000
0100
,
0000
0001
0000
0001
,
0000
1000
0000
1000
,
0000
0001
0000
0001
,
0000
0010
0000
0010
,
0000
0100
0000
0100
,
0000
1000
0000
1000
,
0000
0001
0000
1000
,
0000
0001
0000
1000
,
0000
0010
0000
0100
,
0000
0010
0000
0100
,
0000
1000
0000
0100
,
0000
1000
0000
0100
,
0000
0001
0000
0100
,
0100
0100
0100
0100
,
0100
0000
0010
0000
,
0100
0000
0010
0000
,
1000
0000
0100
0000
,
1000
0000
0100
0000
,
0001
0000
0100
0000
,
0001
0000
0100
0000
,
1000
0000
0100
0000
,
0001
0000
1001
0000
,
0010
0000
0010
0000
,
0010
0000
1001
0000
,
0100
0000
0100
0000
,
0100
0000
1001
0000
,
0010
0010
0010
0000
,
0100
0100
0100
0000
,
0001
0001
0001
0000
,
1000
1000
1000
0000
,
0000
0000
0011
0000
,
0000
1100
0000
0000
,
0011
0000
0000
1100
,
0000
0011
0000
1100
,
0000
0000
0110
0000
,
0000
1001
0000
0000
,
0110
0000
0000
1001
,
0000
0110
0000
1001
,
0000
0000
1100
0000
,
0000
0011
0000
0000
,
1100
0000
0000
0110
,
0000
1001
0000
0110
,
0000
0000
1001
0000
,
0000
0110
0000
0000
,
1001
0000
0000
1001
,
0000
1001
0000
0000
,
2002
0000
0000
0000
,
0000
0000
0000
3003
;

//---------------dance-double - ----------------
#NOTES:
     dance-double:
     :
     Easy:
     11:
     0.419,0.520,0.240,0.277,0.004:
00000000
00000000
00000000
00000000
,
00000000
00000000
00000000
00000000
,
00000000
00000000
00000000
00000000
,
00000000
00000000
00000000
00000000
,
00000000
00000000
00000000
00000000
00000000
00000000
00000000
00100000
,
01000000
00000000
00000000
00000000
00000000
00000000
00000000
00100000
,
01000000
00000000
00000000
00000000
00000000
00000000
00000000
00100000
,
01000000
00000000
00000000
00100000
01000000
00000000
00000000
00100000
,
01000000
00000000
01000000
00000000
01000000
01000000
01000000
00000000
,
20000000
00000000
30000000
00020000
,
00000000
00030000
20000000
00000000
,
30000000
00020000
00000000
00030000
,
00100000
00000000
00001000
00000000
,
00010000
00001000
00010000
00001000
,
00010000
00001000
00020200
00030300
,
00001000
00000010
00001000
00000010
,
00001000
00000010
00002200
00003300
,
00010000
00001000
00010000
00001000
,
00010000
00001000
00022000
00033000
,
00100000
00010000
00100000
00010000
,
01000000
10000000
22000000
33000000
,
01000000
00020000
00000000
00030000
,
00100000
00100000
00100000
00100000
,
00001000
00020000
00000000
00030000
,
00001000
00001000
00000100
00000100
,
00000010
00000002
00000000
00000003
,
00000100
00000100
00000010
00000010
,
00001000
00000200
00000000
00000300
,
00010000
00001000
00020000
00030000
,
00001000
00000000
00100000
00000000
,
00010000
00000000
01000000
00000000
,
00100000
00000000
20000000
30000000
,
01000000
00000000
00100000
00000000
,
00010000
00000000
00200000
00300000
,
00000000
00001000
00010000
00000000
,
00000000
00000200
00000000
00000300
,
00001000
00000000
00000020
00000000
,
00000030
00000100
00000001
00001000
,
00000010
00000100
00000020
00000000
,
00000030
00000000
00000001
00000000
,
00001000
00000000
00000010
00000000
,
00002000
00003000
00000000
00000000
,
00020000
00030000
00000000
00000000
,
00011000
00000000
00011000
00000000
,
00011000
00000000
00011000
00000000
,
00021000
00000000
00000000
00000000
,
00032000
00000000
00203000
00320000
,
02030000
00000000
03200000
00000000
,
20300000
32000000
03200000
00320000
,
01030000
00000000
10010000
00000000
00000000
01000000
00000000
00000000
,
00010000
00000000
00000000
00100000
00000000
00001000
00000000
00100000
,
00000000
00000000
00001000
00000000
00000000
00010000
00000000
00000000
,
00000100
00000000
00000000
00001000
00000000
00000010
00000000
00000001
,
00000000
00000000
00000100
00000000
00000000
00000010
00000000
00000000
,
00001000
00000000
00000000
00000100
00000000
00010000
00000000
00001000
,
00000000
00000000
00100000
00000000
00000000
00010000
00000000
00000000
01000000
00000000
00000000
00000000
00000000
00000000
00000000
00000000
,
00200000
00000000
00300000
00000000
,
10010000
00000000
11000000
00000000
01000000
00010000
00000000
00010000
,
01000000
00000000
01000000
10000000
00000000
00100000
00000000
01000000
,
00010000
00000000
00100000
00000000
00001000
00010000
00000000
00010000
,
00001000
00000000
00010000
00000100
00000000
00000100
00000000
00001000
,
00000100
00000000
00000100
00000000
00000010
00000100
00000000
00000100
,
00000010
00000000
00000100
00000001
00000000
00000001
00000000
00000001
,
00001000
00000000
00000010
00000000
00001000
00000100
00000000
00000100
,
00001000
00000000
00001000
00010000
00000000
00011000
00000000
00010000
,
00001000
00000000
00100000
00010000
00000000
00100000
00010000
00000000
,
10000000
01000000
00000000
10000000
00100000
01000000
00000000
00100000
,
00010000
00000000
00100000
00001000
00000000
00100000
00001000
00000000
,
00010000
00000100
00000000
00010000
00000100
00001000
00000000
00000010
,
00000001
00000000
00000100
00000010
00000000
00000100
00000010
00000000
,
00000001
00001000
00000000
00000001
00001000
00000100
00000000
00001000
,
00000001
00000000
00001000
00000100
00000000
00001000
00000100
00000000
,
00100000
00010000
00000000
00100000
00000000
00010000
01000000
00000000
,
10000000
00100000
10000000
00100000
,
01000000
00100000
01000000
00100000
,
01000000
00010000
01000000
00010000
,
00100000
00001000
00100000
00001000
,
00010000
00000010
00010000
00000010
,
00000100
00010000
00001000
01000000
,
00010000
01000000
00100000
01000000
,
00100000
10000000
01000000
10000000
,
00010000
10000000
00001000
01000000
,
00000100
00010000
00000010
00001000
,
00000100
00000010
00000100
00000010
,
00000001
00000100
00000001
00000100
,
00000001
00000010
00000100
00001000
,
00000010
00000100
00010000
00001000
,
00010000
00001000
00100000
00010000
,
01000000
00100000
10000000
10010000
,
01000000
00000000
01100000
00000000
,
00000000
10010000
00000000
00000000
,
01100000
00000000
00000000
11000000
,
00000000
01100000
00000000
00110000
,
00000000
00000000
00101000
00000000
,
00000000
00011000
00000000
00000000
,
00001100
00000000
00000000
00000110
,
00000000
00001100
00000000
00011000
,
00000000
00000000
00110000
00000000
,
00000000
01100000
00000000
00000000
,
10100000
00000000
00000000
01100000
,
00000000
00110000
00000000
00001000
,
00010000
00001000
00010000
00001000
,
00010000
00000100
00010000
00000100
,
00001000
00000010
00001000
00000000
00000010
00001000
00000010
00000000
,
00001000
00000100
00001000
00000100
00001000
00000100
00001000
00000100
,
00002002
00000000
00000000
00000000
,
00000000
00000000
00000000
00003003
;

//---------------dance-single - ----------------
#NOTES:
     dance-single:
     :
     Easy:
     11:
     0.427,0.520,0.270,0.307,0.004:
0000
0000
0000
0000
,
0000
0000
0000
0000
,
0000
0000
0000
0000
,
0000
0000
0000
0000
,
0000
0000
0000
0000
0000
0000
0000
0010
,
0100
0000
0000
0000
0000
0000
0000
0010
,
0100
0000
0000
0000
0000
0000
0000
0010
,
0100
0000
0000
0010
0100
0000
0000
0010
,
0100
0000
0100
0000
0100
0100
0100
0000
,
2000
0000
3000
0002
,
0000
0003
2000
0000
,
3000
0002
0000
0003
,
0010
0000
1000
0000
,
0001
1000
0001
1000
,
0001
1000
0220
0330
,
1000
0010
1000
0010
,
1000
0010
2002
3003
,
0001
1000
0001
1000
,
0001
1000
0220
0330
,
0010
0001
0010
0001
,
0100
1000
0220
0330
,
0100
2002
0000
3003
,
0010
0010
0010
0010
,
0100
2002
0000
3003
,
1000
1000
0100
0100
,
0010
0220
0000
0330
,
0100
0100
0010
0010
,
1000
0220
0000
0330
,
0001
1000
0002
0003
,
0001
0000
1000
0000
,
0010
0000
0100
0000
,
1000
0000
0002
0003
,
0100
0000
1000
0000
,
0010
0000
2000
3000
,
0000
0001
0010
0000
,
0000
0200
0000
0300
,
0001
0000
2000
0000
,
3000
0100
0010
0001
,
1000
0100
2000
0000
,
3000
0000
0010
0000
,
0001
0000
1000
0000
,
0002
0003
0000
0000
,
0020
0030
0000
0000
,
1001
0000
1001
0000
,
1001
0000
1001
0000
,
2001
0000
0000
0000
,
3002
0000
2003
3020
,
0230
0000
2300
0000
,
3002
0203
2300
3020
,
0130
0000
1001
0000
0000
0100
0000
0000
,
0010
0000
0000
1000
0000
0001
0000
1000
,
0000
0000
0001
0000
0000
0010
0000
0000
,
0100
0000
0000
0001
0000
1000
0000
0010
,
0000
0000
0100
0000
0000
1000
0000
0000
,
0001
0000
0000
0100
0000
0010
0000
0001
,
0000
0000
1000
0000
0000
0010
0000
0000
0100
0000
0000
0000
0000
0000
0000
0000
,
2000
0000
3000
0000
,
1001
0000
0110
0000
0100
0010
0000
0010
,
0100
0000
0100
0001
0000
1000
0000
0100
,
0010
0000
1000
0000
0001
0010
0000
0010
,
0001
0000
0010
0100
0000
0100
0000
0001
,
0100
0000
0100
0000
1000
0100
0000
0100
,
1000
0000
0100
0010
0000
0010
0000
0010
,
0001
0000
1000
0000
0001
0100
0000
0100
,
0001
0000
0001
0010
0000
1001
0000
0010
,
0001
0000
1000
0010
0000
1000
0010
0000
,
0001
0100
0000
0001
1000
0100
0000
1000
,
0010
0000
1000
0001
0000
1000
0001
0000
,
0010
0100
0000
0010
0100
0001
0000
1000
,
0010
0000
0100
1000
0000
0100
1000
0000
,
0010
0001
0000
0010
0001
0100
0000
0001
,
0010
0000
0001
0100
0000
0001
0100
0000
,
1000
0010
0000
1000
0000
0010
0100
0000
,
0001
1000
0001
1000
,
0100
1000
0100
1000
,
0100
0010
0100
0010
,
1000
0001
1000
0001
,
0010
1000
0010
1000
,
0100
0010
0001
0100
,
0010
0100
1000
0100
,
1000
0001
0100
0001
,
0010
0001
0001
0100
,
0100
0010
1000
0001
,
0100
1000
0100
1000
,
0010
0100
0010
0100
,
0010
1000
0100
0001
,
1000
0100
0010
0001
,
0010
0001
1000
0010
,
0100
1000
0001
0011
,
0100
0000
1100
0000
,
0000
0011
0000
0000
,
1100
0000
0000
0101
,
0000
1100
0000
1010
,
0000
0000
1001
0000
,
0000
0011
0000
0000
,
0101
0000
0000
1100
,
0000
0101
0000
0011
,
0000
0000
1010
0000
,
0000
1100
0000
0000
,
1001
0000
0000
1100
,
0000
1010
0000
0001
,
0010
0001
0010
0001
,
0010
0100
0010
0100
,
0001
1000
0001
0000
1000
0001
1000
0000
,
0001
0100
0001
0100
0001
0100
0001
0000
,
2002
0000
0000
0000
,
0000
0000
0000
3003
;
