#TITLE:PASSION;
#SUBTITLE:;
#ARTIST:KAN TAKAHIKO;
#TITLETRANSLIT:;
#SUBTITLETRANSLIT:;
#ARTISTTRANSLIT:;
#GENRE:;
#CREDIT:;
#BANNER:PASSION.png;
#BACKGROUND:PASSION-bg.png;
#LYRICSPATH:;
#CDTITLE:;
#MUSIC:PASSION.ogg;
#OFFSET:-1.460000;
#SAMPLESTART:43.339920;
#SAMPLELENGTH:15.999999;
#SELECTABLE:YES;
#BPMS:0.000000=105.000000
,64.000000=110.000000
,68.000000=115.000000
,72.000000=120.000000
;
#STOPS:
;
#BGCHANGES:;
#KEYSOUNDS:;
#ATTACKS:;

//---------------dance-single - ----------------
#NOTES:
     dance-single:
     :
     Hard:
     13:
     0.544058,0.587923,0.047605,0.031737,0.753747,480.000000,474.000000,6.000000,4.000000,0.000000,0.000000,0.544058,0.587923,0.047605,0.031737,0.753747,480.000000,474.000000,6.000000,4.000000,0.000000,0.000000:
0000
0000
0000
0000
,
0000
0000
0000
0000
,
0000
0000
0000
0000
,
0000
0000
0000
0000
,
0000
0000
0000
0000
,
0001
0000
1000
0001
0000
1000
0000
0000
0010
0000
1000
0010
0000
1000
0000
0000
,
0001
0000
0100
0001
0000
0100
0000
0000
0010
0000
1000
0010
0000
1000
0000
0000
,
0001
0000
0100
0001
0000
1000
0001
0000
1000
0000
0001
1000
0000
0001
1000
0000
,
0010
0000
0100
0010
0000
0100
0010
0000
0100
0000
0001
0100
0000
0001
0100
0000
,
0010
0000
1000
0000
0001
0000
1000
0000
0001
0100
0000
0100
0000
0100
0001
0000
,
1000
0000
0010
0000
0100
0000
0010
0000
1000
0001
0000
0100
0000
0001
1000
0000
,
0010
0000
0100
0000
0010
0000
0100
0000
0001
1000
0000
1000
0000
1000
0001
0000
,
0100
0000
0010
0000
1000
0000
0010
0000
0100
0000
0001
0100
0000
0001
0100
0000
,
0001
0000
1000
0000
0010
0000
1000
0000
0001
1000
0000
0010
0000
1000
0001
0000
,
1000
0000
0001
0000
0010
0000
0001
0000
0100
0001
0000
0100
0000
0001
0100
0000
,
0001
1000
0100
1000
0001
0100
0001
1000
,
0001
0100
0010
0100
0001
1000
0100
1000
,
0001
0001
1000
1000
0010
0010
0100
0100
,
0001
1000
0001
1000
0001
1000
0001
0000
0100
0010
0100
0001
1000
0000
0110
0000
,
1001
0000
0000
1000
0000
0001
1000
0001
0000
1000
0000
1000
0000
0001
1000
0001
,
0100
0000
0000
0001
0000
0001
1000
0001
0000
0100
0000
0100
0000
0100
0010
0100
,
0010
0000
0000
1000
0000
0100
1000
0100
0000
0010
0000
0010
0000
1000
0010
1000
,
0010
0000
0000
0100
0000
0001
0100
0001
0000
1000
0001
1000
0000
0100
0010
0000
,
0001
0000
0000
1000
0000
1000
0010
1000
0000
0100
0000
0001
0000
0100
0001
0100
,
0001
0000
0000
0010
0000
1000
0010
1000
0000
0001
0000
0100
0000
0001
0100
0001
,
1000
0000
0000
0001
0000
0100
0010
0100
0000
0001
0000
1000
0000
0100
0010
0100
,
0010
0000
1000
0001
0000
0010
1000
0010
1000
0100
1000
0100
1000
0000
0001
0000
,
0100
0000
0010
0000
1000
0001
1000
0000
0001
0100
0001
0100
0001
0000
0010
0000
,
1000
0000
0010
0000
0100
0010
0100
0000
1000
0100
1000
0100
1000
0010
0000
0000
,
0100
0000
0001
0000
0100
0001
0100
0000
0010
1000
0010
1000
0010
0000
0100
0000
,
0001
0000
1000
0000
0001
1000
0001
0000
0100
0010
0100
0010
1000
0010
0100
0000
,
0001
0000
0100
0000
0001
1000
0000
0000
0001
0100
0001
0100
0000
0001
0010
0000
,
0001
0000
1000
0000
0001
1000
0000
0000
0001
0100
0001
0100
0001
0100
0000
0000
,
1000
0000
0010
0000
0100
0010
0000
1000
0010
0000
0100
0010
0000
1000
0010
0000
,
0001
0000
0100
0000
0010
0000
1000
0000
0001
0100
0001
0000
1000
0100
1000
0000
,
0220
0000
0000
0330
,
0001
0000
0000
0010
0000
0100
0000
0000
1000
0000
0000
0100
0000
0010
0000
0000
,
0001
0000
0000
0100
0000
0010
0000
0000
1000
0000
0000
0010
0000
0100
0000
0000
,
0001
0000
0000
1000
0000
1000
0000
0000
0010
0000
0000
1000
0000
1000
0000
0000
,
0100
0000
0000
0001
0000
0001
0000
0000
1000
0000
0000
0001
0000
0001
0000
0000
,
1000
0000
0010
0000
0100
0000
0010
0000
1000
0000
0000
0001
0000
0100
0001
0000
,
1000
0010
0100
0010
1000
0001
0100
0001
,
1000
0000
0010
0000
0100
0000
0010
0000
1000
0000
0000
0001
0000
0001
0100
0000
,
0010
1000
0100
1000
0001
0001
0100
0001
,
0100
0010
1000
0010
0100
0001
1000
0001
,
0100
0010
1000
0010
0100
0001
1000
0001
,
0100
0000
0001
1000
0000
0001
0100
0000
0001
1000
0000
0001
1000
0000
0001
0000
,
0100
0000
0100
0000
0100
0000
0100
0000
0001
1000
0001
1000
0001
0000
0110
0000
,
1001
0000
0000
0010
0000
0010
1000
0010
0100
0010
0000
0010
0000
0010
0100
0001
,
1000
0000
0000
0001
0000
0001
0100
0001
0000
0001
0000
0001
1000
0001
0100
0001
,
0010
0000
0000
0001
0100
0000
0001
0100
0001
0000
0000
0010
1000
0000
0010
0100
,
0010
0000
0000
1000
0100
0000
1000
0000
0010
0100
0000
0001
0000
1000
0001
0000
,
0100
0000
0000
0010
1000
0010
0100
0010
0000
0100
0000
0001
0100
0010
0100
0001
,
0100
0000
0000
0001
0000
1000
0001
1000
0000
0010
0000
0100
0001
0100
0010
0100
,
0001
0000
0000
1000
0001
1000
0001
0100
0000
0001
0000
0001
1000
0001
1000
0000
,
0010
0000
1000
0000
0100
0000
0001
0000
1000
0100
1000
0100
0010
0001
0010
0000
,
2002
0000
0000
0000
,
3003
0000
0000
0000
;

//---------------dance-double - ----------------
#NOTES:
     dance-double:
     :
     Hard:
     13:
     0.500987,0.520085,0.023803,0.023803,0.757714,442.000000,439.000000,3.000000,3.000000,0.000000,0.000000,0.500987,0.520085,0.023803,0.023803,0.757714,442.000000,439.000000,3.000000,3.000000,0.000000,0.000000:
00000000
00000000
00000000
00000000
,
00000000
00000000
00000000
00000000
,
00000000
00000000
00000000
00000000
,
00000000
00000000
00000000
00000000
,
00000000
00000000
00000000
00000000
,
00010000
00000000
00001000
00010000
00000000
00001000
00000000
00000000
00100000
00000000
00001000
00100000
00000000
00001000
00000000
00000000
,
00010000
00000000
01000000
00010000
00000000
01000000
00000000
00000000
00100000
00000000
10000000
00100000
00000000
10000000
00000000
00000000
,
00010000
00000000
01000000
00010000
00000000
10000000
00010000
00000000
10000000
00000000
00010000
10000000
00000000
00010000
10000000
00000000
,
00100000
00000000
01000000
00100000
00000000
01000000
00100000
00000000
01000000
00000000
00010000
01000000
00000000
00010000
01000000
00000000
,
00100000
00000000
00001000
00000000
00010000
00000000
00001000
00000000
00010000
00000100
00000000
00000100
00000000
00000100
00010000
00000000
,
00000100
00000000
00000010
00000000
00000100
00000000
00000010
00000000
00001000
00000001
00000000
00000100
00000000
00000001
00001000
00000000
,
00000010
00000000
00000100
00000000
00000010
00000000
00000100
00000000
00000001
00001000
00000000
00001000
00000000
00001000
00000001
00000000
,
00000100
00000000
00000010
00000000
00010000
00000000
00001000
00000000
01000000
00000000
00010000
01000000
00000000
00010000
01000000
00000000
,
00010000
00000000
10000000
00000000
00100000
00000000
10000000
00000000
00010000
10000000
00000000
00100000
00000000
10000000
00010000
00000000
,
10000000
00000000
00010000
00000000
00100000
00000000
00001000
00000000
00010000
00001000
00000000
00010000
00000000
00001000
00010000
00001000
,
00010000
00001000
00010000
00000100
00001000
00000010
00000100
00000001
,
00001000
00000100
00010000
00001000
00100000
00010000
10000000
01000000
,
00100000
00010000
00001000
00000100
00000010
00000001
00001000
00000010
,
00001000
00000000
00000100
00000000
00010000
00000000
00001000
00000000
01000000
00010000
01000000
00010000
01000000
00000000
01100000
00000000
,
10010000
00000000
00000000
10000000
00000000
00010000
10000000
00010000
00000000
10000000
00000000
10000000
00000000
00010000
10000000
00010000
,
01000000
00000000
00000000
00010000
00000000
00010000
00100000
00010000
00000000
00001000
00000000
00001000
00000000
00001000
00010000
00001000
,
00010000
00000000
00000000
00000100
00000000
00001000
00000100
00001000
00000000
00000010
00000000
00000010
00000000
00001000
00000001
00001000
,
00000001
00000000
00000000
00000100
00000000
00000010
00001000
00000010
00000000
00000100
00001000
00000100
00000000
00001000
00000100
00000000
,
00010000
00000000
00000000
00001000
00000000
00001000
00100000
00001000
00000000
01000000
00000000
00010000
00000000
01000000
00010000
01000000
,
00010000
00000000
00000000
00100000
00000000
10000000
00100000
10000000
00000000
00010000
00000000
01000000
00000000
00010000
01000000
00010000
,
10000000
00000000
00000000
00010000
00000000
01000000
00100000
01000000
00000000
00010000
00000000
00100000
00000000
00001000
00100000
00001000
,
00100000
00000000
00000000
00010000
00000000
00001000
00010000
00001000
00000000
00000100
00001000
00000100
00001000
00000000
00000010
00000000
,
00001000
00000000
00000100
00000000
00010000
00000100
00000000
00010000
00000100
00000000
00010000
00000100
00000000
00010000
00000100
00000000
,
00000000
00000000
00100000
00000000
00001000
00100000
00000000
00000000
00010000
00000000
00100000
00000000
01000000
00100000
00000000
00000000
,
00000000
00000000
10000000
00000000
00100000
10000000
00000000
00100000
10000000
00000000
00100000
10000000
00000000
00100000
10000000
00000000
,
00000000
00000000
01000000
00000000
00010000
00100000
00000000
00000000
00100000
00000000
00001000
00000000
00010000
00000000
00001000
00000000
,
00010000
00000000
00001000
00000000
00010000
00000100
00000000
00010000
00000100
00000000
00001000
00000100
00000000
00001000
00000100
00000000
,
00000000
00000000
00001000
00000000
00000010
00000100
00000000
00000000
00000001
00000000
00001000
00000000
00000010
00000100
00000000
00000000
,
00000000
00000000
00000001
00000000
00001000
00000001
00000000
00000100
00000010
00000000
00001000
00000001
00000000
00000100
00000010
00000000
,
00001000
00000001
00000000
00000100
00000010
00000000
00000000
00000010
00000000
00000000
00010000
00000000
00001000
00000000
01000000
00000000
,
00200000
00000000
00000000
00300000
,
00010000
00000000
00000000
00100000
00000000
01000000
00000000
00000000
10000000
00000000
00000000
01000000
00000000
00100000
00000000
00000000
,
00010000
00000000
00000000
00001000
00000000
00000100
00000000
00000000
00000010
00000000
00000000
00000001
00000000
00000100
00000000
00000000
,
00001000
00000000
00000000
00010000
00000000
00100000
00000000
00000000
01000000
00000000
00000000
10000000
00000000
01000000
00000000
00000000
,
00100000
00000000
00000000
00010000
00000000
00100000
00000000
00000000
00001000
00000000
00000000
00010000
00000000
00000010
00000000
00000000
,
00000100
00000000
00000001
00000000
00001000
00000000
00000001
00000000
00000100
00000000
00000000
00000010
00000000
00000000
00001000
00000000
,
00000000
00000000
00000100
00000000
00010000
00000000
00000100
00000000
00010000
00001000
00000000
00010000
00000000
00001000
00010000
00000000
,
00000000
00000000
00100000
00000000
00010000
00000000
00100000
00000000
00010000
00000000
00000000
00010000
00000000
01000000
00010000
00000000
,
00000000
00000000
10000000
00000000
00100000
00000000
01000000
00000000
00010000
00000000
10000000
00010000
00000000
10000000
00010000
00000000
,
01000000
00100000
01000000
00100000
00000000
00001000
00010000
00001000
,
00000000
00000100
00000010
00000100
00000000
00000001
00001000
00000001
,
00001000
00000000
00000100
00001000
00000000
00000100
00001000
00000000
00010000
00001000
00000000
00010000
00001000
00000000
00100000
00000000
,
00010000
00000000
00010000
00000000
00010000
00000000
00010000
00000000
00100000
00001000
00100000
00001000
00100000
00000000
00010000
00000000
,
00001000
00000000
00000000
00100000
00000000
00100000
00001000
00100000
00010000
00100000
00000000
00100000
00000000
00100000
00010000
01000000
,
00010000
00000000
00000000
00010000
00000000
00010000
01000000
00010000
00000000
00010000
00000000
00010000
10000000
00010000
01000000
00010000
,
00100000
00000000
00000000
00010000
01000000
00000000
00010000
01000000
00010000
00000000
00000000
00100000
10000000
00000000
00100000
01000000
,
00100000
00000000
00000000
10000000
01000000
00000000
10000000
00000000
00100000
01000000
00000000
00010000
00000000
10000000
00010000
00000000
,
01000000
00000000
00000000
00100000
00000000
00001000
00000000
00010000
00000000
00000100
00000000
00001000
00000000
00000010
00001000
00000010
,
00001000
00000000
00000000
00000001
00000000
00000100
00000000
00000010
00000000
00001000
00000100
00001000
00000000
00000100
00010000
00000000
,
00001000
00000000
00000000
00010000
00000000
00001000
00000000
00100000
00000000
00010000
00000000
01000000
00000000
00100000
10000000
00100000
,
00000000
00000000
01000000
00100000
00000000
01000000
00100000
01000000
00000000
10000000
01000000
10000000
00000000
00010000
00100000
00000000
,
20020000
00000000
00000000
00000000
,
30030000
00000000
00000000
00000000
;

//---------------dance-single - ----------------
#NOTES:
     dance-single:
     :
     Medium:
     9:
     0.310566,0.361798,0.039671,0.166618,0.218190,274.000000,269.000000,5.000000,21.000000,0.000000,0.000000,0.310566,0.361798,0.039671,0.166618,0.218190,274.000000,269.000000,5.000000,21.000000,0.000000,0.000000:
0000
0000
0000
0000
,
0000
0000
0000
0000
,
0000
0000
0000
0000
,
0000
0000
0000
0000
,
0000
0000
0000
0000
,
0002
0000
2003
0000
,
3020
0000
0230
0000
,
0302
0000
2003
0000
,
3020
0000
0230
0000
,
0300
0000
0001
0000
1000
0000
0001
0000
0100
0000
0000
0100
0000
0000
0100
0000
,
0000
0000
1000
0000
0001
0000
1000
0000
0010
0000
0000
0010
0000
0000
0010
0000
,
0000
0000
0001
0000
1000
0000
0001
0000
0100
0000
0000
0100
0000
0000
0100
0000
,
0000
0000
0001
0000
1000
0000
0001
0000
0010
0000
0000
0010
0000
0000
0010
0000
,
0000
0000
1000
0000
0100
0000
1000
0000
0001
0000
0000
0001
0000
0000
0001
0000
,
0000
0000
1000
0000
0010
0000
1000
0000
0001
0000
0000
0001
0000
0000
0001
0000
,
0000
1000
0010
1000
0000
0001
0100
0001
,
0000
1000
0001
1000
0000
0001
1000
0001
,
0000
0100
0010
0100
0010
0100
0010
0100
,
0001
0001
0001
0001
2000
0000
3010
0010
,
1001
0000
0000
0001
0000
0000
0001
0000
1000
0000
0000
0001
0000
0000
0001
0000
,
1000
0000
0000
0010
0000
0000
0010
0000
1000
0000
0000
0001
0000
0000
0100
0000
,
0010
0000
0000
0001
0000
0000
0001
0000
1000
0000
0000
0001
0000
0000
0001
0000
,
1000
0000
0000
0100
0000
0000
0100
0000
0000
0001
0000
1000
0000
0000
0001
0000
,
0100
0000
0000
0001
0000
0000
0010
0000
0100
0000
0000
0001
0000
0000
1000
0000
,
0010
0000
0000
0100
0000
0000
0001
0000
0000
1000
0000
0010
0000
0000
1000
0000
,
0001
0000
0000
1000
0000
0000
1000
0000
0010
0000
0000
1000
0000
0000
1000
0000
,
0100
0000
0000
1000
0000
0000
1000
0000
0000
0010
0000
0100
0010
0000
0100
0000
,
0001
0000
1000
0000
0000
0001
0000
0000
0100
0000
0000
0100
0000
0000
0100
0000
,
0000
0000
1000
0000
0000
0001
0000
0000
0010
0000
0010
0000
0010
0000
0000
0000
,
0000
0000
0001
0000
0000
1000
0000
0000
0100
0000
0000
0100
0000
0000
0100
0000
,
0000
0000
1000
0000
0000
0001
0000
0000
0100
0000
0010
0000
0100
0000
0010
0000
,
0000
0000
0001
0000
0000
1000
0000
0000
0010
0000
0000
0010
0000
0000
0110
0000
,
0000
0000
1000
0000
0000
0001
0000
0000
0100
0000
0100
0000
0100
0000
0000
0000
,
0000
0000
0001
0000
0000
1000
0000
0000
0010
0000
0000
0010
0000
0000
0010
0000
,
0000
0100
0000
0000
0100
0000
0000
0100
0000
0000
0001
0000
1000
0000
0001
0000
,
2000
0000
0000
3000
,
0002
0000
2003
0000
,
3020
0000
0230
0000
,
0302
0000
2003
0000
,
3020
0000
0230
0000
,
0300
0000
0001
0000
1000
0000
0001
0000
0100
0000
0000
0100
0000
0000
0100
0000
,
0000
0000
1000
0000
0001
0000
1000
0000
0010
0000
0000
0010
0000
0000
0010
0000
,
0000
0000
0001
0000
1000
0000
0001
0000
0100
0000
0000
0100
0000
0000
0100
0000
,
0000
0000
1000
0000
0001
0000
1000
0000
0010
0000
0000
0010
0000
0000
0010
0000
,
0000
0001
1000
0001
0000
0001
0010
0001
,
0000
1000
0001
1000
0000
1000
0010
1000
,
0001
0100
0001
0100
0010
1000
0010
1000
,
0100
0100
0100
0100
0002
0000
1003
0100
,
1000
0000
0000
0010
0000
0000
0010
0000
0100
0000
0000
0000
1001
0000
0000
0000
,
0001
0000
0000
0100
0000
0000
0100
0000
0010
0000
0000
0000
1001
0000
0000
0000
,
0100
0000
0000
0010
0000
0000
0010
0000
1000
0000
0000
0010
0000
0000
0010
0000
,
0100
0000
0000
0010
0000
0000
0010
0000
0100
0000
0000
0001
0000
0000
0001
0000
,
1000
0000
0000
0100
0000
0000
0100
0000
0010
0000
0000
0001
0000
0000
0001
0000
,
1000
0000
0000
0100
0000
0000
0100
0000
0010
0000
0000
0001
0000
0000
0001
0000
,
0100
0000
0000
0100
0000
0000
0100
0000
0010
0000
0000
0010
0000
0000
0010
0000
,
1000
0000
0000
1000
0000
0000
1000
0000
0001
0000
0000
0000
1000
0000
0001
0000
,
2002
0000
0000
0000
,
3003
0000
0000
0000
;

//---------------dance-double - ----------------
#NOTES:
     dance-double:
     :
     Medium:
     9:
     0.304899,0.361798,0.023803,0.166618,0.218190,269.000000,266.000000,3.000000,21.000000,0.000000,0.000000,0.304899,0.361798,0.023803,0.166618,0.218190,269.000000,266.000000,3.000000,21.000000,0.000000,0.000000:
00000000
00000000
00000000
00000000
,
00000000
00000000
00000000
00000000
,
00000000
00000000
00000000
00000000
,
00000000
00000000
00000000
00000000
,
00000000
00000000
00000000
00000000
,
20000000
00000000
32000000
00000000
,
03200000
00000000
00320000
00000000
,
00032000
00000000
00003200
00000000
,
00000320
00000000
00000032
00000000
,
00000003
00000000
00000001
00000000
00001000
00000000
00000001
00000000
00000100
00000000
00000000
00000100
00000000
00000000
00000100
00000000
,
00000000
00000000
00001000
00000000
00000001
00000000
00001000
00000000
00000010
00000000
00000000
00000010
00000000
00000000
00000010
00000000
,
00000000
00000000
00010000
00000000
00001000
00000000
00010000
00000000
01000000
00000000
00000000
01000000
00000000
00000000
01000000
00000000
,
00000000
00000000
00010000
00000000
10000000
00000000
00010000
00000000
00100000
00000000
00000000
00100000
00000000
00000000
00100000
00000000
,
00000000
00000000
10000000
00000000
01000000
00000000
10000000
00000000
00010000
00000000
00000000
00010000
00000000
00000000
00010000
00000000
,
00000000
00000000
00100000
00000000
00001000
00000000
00100000
00000000
00001000
00000000
00000000
00001000
00000000
00000000
00001000
00000000
,
00010000
00010000
00001000
00001000
,
00000010
00000010
00000100
00000100
,
00001000
00000100
00001000
00000100
00010000
00001000
00010000
00001000
,
00010000
00010000
00010000
00010000
00002000
00000000
00103000
00100000
,
00010000
00000000
00000000
00010000
00000000
00000000
00010000
00000000
01000000
00000000
00000000
01000000
00000000
00000000
01000000
00000000
,
10000000
00000000
00000000
10000000
00000000
00000000
10000000
00000000
00010000
00000000
00000000
00010000
01000000
00000000
01000000
00000000
,
00010000
00000000
00000000
00010000
00000000
00000000
00010000
00000000
00100000
00000000
00000000
00100000
00000000
00000000
00100000
00000000
,
00001000
00000000
00000000
00001000
00000000
00000000
00001000
00000000
00000000
00010000
00000000
00000000
00010000
00000000
00010000
00000000
,
00000100
00000000
00000000
00001000
00000000
00000000
00001000
00000000
00000010
00000000
00000000
00000001
00000000
00000000
00000001
00000000
,
00000010
00000000
00000000
00001000
00000000
00000000
00001000
00000000
00000100
00000000
00000000
00001000
00000000
00000000
00001000
00000000
,
00010000
00000000
00000000
01000000
00000000
00000000
00010000
00000000
10000000
00000000
00000000
00100000
00000000
00000000
10000000
00000000
,
00100000
00000000
00000000
00100000
00000000
00000000
01000000
00000000
10000000
00010000
10000000
00010000
10000000
00000000
00100000
00000000
,
00000000
00000000
10000000
00000000
00000000
00010000
00000000
00000000
01000000
00000000
00000000
01000000
00000000
00000000
01000000
00000000
,
00000000
00000000
10000000
00000000
00000000
00010000
00000000
00000000
00100000
00000000
00100000
00000000
00100000
00000000
00000000
00000000
,
00000000
00000000
00001000
00000000
00000000
00010000
00000000
00000000
00001000
00000000
00000000
00001000
00000000
00000000
00001000
00000000
,
00000000
00000000
00010000
00000000
00000000
00000100
00000000
00000000
00001000
00000000
00000100
00000000
00001000
00000000
00000100
00000000
,
00000000
00000000
00000001
00000000
00000000
00001000
00000000
00000000
00000010
00000000
00000000
00000010
00000000
00000000
00000010
00000000
,
00000000
00000000
00000001
00000000
00000000
00001000
00000000
00000000
00000100
00000000
00000100
00000000
00000100
00000000
00000000
00000000
,
00000000
00000000
00010000
00000000
00000000
00001000
00000000
00000000
00010000
00000000
00000000
00010000
00000000
00000000
00010000
00000000
,
00000000
00001000
00000000
00000000
00100000
00000000
00000000
00010000
00000000
00000000
00100000
00000000
00010000
00000000
00100000
00000000
,
00020000
00000000
00000000
00030000
,
20000000
00000000
32000000
00000000
,
03200000
00000000
00320000
00000000
,
00032000
00000000
00003200
00000000
,
00000320
00000000
00000032
00000000
,
00000003
00000000
00000001
00000000
00001000
00000000
00000001
00000000
00000100
00000000
00000000
00000100
00000000
00000000
00000100
00000000
,
00000000
00000000
00001000
00000000
00000001
00000000
00001000
00000000
00000010
00000000
00000000
00000010
00000000
00000000
00000010
00000000
,
00000000
00000000
00010000
00000000
00001000
00000000
00010000
00000000
01000000
00000000
00000000
01000000
00000000
00000000
01000000
00000000
,
00000000
00000000
00010000
00000000
10000000
00000000
00010000
00000000
00100000
00000000
00000000
00100000
00000000
00000000
00100000
00000000
,
00000000
00010000
10000000
00010000
00000000
00010000
00100000
00010000
,
00000000
00100000
00001000
00100000
00000000
00010000
00001000
00010000
,
00000100
00000000
00000000
00000100
00000000
00000000
00001000
00000000
00000000
00000010
00000000
00000000
00000010
00000000
00000100
00000000
,
00000001
00000001
00000001
00000001
00002000
00000000
00003010
00000010
,
00000100
00000000
00000000
00001000
00000000
00000000
00001000
00000000
00000100
00000000
00000000
00000000
00011000
00000000
00000000
00000000
,
00010000
00000000
00000000
00001000
00000000
00000000
00001000
00000000
00100000
00000000
00000000
00000000
10010000
00000000
00000000
00000000
,
01000000
00000000
00000000
00100000
00000000
00000000
00100000
00000000
10000000
00000000
00000000
00100000
00000000
00000000
00100000
00000000
,
01000000
00000000
00000000
00100000
00000000
00000000
00100000
00000000
01000000
00000000
00000000
00010000
00000000
00000000
00100000
00000000
,
00001000
00000000
00000000
00000100
00000000
00000000
00000100
00000000
00010000
00000000
00000000
00001000
00000000
00000000
00001000
00000000
,
01000000
00000000
00000000
00010000
00000000
00000000
00010000
00000000
00100000
00000000
00000000
00010000
00000000
00000000
00010000
00000000
,
01000000
00000000
00000000
01000000
00000000
00000000
01000000
00000000
00100000
00000000
00000000
00100000
00000000
00000000
00100000
00000000
,
10000000
00000000
00000000
10000000
00000000
00000000
10000000
00000000
00010000
00000000
00000000
00000000
10000000
00000000
00010000
00000000
,
20020000
00000000
00000000
00000000
,
30030000
00000000
00000000
00000000
;

//---------------dance-single - ----------------
#NOTES:
     dance-single:
     :
     Beginner:
     3:
     0.120146,0.158287,0.000000,0.015868,0.000000,106.000000,106.000000,0.000000,2.000000,0.000000,0.000000,0.120146,0.158287,0.000000,0.015868,0.000000,106.000000,106.000000,0.000000,2.000000,0.000000,0.000000:
0000
0000
0000
0000
,
0000
0000
0000
0000
,
0000
0000
0000
0000
,
0000
0000
0000
0000
,
0000
0000
0000
0000
,
0010
0000
1000
0000
,
0100
0000
0001
0000
,
0010
0000
1000
0000
,
0100
0000
0001
0000
,
0000
0010
0000
0010
,
0000
0100
0000
0100
,
0000
0010
0000
0010
,
0000
0100
0000
0100
,
0000
0001
0000
0001
,
0000
1000
0000
1000
,
0000
0001
0000
1000
,
0000
0001
0000
1000
,
1000
0000
0001
0000
,
1000
0000
0001
0000
,
0100
0100
0000
0100
,
0000
0100
0000
0010
,
0010
0010
0000
0010
,
0000
0010
0000
1000
,
1000
1000
0000
1000
,
0000
1000
0000
0001
,
0001
0001
0000
0001
,
0000
0001
0000
0000
,
0000
0100
0000
0100
,
0000
0010
0000
0010
,
0000
0100
0000
0100
,
0000
0010
0000
0010
,
0000
1000
0000
1000
,
0000
0001
0000
0001
,
0000
1000
0000
1000
,
0000
0001
0000
0001
,
0001
0000
0000
0000
,
0001
0000
0100
0000
,
0010
0000
1000
0000
,
0001
0000
0100
0000
,
0010
0000
1000
0000
,
0000
0001
0000
0001
,
0000
1000
0000
1000
,
0000
0010
0000
0010
,
0000
0100
0000
0100
,
0000
0001
0000
0001
,
0000
0001
0000
0001
,
0001
0001
0001
0001
,
0002
0000
0003
0000
,
0000
0000
0100
0000
,
0000
0000
0100
0000
,
0000
0100
0000
0100
,
0000
0100
0100
0100
,
0000
0010
0000
0010
,
0000
0010
0000
0010
,
0000
1000
0000
0001
,
0000
1000
1000
1000
,
2000
0000
0000
0000
,
3000
0000
0000
0000
;

//---------------dance-double - ----------------
#NOTES:
     dance-double:
     :
     Easy:
     5:
     0.213089,0.271349,0.095210,0.238025,0.000000,188.000000,176.000000,12.000000,30.000000,0.000000,0.000000,0.213089,0.271349,0.095210,0.238025,0.000000,188.000000,176.000000,12.000000,30.000000,0.000000,0.000000:
00000000
00000000
00000000
00000000
,
00000000
00000000
00000000
00000000
,
00000000
00000000
00000000
00000000
,
00000000
00000000
00000000
00000000
,
00000000
00000000
00000000
00000000
,
00002000
00003000
00020000
00030000
,
00002000
00003000
00020000
00030000
,
00002000
00003000
00020000
00030000
,
00000200
00000300
00002000
00003000
,
00000010
00000010
00000001
00000001
,
00000100
00000100
00001000
00001000
,
00000010
00000010
00001000
00001000
,
00000100
00000100
00010000
00010000
,
01000000
10000000
00100000
00010000
,
00000100
00001000
00000010
00000001
,
00000100
00000100
00010000
00010000
,
00001000
00001000
00100000
00100000
,
00010000
01000000
10000000
00100000
,
00010000
00001000
00022000
00033000
,
00001000
00000010
00000001
00001001
,
00000001
00000010
00001000
00001001
,
00001000
00000100
00010000
00011000
,
00010000
01000000
00001000
10010000
,
00100000
10000000
01000000
10010000
,
00100000
00010000
01000000
00011000
,
00010000
00000100
00001000
00000010
,
00000100
00000001
00000010
00001000
,
00000200
00000300
00002000
00003001
,
00000020
00000030
00000002
00001003
,
00000100
00010000
00001000
01000000
,
00100000
00010000
01000000
10000000
,
00200000
00300000
20000000
30010000
,
00200000
00300000
00010000
10000000
,
01000000
00100000
00010000
01000000
,
00001000
00010000
00000100
00001000
,
00000020
00000000
00000000
00000030
,
00000002
00000003
00002000
00003000
,
00000002
00000003
00002000
00003000
,
00000200
00000300
00020000
00030000
,
00002000
00003000
02000000
03000000
,
00100000
10000000
00100000
10000000
,
00100000
00010000
00100000
00010000
,
00001000
00010000
00001000
00010000
,
00000100
00001000
00000100
00001000
,
00000010
00000001
00000100
00001001
,
00001000
00000100
00010000
00001000
,
00100000
00010000
01000000
10000000
,
00100000
00010000
20020000
30030000
,
01000000
00000000
10010000
00000000
,
00100000
00000000
10010000
00000000
,
01000000
00100000
01000000
00100000
,
00001000
00010000
00001000
00010000
,
00000010
00000100
00000010
00000100
,
00010000
00001000
00010000
00001000
,
01000000
00100000
10000000
00010000
,
00100000
00001000
00010000
00000100
,
00022000
00000000
00000000
00000000
,
00033000
00000000
00000000
00000000
;

//---------------dance-single - ----------------
#NOTES:
     dance-single:
     :
     Easy:
     5:
     0.215356,0.271349,0.111078,0.253894,0.000000,190.000000,176.000000,14.000000,32.000000,0.000000,0.000000,0.215356,0.271349,0.111078,0.253894,0.000000,190.000000,176.000000,14.000000,32.000000,0.000000,0.000000:
0000
0000
0000
0000
,
0000
0000
0000
0000
,
0000
0000
0000
0000
,
0000
0000
0000
0000
,
0000
0000
0000
0000
,
2000
3000
0002
0003
,
2000
3000
0002
0003
,
2000
3000
0002
0003
,
0200
0300
2000
3000
,
0010
0010
0001
0001
,
0100
0100
1000
1000
,
0010
0010
1000
1000
,
0100
0100
0001
0001
,
0100
1000
0010
0001
,
0100
1000
0010
0001
,
0100
0100
0001
0001
,
0010
0010
1000
1000
,
0100
0001
0010
1000
,
0001
1000
2002
3003
,
1000
0010
0001
1001
,
0001
0010
1000
1001
,
1000
0100
0001
1001
,
0001
0100
1000
1001
,
0010
1000
0100
1001
,
0010
0001
0100
1001
,
0001
0100
1000
0010
,
0001
0010
1000
0100
,
0020
0030
2000
3001
,
0200
0300
0002
1003
,
0100
0001
0100
0001
,
0100
1000
0100
1000
,
0020
0030
2000
3001
,
0020
0030
0002
1003
,
0100
0010
0001
1000
,
0100
0010
0001
1000
,
2002
0000
0000
3003
,
2000
3000
0002
0003
,
2000
3000
0002
0003
,
0020
0030
0200
0300
,
0020
0030
0200
0300
,
0010
1000
0010
1000
,
0010
0001
0010
0001
,
0100
1000
0100
1000
,
0100
0001
0100
0001
,
0010
0001
0100
1001
,
0010
1000
0100
1001
,
0010
0001
0100
1000
,
0010
0001
2002
3003
,
0100
0000
1001
0000
,
0010
0000
1001
0000
,
0100
0010
0100
0010
,
1000
0001
1000
0001
,
0010
0100
0010
0100
,
0001
1000
0001
1000
,
0100
0010
1000
0001
,
0010
0100
0001
1000
,
2002
0000
0000
0000
,
3003
0000
0000
0000
;
