#TITLE:PARODIC RAVING MACHINE;
#SUBTITLE:;
#ARTIST:R@VENATION;
#TITLETRANSLIT:;
#SUBTITLETRANSLIT:;
#ARTISTTRANSLIT:;
#GENRE:;
#CREDIT:;
#MENUCOLOR:;
#METERTYPE:DDR X;
#BANNER:PARODIC RAVING MACHINE.png;
#BACKGROUND:PARODIC RAVING MACHINE-bg.png;
#LYRICSPATH:;
#CDTITLE:;
#MUSIC:PARODIC RAVING MACHINE.mp3;
#OFFSET:-0.151;
#SAMPLESTART:105.700;
#SAMPLELENGTH:15.000;
#SELECTABLE:YES;
#LISTSORT:;
#BPMS:0.000=150.000,157.000=75.000,173.000=150.000;
#STOPS:143.000=0.400
,146.000=0.200
,149.500=0.200
,154.250=0.200
,154.750=0.200
,204.000=0.400
,236.000=0.400
,237.000=0.400
,238.000=0.200
,238.500=0.200
,239.000=0.200
,239.500=0.200
;
#BGCHANGES:;
#ATTACKS:;

//---------------dance-double - ----------------
#NOTES:
     dance-double:
     :
     Challenge:
     16:
     0.735,0.801,0.385,0.153,0.513:
00000000
00000000
00000000
00000000
,
00000000
00000000
00000000
00000000
,
00000000
00000000
00000000
00000000
,
00000000
00000000
00000000
00000000
,
00010000
00000000
00001000
00010000
00100000
00010000
00001000
00000100
,
00000010
00000000
00000001
00000100
00010000
00100000
00010000
00000100
,
00001000
00000000
00100000
00001000
00010000
00000100
00001000
00010000
,
01000000
00100000
01000000
00000000
00100000
00010000
00100000
00000000
00001000
00010000
00001000
00010000
00000100
00010000
00000100
00001000
,
00000100
00000000
00000000
00000010
00000000
00000000
00000100
00000000
00001000
00010000
00000000
00000000
00100000
00000000
00010000
00000000
,
00000000
00001000
00000000
00000000
00010000
00000000
00001000
00000000
00000100
00000000
00010000
00000000
00100000
00000000
10000000
00000000
,
00000000
00000000
01000000
00000000
00000000
00000000
01000000
00100000
00000000
00010000
00000000
00000000
00001000
00000000
00000010
00000000
,
00000000
00000001
00000100
00001000
00010000
01000000
10000000
00100000
,
01000000
00000000
00000000
00100000
00000000
00000000
01000000
00000000
00100000
00010000
00000000
00001000
00010000
00000000
00001000
00000000
,
00000001
00000010
00000100
00001000
00010000
00100000
01000000
10000000
,
00010000
00100000
01000000
00000000
10010000
00000000
00000000
00000000
10000000
01000000
00100000
00000000
01010000
00000000
00000000
00000000
,
00202000
00000000
00000000
00000000
00000000
00000000
00000000
00000000
00303000
00000000
00010000
00000000
00000010
00000100
00000010
00000100
,
00000000
00000000
00001010
00000000
00000000
00000000
00001010
00000000
00000000
00000000
00001010
00000000
00010000
00001000
00010000
00001000
,
00000000
00000000
01010000
00000000
00000000
00000000
01010000
00000000
00000000
00000000
01010000
00000000
00010000
00001000
00010000
00001000
,
00000000
00000000
00001001
00000000
00000000
00000000
00001001
00000000
00000000
00000000
00001001
00000000
00000100
00010000
00000100
00010000
,
00000000
00000000
00110000
00000000
00000000
00000000
00110000
00000000
00001000
00000000
00001100
00000000
00001000
00000010
00001000
00000010
,
00000000
00000000
00001100
00000000
00000000
00000000
00011000
00000000
00000000
00000000
00110000
00000000
01000000
00100000
01000000
00100000
,
00000000
00000000
10100000
00000000
00000000
00000000
01010000
00000000
00000000
00000000
00011000
00000000
00100000
00001000
00100000
00001000
,
00000000
00000000
00010000
00000000
00001000
00000100
00001000
00010000
00000000
00000000
00001000
00000000
00010000
00100000
01000000
00100000
,
01000000
00100000
01000000
00000000
00010000
00001000
00010000
00001000
00010000
00000100
00010000
00000000
00101000
00000000
00010100
00000000
,
00011000
00000000
00001000
00000100
00001000
00000100
00001000
00000000
00000010
00000000
00000100
00000010
00000100
00000010
00000100
00000000
,
00000001
00000000
00000010
00001000
00000010
00001000
00000000
00001000
00010000
00000000
00100000
00000000
10000000
00000000
00000000
00000000
,
01100000
00000000
10000000
00010000
10000000
00010000
10000000
00000000
01000000
00000000
00100000
00010000
00100000
00010000
00100000
00000000
,
00001000
00010000
00001000
00010000
00001000
00000000
00000000
00000000
01000000
00100000
01000000
00100000
01000000
00000000
00000000
00000000
,
11000000
00000000
00100000
00010000
00100000
00010000
00001000
00000000
00000100
00000000
00001000
00000100
00001000
00000100
00001000
00000000
,
00100000
00000000
00010000
00000000
00001000
00000100
00000000
00000010
00000100
00000000
00000010
00000000
00011000
00000000
00000000
00000000
,
00110000
00000000
00100000
00010000
00001000
00010000
00001000
00000000
00000100
00000000
00001000
00010000
00001000
00010000
00001000
00000000
,
00100000
10000000
01000000
00010000
00000100
00000010
00001000
00010000
,
00100000
00000000
10000000
00000000
10010000
00000000
00000000
00000000
10010000
00000000
00000000
00101000
00000000
00000000
00010100
00000000
,
00001000
00000000
00000100
00000000
00001000
00000000
00000100
00000000
00001000
00100000
00000000
00100000
00010000
00000000
01000000
00000000
,
10000000
00000000
00010000
00000000
01000000
00100000
01000000
00000000
00010000
00001000
00010000
00000000
00000010
00000100
00000010
00000000
,
00000001
00000000
00000000
00000000
00001000
00000000
00000000
00000000
00000001
00000000
00000000
00000000
00001000
00000000
00000000
00000000
00000000
00000000
00000000
00000000
00000100
00000000
00000000
00000000
00001000
00000000
00000000
00000000
00010000
00000000
00000000
00000000
00100000
00000000
00000000
00000000
00010000
00000000
00000000
00000000
00100000
00000000
00000000
00000000
00000000
00000000
00000000
00000000
00022000
00033000
00000000
00000000
00000000
00000000
00000000
00000000
00100000
00000000
00000000
00000000
00000000
00000000
00000000
00000000
,
00010000
00000000
00000000
00000000
00000000
00000000
00000000
00000000
01000000
00000000
00000000
00000000
00000000
00000000
00000000
00000000
10000000
00000000
00000000
00000000
00100000
00000000
00000000
00000000
00000000
00000000
00000000
00000000
00100000
00000000
00000000
00000000
00020000
00030000
00000000
00000000
00000000
00000000
00000000
00000000
00002000
00000000
00000000
00000000
00000000
00000000
00000000
00000000
00003000
00000000
00000000
00000000
00000000
00000000
00000000
00000000
00010000
00000000
00000000
00000000
00001000
00000000
00000000
00000000
,
00000100
00000000
00000000
00000000
00000000
00000000
00000000
00000000
00000010
00000000
00000000
00000000
00001000
00000000
00000000
00000000
00000010
00000000
00000000
00000000
00000000
00000000
00000000
00000000
00002002
00003003
00000000
00000000
00000000
00000000
00000000
00000000
00000010
00000000
00000000
00000000
00000100
00000000
00000000
00000000
00000010
00000000
00000000
00000000
00000000
00000000
00000000
00000000
00001000
00000000
00000000
00000000
00010000
00000000
00000000
00000000
00001000
00000000
00000000
00000000
00000000
00000000
00000000
00000000
,
00100000
00010000
00100000
00010000
00100000
01000000
00100000
00000000
10000000
00010000
00001000
00000100
00001000
00000000
00010000
00000000
,
00011000
00000000
00000000
00000000
01000000
00000000
00000000
00000000
00000000
00000000
00100000
00010000
00001000
00000000
00000000
00000000
,
00001001
00000000
00010100
00000000
01010000
00000000
00000000
00000000
00000000
00000000
01000000
00100000
00001000
00000000
00000000
00000000
,
00000100
00000000
00011000
00000000
00100000
00000000
00000000
00000000
00000000
00000000
01000000
00010000
00000100
00000000
00000000
00000000
,
00001001
00000000
00010010
00000000
00101000
00000000
00000000
00000000
00000000
00000000
00001000
00100000
01000000
00000000
00000000
00000000
,
00010000
00001000
00010000
00001000
00100000
00001000
00010000
00000100
,
00010000
00000000
00001000
00000100
00010000
00000000
00000100
00000000
00010000
00000000
00000010
00000000
00001000
00000000
00000001
00001000
,
00000001
00000010
00000100
00001000
00000010
00010000
00000100
00010000
,
00000100
00010000
00000100
00000000
00001000
00010000
00001000
00000000
00010000
00100000
00010000
00000000
10000000
00100000
01000000
00010000
,
00100000
10010000
01000000
01000000
01000000
01000000
00010000
00010000
,
00001000
00001000
00000010
00000010
00000010
00000010
00000001
00000001
,
00001000
00000000
00001000
00000000
00010000
01000000
00010000
00000000
00100000
00000000
10000000
00000000
01000000
00010000
01000000
00000000
,
00001000
00000000
00100000
00000000
00000100
00010000
00000100
00000000
00001000
00010000
00001000
00000000
00000100
00000000
00000000
00000000
,
00000000
00000100
00000000
00000000
00000000
00000000
00000000
00000000
00000001
00000000
00000000
00000000
00000100
00000000
00000000
00000000
00000000
00000000
00000000
00000000
00000000
00000000
00000000
00000000
00000001
00000000
00000000
00000000
00000000
00000000
00000000
00000000
00000100
00000000
00000000
00000000
00000000
00000000
00000000
00000000
00001000
00000000
00000000
00000000
00000000
00000000
00000000
00000000
00010000
00000000
00000000
00000000
00001000
00000000
00000000
00000000
00010000
00000000
00000000
00000000
00001000
00000000
00000000
00000000
,
00010000
00000000
01000000
00010000
00000000
00000000
01000000
00000000
00100000
00000000
01000000
00000000
10000000
00010000
10000000
00010000
,
10000000
00000000
01000000
00100000
00000000
00000000
00010000
00000000
00001000
00000000
00000100
00000000
00000010
00000001
00000010
00000001
,
00000010
00000000
00000001
00000100
00000000
00000000
00001000
00000000
00010000
00000000
00100000
00000000
10000000
00100000
10000000
00100000
,
01000000
00000000
00010000
00100000
00000000
00000000
00100000
00000000
00010000
00000000
00000100
00000000
00000010
00001000
00000010
00001000
,
00000100
00000000
00000001
00000100
00000000
00000000
00001000
00000000
00010000
00000000
00100000
00000000
10000000
01000000
10000000
01000000
,
00100000
00000000
00010000
00000000
00001000
00000100
00001000
00000100
00000010
00000000
00000001
00000000
00000100
00010000
00000100
00010000
,
00001000
00010000
00001000
00000000
00100000
00001000
00100000
00000000
00100000
00010000
00100000
00010000
00001000
00000100
00001000
00000100
,
00001000
00000000
00010000
00100000
10000000
00000000
01000000
00100000
00010000
00000000
00101000
00000000
00001010
00000000
00001001
00000000
,
00011000
00000100
00000001
00000100
00001000
00000100
00000001
00000010
,
00001000
00100000
00001000
00000100
00001000
00100000
10000000
00100000
,
00010000
00100000
10000000
01000000
00010000
00000100
00010000
00100000
,
00010000
00000010
00010000
00000010
00000100
00000001
00000200
00000000
,
00000301
00000010
00000001
00000010
00001000
00000010
00000100
00001000
,
00100000
00010000
00100000
00010000
10000000
00100000
00010000
00001000
,
00000010
00000100
00000010
00000100
00000001
00000100
00000001
00000100
,
00000010
00000100
00001000
00010000
00200000
00000000
00302000
00000000
,
00013000
10010000
00000000
00101000
00000000
00010100
00000010
00000100
,
00000000
00000000
00001010
00000000
00000000
00000000
00010100
00000000
00000000
00000000
00001000
00010000
00001000
00000000
00010000
00000000
,
00100000
00000000
00020000
00000000
01030000
00000000
00100000
00000000
10000000
00000000
02000000
00000000
03010000
00001000
00010000
00000000
,
00001000
00100000
00001000
00000000
00010000
00000100
00010000
00000000
00000010
00001000
00000010
00001000
00000010
00000000
00000101
00000000
,
00000020
00000100
00000100
00000100
00000130
00001000
00020000
00100000
,
02030000
00100000
00100000
03100000
00200000
00301000
00020000
00030100
,
00000010
00000020
00001030
00020000
00130000
00100000
01000000
10000000
,
10000000
01000000
10000000
00000000
00010000
00001000
00010000
00000000
00000001
00000010
00000001
00000010
00000002
00000000
00000000
00000000
,
00001003
00000000
00000000
00000000
;

//---------------dance-single - ----------------
#NOTES:
     dance-single:
     :
     Challenge:
     17:
     0.755,0.801,0.422,0.196,0.523:
0000
0000
0000
0000
,
0000
0000
0000
0000
,
0000
0000
0000
0000
,
0000
0000
0000
0000
,
1001
0000
1000
0100
0001
0100
1000
0100
,
0001
0000
0001
0010
1000
0010
0001
0010
,
1000
0000
0001
0100
1000
0100
0001
0100
,
1000
0010
1000
0000
0010
0001
0010
0000
1000
0001
1000
0001
0100
0000
0110
0000
,
0100
0000
0000
0010
0000
0000
0100
0000
1000
0001
0000
1000
0001
0000
0010
0000
,
0100
0010
0000
0000
0001
0000
1000
0000
0100
0000
0001
0010
0001
0000
1000
0100
,
1000
0000
0000
0100
0000
0000
0010
0000
1000
0001
0000
0001
1000
0000
0010
0000
,
0100
0001
0100
1000
0100
0001
0100
0110
,
1000
0000
0000
0010
0000
0000
0100
0000
0010
0001
0000
1000
0001
0000
1000
0000
,
0001
0010
0100
0010
0001
0010
0100
0010
,
0001
0010
0000
0010
0001
0000
0100
0000
1000
0100
0000
0100
1000
0000
0010
0000
,
1001
0000
0000
0000
1001
0000
0000
0000
0000
0000
0100
0000
0010
0100
0010
0100
,
0000
0000
1001
0000
0000
0000
0110
0000
0000
0000
1001
0000
0001
1000
0001
1000
,
0000
0000
0101
0000
0000
0000
1010
0000
0000
0000
0101
0000
0001
1000
0001
1000
,
0000
0000
1001
0000
0000
0000
0110
0000
0000
0000
1001
0000
0100
0010
0100
0010
,
0000
0000
1010
0000
0000
0000
0101
0000
0020
0000
0130
0000
0001
0010
0001
0010
,
0000
0000
0101
0000
0000
0000
0011
0000
0000
0000
1010
0000
0100
1000
0100
1000
,
0000
0000
1100
0000
0000
0000
0101
0000
0000
0000
0011
0000
1000
0001
1000
0001
,
0000
0000
0110
0000
0001
0100
0001
0010
0000
0000
1001
0000
0010
1000
0100
1000
,
0100
0010
0001
0000
0010
0001
0100
0000
0010
1000
0100
0000
1001
0000
0110
0000
,
0011
0000
0001
0100
0001
0100
0001
0000
0010
0000
0100
0010
0100
0010
0100
0000
,
0001
0000
0010
1000
0010
1000
0000
1000
0010
0000
0100
0000
0001
0000
0000
0000
,
1100
0000
0001
0010
0001
0010
0001
0000
0100
0000
1000
0010
1000
0010
1000
0000
,
0001
0010
0001
0010
0001
0000
0000
0000
0100
1000
0100
1000
0100
0000
0000
0000
,
0101
0000
1000
0010
1000
0010
0001
0000
0100
0000
0001
0100
0001
0100
0001
0000
,
1000
0000
0010
0000
0001
0100
0000
0010
0100
0000
0010
0000
1001
0000
0000
0000
,
1100
0000
1000
0100
0001
0100
0001
0000
0010
0000
0001
0100
0001
0100
0001
0000
,
1000
0100
0001
0000
1000
0100
0001
0000
1010
0000
0011
0000
1010
0000
0000
0000
,
1000
0001
1000
0000
1001
0000
0100
0000
0010
0100
0010
0100
0010
0000
1001
0000
,
0100
0000
0001
0000
0100
0000
0001
0000
0100
1000
0000
1000
0010
0000
0100
0000
,
0001
0000
0010
0000
0100
1000
0100
0000
0010
0001
0010
0000
1000
0001
1000
0000
,
0100
0000
0000
0000
0001
0000
0000
0000
0100
0000
0000
0000
0001
0000
0000
0000
0000
0000
0000
0000
0010
0000
0000
0000
0001
0000
0000
0000
1000
0000
0000
0000
0100
0000
0000
0000
1000
0000
0000
0000
0100
0000
0000
0000
0000
0000
0000
0000
2002
3003
0000
0000
0000
0000
0000
0000
0100
0000
0000
0000
0000
0000
0000
0000
,
1000
0000
0000
0000
0000
0000
0000
0000
0100
0000
0000
0000
0000
0000
0000
0000
0001
0000
0000
0000
0010
0000
0000
0000
0000
0000
0000
0000
0010
0000
0000
0000
2000
3000
0000
0000
0000
0000
0000
0000
0002
0000
0000
0000
0000
0000
0000
0000
0003
0000
0000
0000
0000
0000
0000
0000
1000
0000
0000
0000
0001
0000
0000
0000
,
0010
0000
0000
0000
0000
0000
0000
0000
1000
0000
0000
0000
0001
0000
0000
0000
1000
0000
0000
0000
0000
0000
0000
0000
0202
0303
0000
0000
0000
0000
0000
0000
1000
0000
0000
0000
0010
0000
0000
0000
1000
0000
0000
0000
0000
0000
0000
0000
0001
0000
0000
0000
0100
0000
0000
0000
0001
0000
0000
0000
0000
0000
0000
0000
,
0010
0100
0010
0100
0010
1000
0010
0000
0001
0100
1000
0010
1000
0000
0100
0000
,
1100
0000
0000
0000
2000
0000
0000
0000
3000
0000
0010
0100
0002
0000
0000
0000
,
0103
0000
0011
0000
1002
0000
0000
0000
0000
0000
1003
0010
0200
0000
0000
0000
,
0310
0000
0001
0000
2000
0000
0000
0000
0000
0000
3010
0001
0010
0000
0000
0000
,
1100
0000
0011
0000
1200
0000
0000
0000
0000
0000
0301
1000
0010
0000
0000
0000
,
0001
0100
0001
0100
1000
0100
0001
0010
,
0001
0000
0100
0010
0001
0000
0010
0000
0001
0000
0010
0000
0100
0000
1000
0100
,
1000
0010
0001
0100
0010
0001
1000
0001
,
1000
0001
1000
0000
0100
0001
0100
0000
0001
1000
0001
0000
0010
1000
0100
0001
,
1000
0011
0100
1000
0100
0001
0100
1000
,
0100
0001
0010
1000
0010
0001
0010
1000
,
0010
0000
0001
0000
0100
0000
1001
0000
0100
0000
0010
0000
0100
0001
0100
0000
,
1000
0010
1000
0000
0010
0001
1000
0000
0100
0001
1000
0000
0010
0000
0100
0000
,
2000
3000
0000
0000
0000
0000
0000
0000
0010
0000
0000
0000
1000
0000
0000
0000
0000
0000
0000
0000
0000
0000
0000
0000
0010
0000
0000
0000
0000
0000
0000
0000
1000
0000
0000
0000
0000
0000
0000
0000
0100
0000
0000
0000
0001
0000
0000
0000
0000
0000
0000
0000
0000
0000
0000
0000
0010
0000
0000
0000
0000
0000
0000
0000
,
0001
0000
0010
1000
0000
0000
0100
0000
1000
0000
0100
0001
0000
0000
0010
0000
,
0001
0000
1000
0010
0000
0000
0001
0000
0100
0000
1000
0010
0000
0000
1000
0000
,
0010
0000
0001
0100
0000
0000
0100
0000
1000
0000
0100
0000
0100
1000
0100
1000
,
0010
0000
0001
1000
0000
0000
1001
0000
0001
0000
1000
0000
0010
0100
0010
0100
,
1000
0000
0001
1000
0000
0000
0110
0000
0001
0000
1000
0000
0100
0010
0100
0010
,
1000
0000
0001
0000
0100
1000
0100
1000
0010
0000
0001
0000
1000
0100
1000
0100
,
0010
0100
0010
0000
1000
0010
1000
0000
1000
0100
1000
0100
0010
0001
0010
0001
,
0010
0000
0100
1000
0001
0000
0010
1000
0100
0000
1010
0000
0011
0000
0110
0000
,
1010
0001
0100
0001
0010
0001
0100
0001
,
0010
1000
0010
0001
0010
1000
0001
1000
,
0100
1000
0001
0010
0100
0001
0100
1000
,
0100
0001
0100
0001
0010
0100
0020
0000
,
0130
0001
0100
0001
0010
0001
0010
1000
,
0100
0001
0100
0001
0010
0100
0001
1000
,
0001
0010
0001
0010
0100
0010
0100
0010
,
0001
0010
1000
0001
0200
0000
2300
0000
,
3001
0011
0000
1100
0000
0011
1000
0010
,
0000
0000
1100
0000
0000
0000
0011
0000
0000
0000
1000
0001
1000
0000
0001
0000
,
0100
0000
0002
0000
0013
0000
0100
0000
0010
0000
2000
0000
3001
0100
0001
0000
,
0100
0010
0100
0000
0001
0010
0001
0000
0100
1000
0100
1000
0100
0000
0011
0000
,
0200
0010
0010
0010
0310
1000
0002
0010
,
2003
0010
0010
3010
0020
1030
0002
0013
,
0100
0200
1300
0002
0013
0010
1000
0010
,
0010
1000
0010
0000
0001
1000
0001
0000
0100
0010
0100
0010
0200
0000
0000
0000
,
1300
0000
0000
0000
;

//---------------dance-single - ----------------
#NOTES:
     dance-single:
     :
     Hard:
     12:
     0.507,0.525,0.196,0.342,0.058: // measure 1
0000
0000
0000
0000
,  // measure 2
0000
0000
0000
0000
,  // measure 3
0000
0000
0000
0000
,  // measure 4
0000
0000
0000
0000
,  // measure 5
1001
0000
0010
0001
0010
0001
0010
0001
,  // measure 6
1001
0000
0010
1000
0010
1000
0010
1000
,  // measure 7
1001
0000
0100
0010
0100
0010
0100
0010
,  // measure 8
0001
0100
1000
0010
,  // measure 9
1000
0100
1000
0100
0001
0100
0001
0000
,  // measure 10
0010
0001
0010
0001
0010
1000
0010
0000
,  // measure 11
1000
0100
1000
0100
0001
0100
0001
0000
,  // measure 12
0010
0001
0010
0001
0100
0100
1001
0000
,  // measure 13
1000
0010
1000
0010
0001
0010
0001
0000
,  // measure 14
0100
0010
0100
0010
1000
0001
1001
0000
,  // measure 15
0010
1000
0100
0000
0010
0001
0100
0000
,  // measure 16
0010
0010
0100
0100
0000
0001
1000
0001
,  // measure 17
0000
0010
0000
0100
0000
0010
0010
0010
,  // measure 18
0000
1000
0000
0001
0000
1000
1000
1000
,  // measure 19
0000
0001
0000
0100
0000
0001
0001
0001
,  // measure 20
0000
1000
0000
0010
0000
1000
1000
1000
,  // measure 21
0000
0001
0000
0010
0000
0100
0100
0100
,  // measure 22
0000
1000
0000
0100
0000
0010
0010
0010
,  // measure 23
0000
0001
0001
0001
0000
1000
1000
1000
,  // measure 24
0000
0020
0030
0200
0300
0001
1001
0020
,  // measure 25
0130
0000
0001
0010
0000
1000
1000
0010
,  // measure 26
0100
0000
0010
0000
0100
0000
0010
0100
0000
0010
0100
0000
0110
0000
0000
0000
,  // measure 27
1000
0100
0001
0001
0000
0100
0001
0001
,  // measure 28
1000
1000
1000
0000
0001
0001
0001
0000
,  // measure 29
0010
0100
1000
1000
0000
0100
1000
1000
,  // measure 30
0001
0000
0100
0000
0001
0000
0100
0001
0000
0100
0001
0000
0100
0000
0000
0000
,  // measure 31
0010
0001
0100
0100
0000
1000
0100
0100
,  // measure 32
0001
0010
0001
0010
0100
0100
0020
0000
,  // measure 33
1030
0100
0001
1000
1000
1000
0100
0001
,  // measure 34
1000
0010
1000
0010
2000
3000
0010
0010
,  // measure 35
0100
0010
0100
0010
0000
0001
1000
0001
,  // measure 36
0100
0000
0000
0000
0000
0000
0010
0000
0000
0000
0000
0000
0100
0000
0000
0000
0000
0000
0010
0000
0000
0000
0000
0000
0100
0000
0000
0000
0000
0000
0000
0000
0000
0000
0000
0000
2002
3003
0000
0000
0000
0000
0000
0000
0000
0000
0000
0000
,  // measure 37
0110
0000
0000
0000
0000
0000
0000
0000
0000
0000
0000
0000
0000
0000
0000
0000
1000
0000
0000
0000
0000
0000
0000
0000
0100
0000
0000
0000
0000
0000
0000
0000
0002
0003
0000
0000
0000
0000
0000
0000
2000
0000
0000
0000
0000
0000
0000
0000
3010
0000
0000
0000
0000
0000
0000
0000
0001
0000
0000
0000
0000
0000
0000
0000
,  // measure 38
0010
0000
0000
0000
0000
0000
0000
0000
1000
0000
0000
0000
0000
0000
0000
0000
0000
0000
0000
0000
0000
0000
0000
0000
2002
3003
0000
0000
0000
0000
0000
0000
0010
0000
0000
0000
0000
0000
0000
0000
0000
0000
0000
0000
0000
0000
0000
0000
0100
0000
0000
0000
0000
0000
0000
0000
0000
0000
0000
0000
0000
0000
0000
0000
,  // measure 39
0010
0100
0010
0000
1001
1001
0000
0000
,  // measure 40
1001
0000
1002
0000
0000
0010
0203
0000
,  // measure 41
0010
0310
2000
0000
0000
0010
3002
0000
,  // measure 42
0100
0010
2003
0000
0000
0100
3020
0000
,  // measure 43
1000
0100
0230
0000
0000
0010
0302
0000
,  // measure 44
1000
0100
1003
0100
0000
0100
0000
0100
,  // measure 45
0001
0010
0000
0010
0000
0010
0000
0001
,  // measure 46
2000
0000
3001
0001
0000
1000
0010
1000
,  // measure 47
0001
1000
0200
0300
0020
0030
1000
1000
,  // measure 48
0002
0003
0020
0000
0000
0000
0030
0000
,  // measure 49
0100
0010
0001
0100
0000
0100
0000
1000
,  // measure 50
0100
0000
0001
0010
0000
0010
1000
0010
,  // measure 51
0001
0010
1000
0000
0001
0000
0200
0000
,  // measure 52
0000
0300
0000
0000
0000
0000
0000
0000
0000
0000
0000
0000
0100
0000
0000
0000
0000
0000
0000
0000
0000
0000
0000
0000
0100
0000
0000
0000
0000
0000
0000
0000
1000
0000
0000
0000
0000
0000
0000
0000
0000
0000
0000
0000
1000
0000
0000
0000
0000
0000
0000
0000
0000
0000
0000
0000
1000
0000
0000
0000
0000
0000
0000
0000
,  // measure 53
0010
0000
0000
0010
0000
0000
0010
0000
0001
0000
0000
0001
0000
0000
0001
0000
,  // measure 54
0100
0000
0000
0100
0000
0000
0100
0000
0010
0000
0000
0010
0000
0000
0010
0000
,  // measure 55
0001
0000
0000
0001
0000
0000
0001
0000
1000
0000
0000
1000
0000
0000
1000
0000
,  // measure 56
0001
0000
0000
0010
0000
0000
0001
0000
0100
0000
0000
0010
0000
0000
0100
0000
,  // measure 57
1000
0000
0000
0010
0000
0000
1000
0000
0001
0000
0000
0100
0000
0000
0001
0000
,  // measure 58
0100
0010
0100
0010
0100
0010
0100
0010
,  // measure 59
2000
3002
0023
0230
,  // measure 60
0310
0000
1001
0000
1100
0110
0011
0000
,  // measure 61
1002
0000
0000
0000
0003
0000
0100
0010
,  // measure 62
2000
0000
3002
0023
,  // measure 63
0230
0000
0001
0000
1000
0000
0301
0010
,  // measure 64
0200
1000
0320
0032
,  // measure 65
0203
0000
1000
0000
0010
0000
1300
0100
,  // measure 66
0002
0010
2003
0010
,  // measure 67
3002
0000
0100
0000
1000
0000
0103
0010
,  // measure 68
2002
0000
0000
3003
0110
0000
1001
0000
,  // measure 69
1000
1100
0000
0101
0000
1000
0100
0001
,  // measure 70
0000
0101
0000
1100
0000
0001
0200
0000
,  // measure 71
0310
1000
0000
0001
0100
0001
0100
0010
,  // measure 72
1000
1000
0001
0001
0000
0100
0020
0000
,  // measure 73
2030
0000
3010
0000
0200
0000
0301
0010
,  // measure 74
1000
0001
1000
0001
1000
0100
0001
0000
,  // measure 75
0010
0010
0000
0100
0100
0001
0100
0001
,  // measure 76
1000
0010
0100
0001
,  // measure 77
1001
0000
0000
0000
;

//---------------dance-double - Copied from----------------
#NOTES:
     dance-double:
     Copied from:
     Hard:
     13:
     0.496,0.525,0.174,0.342,0.062:
00000000
00000000
00000000
00000000
,
00000000
00000000
00000000
00000000
,
00000000
00000000
00000000
00000000
,
00000000
00000000
00000000
00000000
,
00001001
00000000
00000100
00001000
00000100
00001000
00000100
00001000
,
00001001
00000000
00000100
00000001
00000100
00000001
00000100
00000001
,
00001001
00000000
00000010
00000100
00000010
00000100
00000010
00000100
,
00001000
00100000
00010000
01000000
,
10000000
01000000
10000000
01000000
00010000
01000000
00010000
00000000
,
00100000
00010000
00100000
00010000
00100000
10000000
00100000
00000000
,
00001000
00000100
00001000
00000100
00000001
00000100
00000001
00000000
,
00000100
00001000
00000100
00001000
00100000
00100000
00011000
00000000
,
00010000
01000000
00010000
01000000
10000000
01000000
10000000
00000000
,
00100000
01000000
00100000
01000000
00010000
00000000
00001000
00000000
,
00000100
00000001
00000010
00000000
00000100
00001000
00000010
00000000
,
00000100
00000000
00001000
00000000
00000000
00010000
00001000
00010000
,
00000000
00000100
00000000
00000100
00000000
00000100
00000100
00000100
,
00000000
00000001
00000000
00000001
00000000
00000001
00000001
00000001
,
00000000
00001000
00000000
00001000
00000000
00001000
00001000
00001000
,
00000000
00010000
00000000
00010000
00000000
00010000
00010000
00010000
,
00000000
10000000
00000000
01000000
00000000
00100000
00100000
00100000
,
00000000
00010000
00000000
00100000
00000000
01000000
01000000
01000000
,
00000000
10000000
10000000
10000000
00000000
00010000
00010000
00010000
,
00000000
00000200
00000300
00000020
00000030
00001000
00001001
00000200
,
00000310
00000000
00001000
01000000
00000000
00010000
00010000
01000000
,
00100000
00000000
01000000
00000000
00100000
00000000
01000000
00100000
00000000
01000000
00100000
00000000
01100000
00000000
00000000
00000000
,
00010000
00000010
00001000
00001000
00000000
00000010
00001000
00001000
,
00000001
00000001
00000001
00000000
00001000
00001000
00001000
00000000
,
01000000
00100000
00010000
00010000
00000000
00100000
00010000
00010000
,
10000000
00000000
00100000
00000000
10000000
00000000
00100000
10000000
00000000
00100000
10000000
00000000
00100000
00000000
00000000
00000000
,
01000000
00001000
00100000
00010000
00000000
00000100
00000010
00000100
,
00001000
00010000
00001000
00000100
00000010
00000010
00000200
00000000
,
00000301
00000001
00001000
00000000
00000001
00000001
00000001
00001000
,
00000001
00000100
00000001
00000000
00002000
00003000
00100000
00010000
,
00001000
00010000
00001000
00000100
00000000
00001000
00000100
00001000
,
00000010
00000000
00000000
00000000
00000000
00000000
00000100
00000000
00000000
00000000
00000000
00000000
00000010
00000000
00000000
00000000
00000000
00000000
00000100
00000000
00000000
00000000
00000000
00000000
00000010
00000000
00000000
00000000
00000000
00000000
00000000
00000000
00000000
00000000
00000000
00000000
00002002
00003003
00000000
00000000
00000000
00000000
00000000
00000000
00000000
00000000
00000000
00000000
,
00000110
00000000
00000000
00000000
00000000
00000000
00000000
00000000
00000000
00000000
00000000
00000000
00000000
00000000
00000000
00000000
00000001
00000000
00000000
00000000
00000000
00000000
00000000
00000000
00000010
00000000
00000000
00000000
00000000
00000000
00000000
00000000
00002000
00003000
00000000
00000000
00000000
00000000
00000000
00000000
00020000
00000000
00000000
00000000
00000000
00000000
00000000
00000000
01030000
00000000
00000000
00000000
00000000
00000000
00000000
00000000
10000000
00000000
00000000
00000000
00000000
00000000
00000000
00000000
,
01000000
00000000
00000000
00000000
00000000
00000000
00000000
00000000
00010000
00000000
00000000
00000000
00000000
00000000
00000000
00000000
00000000
00000000
00000000
00000000
00000000
00000000
00000000
00000000
20020000
30030000
00000000
00000000
00000000
00000000
00000000
00000000
01000000
00000000
00000000
00000000
00000000
00000000
00000000
00000000
00000000
00000000
00000000
00000000
00000000
00000000
00000000
00000000
00010000
00000000
00000000
00000000
00000000
00000000
00000000
00000000
00000000
00000000
00000000
00000000
00000000
00000000
00000000
00000000
,
00000100
00000010
00000100
00000000
00001001
00001001
00000000
00000000
,
00011000
00000000
00012000
00000000
00000000
00000100
00003020
00000000
,
00000100
00000130
00000002
00000000
00000000
00000100
00002003
00000000
,
00000010
00000100
00023000
00000000
00000000
00100000
02030000
00000000
,
00010000
00100000
03200000
00000000
00000000
01000000
20300000
00000000
,
00010000
00100000
30010000
00000100
00000000
00000100
00000000
00000100
,
00001000
00010000
00000000
00010000
00000000
00010000
00000000
00001000
,
00000200
00000000
00001300
00001000
00000000
00000001
00000100
00000001
,
00001000
00000001
00000020
00000030
00000200
00000300
00010000
00010000
,
00002000
00003000
02000000
00000000
00000000
00000000
03000000
00000000
,
00100000
01000000
10000000
00100000
00000000
00100000
00000000
00010000
,
00100000
00000000
10000000
01000000
00000000
01000000
00010000
01000000
,
10000000
01000000
00010000
00000000
00001000
00000000
00000020
00000000
,
00000000
00000000
00000000
00000100
00000030
00000000
00000000
00000000
00000000
00000000
00000000
00000000
00000000
00000000
00000000
00000000
00000000
00000000
00000000
00000000
00000000
00000000
00000000
00000000
00000000
00000000
00000000
00000000
00000000
00000000
00000000
00000000
00000000
00000000
00000000
00000000
00000010
00000000
00000000
00000000
00000000
00000000
00000000
00000000
00000000
00000000
00000000
00000000
00000000
00000000
00000000
00000000
00000000
00000000
00000000
00000000
00000000
00000000
00000000
00000000
00000000
00000000
00000000
00000000
00000000
00000000
00000000
00000000
00000000
00000000
00000000
00000000
00000010
00000000
00000000
00000000
00000000
00000000
00000000
00000000
00000000
00000000
00000000
00000000
00000000
00000000
00000000
00000000
00000000
00000000
00000000
00000000
00000000
00000000
00000000
00000000
00000001
00000000
00000000
00000000
00000000
00000000
00000000
00000000
00000000
00000000
00000000
00000000
00000000
00000000
00000000
00000000
00000000
00000000
00000000
00000000
00000000
00000000
00000000
00000000
00000000
00000000
00000000
00000000
00000000
00000000
00000000
00000000
00000000
00000000
00000000
00000000
00000001
00000000
00000000
00000000
00000000
00000000
00000000
00000000
00000000
00000000
00000000
00000000
00000000
00000000
00000000
00000000
00000000
00000000
00000000
00000000
00000000
00000000
00000000
00000000
00000000
00000000
00000000
00000000
00000000
00000000
00000000
00000000
00000000
00000000
00000000
00000000
00000001
00000000
00000000
00000000
00000000
00000000
00000000
00000000
00000000
00000000
00000000
00000000
00000000
00000000
00000000
00000000
00000000
00000000
00000000
00000000
00000000
00000000
00000000
00000000
,
00000100
00000000
00000000
00000100
00000000
00000000
00000100
00000000
00001000
00000000
00000000
00001000
00000000
00000000
00001000
00000000
,
00100000
00000000
00000000
00100000
00000000
00000000
00100000
00000000
01000000
00000000
00000000
01000000
00000000
00000000
01000000
00000000
,
10000000
00000000
00000000
10000000
00000000
00000000
10000000
00000000
00010000
00000000
00000000
00010000
00000000
00000000
00010000
00000000
,
00001000
00000000
00000000
00000100
00000000
00000000
00001000
00000000
00000010
00000000
00000000
00000100
00000000
00000000
00000010
00000000
,
00000001
00000000
00000000
00000100
00000000
00000000
00000001
00000000
00001000
00000000
00000000
00100000
00000000
00000000
10000000
00000000
,
00100000
01000000
00100000
01000000
00100000
01000000
00100000
01000000
,
00020000
00032000
00003200
00000320
,
00000130
00000000
00001001
00000000
00001100
00011000
00110000
00000000
,
20010000
00000000
00000000
00000000
30000000
00000000
00100000
01000000
,
00020000
00000000
00032000
00003200
,
00000320
00000000
00001000
00000000
00000001
00000000
00001030
00000100
,
00020000
00100000
02030000
23000000
,
30200000
00000000
00010000
00000000
01000000
00000000
00310000
00100000
,
00002000
00000100
00003002
00000100
,
00002003
00000010
00000001
00003010
,
00022000
00000000
00000000
00033000
00100000
00000000
00001000
00000000
,
00010000
00110000
00000000
10100000
00000000
00010000
00100000
10000000
,
00000000
10100000
00000000
00110000
00000000
10000000
00200000
00000000
,
01300000
00010000
00000000
00001000
00000010
00001000
00000010
00000100
,
00000001
00000001
00001000
00001000
00000000
00100000
02000000
00000000
,
03020000
00000000
01030000
00000000
00200000
00000000
10300000
01000000
,
00010000
10000000
00000000
00010000
00000000
00001000
00000100
00000000
,
00000010
00000100
00000000
00000100
00000010
00001000
00000010
00001000
,
00000001
00000100
00000010
00001000
,
00011000
00000000
00000000
00000000
;

//---------------dance-double - ----------------
#NOTES:
     dance-double:
     :
     Medium:
     7:
     0.350,0.387,0.153,0.131,0.004:
00000000
00000000
00000000
00000000
,
00000000
00000000
00000000
00000000
,
00000000
00000000
00000000
00000000
,
00000000
00000000
00000000
00000000
,
00100000
00001000
00000100
00000001
,
00000010
00001000
00100000
10000000
,
01000000
00010000
00000100
00000001
,
00000100
00010000
00100000
10010000
,
10000000
11000000
00010000
00011000
,
00000001
00000011
00001000
00011000
,
00100000
01100000
10000000
10010000
,
00100000
00110000
00001100
00110000
,
00100000
01100000
10000000
10010000
,
01000000
01010000
00001000
00001010
,
00000001
00000101
00010000
00011000
,
01000000
01100000
10010000
00011000
,
00000000
00000100
00000000
00010000
00000000
00001000
00000000
00100000
,
00000000
00010000
00000000
01000000
00000000
00100000
00000000
10000000
,
00000000
01000000
00000000
00100000
00000000
00010000
00000000
00001000
,
00000000
00000100
00000000
00000010
00000000
00000001
00000000
00000010
,
00000000
00000100
00000000
00001000
00000000
00010000
00000000
00100000
,
00000000
01000000
00000000
10000000
00000000
01000000
00100000
00000000
,
00000000
00010000
00001000
00000000
00000000
00000100
00000010
00000000
,
00000002
00000203
00020300
20030000
,
30100000
00000000
00001000
00001000
00000000
00010000
00010000
00000000
,
00000100
00000100
00001000
00000000
00010000
00000000
00100000
00000000
,
10000000
00000000
00100000
00100000
00000000
00001000
00001000
00001000
,
00000100
00010000
00100000
10000000
,
01000000
00000000
00010000
00010000
00000000
00000100
00001000
00000100
,
00001000
00100000
10000000
01000000
,
00010000
00000000
01000000
00010000
00000000
00001000
00010000
00001000
,
00000100
00000010
00000001
00001001
,
00001000
00010000
00100000
01000000
,
10000000
00010000
10000000
00000000
00100000
00001000
00100000
00000000
,
00000100
00001000
00010000
00100000
,
00001000
00000000
00000000
00000000
00000000
00000000
00000000
00000000
00000000
00000000
00000000
00000000
00000000
00000000
00000000
00000000
00000100
00000000
00000000
00000000
00000000
00000000
00000000
00000000
00000000
00000000
00000000
00000000
00000000
00000000
00000000
00000000
00000010
00000000
00000000
00000000
00000000
00000000
00000000
00000000
00000000
00000000
00000000
00000000
00000000
00000000
00000000
00000000
00020000
00030000
00000000
00000000
00000000
00000000
00000000
00000000
00000000
00000000
00000000
00000000
00000000
00000000
00000000
00000000
,
00001000
00000000
00000000
00000000
00000000
00000000
00000000
00000000
00000000
00000000
00000000
00000000
00000000
00000000
00000000
00000000
00010000
00000000
00000000
00000000
00000000
00000000
00000000
00000000
00000000
00000000
00000000
00000000
00000000
00000000
00000000
00000000
00200000
00300000
00000000
00000000
00000000
00000000
00000000
00000000
10000000
00000000
00000000
00000000
00000000
00000000
00000000
00000000
00000000
00000000
00000000
00000000
00000000
00000000
00000000
00000000
01000000
00000000
00000000
00000000
00000000
00000000
00000000
00000000
,
00000000
00000000
00000000
00000000
00000000
00000000
00000000
00000000
00010000
00000000
00000000
00000000
00000000
00000000
00000000
00000000
00000000
00000000
00000000
00000000
00000000
00000000
00000000
00000000
00002000
00003000
00000000
00000000
00000000
00000000
00000000
00000000
00000100
00000000
00000000
00000000
00000000
00000000
00000000
00000000
00000000
00000000
00000000
00000000
00000000
00000000
00000000
00000000
00000010
00000000
00000000
00000000
00000000
00000000
00000000
00000000
00000000
00000000
00000000
00000000
00000000
00000000
00000000
00000000
,
00000001
00000100
00020000
00001000
,
00001000
00000000
00031000
00000000
00000000
00001000
00010000
00000000
,
00100000
00000000
10000000
00000000
00000000
10000000
00010000
00000000
,
00001000
00000000
00000100
00000000
00000000
00000100
00000001
00000000
,
00000010
00000000
00001000
00000000
00000000
00001000
00010000
00000000
,
00100000
10000000
10000000
10000000
,
00100000
00001000
00001000
00001000
,
00000010
00000001
00000001
00000001
,
00000100
00010000
00010000
00010000
,
01000000
10000000
10000000
10000000
,
00100000
00001000
00001000
00001000
,
01000000
00010000
00010000
00010000
,
00000100
00000001
00000001
00000020
,
00000000
00001030
00000000
00000000
00000000
00000000
00000000
00000000
00010000
00000000
00000000
00000000
00000000
00000000
00000000
00000000
00000000
00000000
00000000
00000000
00000000
00000000
00000000
00000000
00100000
00000000
00000000
00000000
00000000
00000000
00000000
00000000
00000000
00000000
00000000
00000000
00000000
00000000
00000000
00000000
10000000
00000000
00000000
00000000
00000000
00000000
00000000
00000000
10000000
00000000
00000000
00000000
00000000
00000000
00000000
00000000
10000000
00000000
00000000
00000000
00000000
00000000
00000000
00000000
,
00000000
01000000
00000000
00010000
00000000
00001000
00001000
00001000
,
00000000
00000010
00000000
00000001
00000000
00000100
00000100
00000100
,
00000000
00010000
00000000
01000000
00000000
10000000
10000000
10000000
,
00000000
00010000
00000000
00001000
00000000
00010000
00010000
00010000
,
00000000
00000100
00000000
00000001
00000000
00000010
00000010
00000010
,
00000000
00001000
00001000
00001000
00000000
00100000
00100000
00100000
,
10000000
01000000
00010000
00001000
,
00000010
00000000
00100000
00000000
00001000
00010000
00100000
00000000
,
20000000
00000000
30000000
00100000
,
00002000
00000000
00013000
00000100
,
00000002
00000000
00000000
00000103
,
00020000
00000000
00031000
00010000
,
00200000
00000000
00310000
00000100
,
00000002
00000000
00000000
00000013
,
00002000
00000000
00013000
00001000
,
00100000
00010000
00100000
10000000
,
00100000
00010000
00001000
00000100
,
00000001
00000100
00000001
00000100
,
00001000
00010000
00100000
10000000
,
02000000
00000000
03010000
00001000
,
00000020
00000000
00001030
00010000
,
00001000
00010000
00000100
00000001
,
00000010
00001000
00010000
00001000
,
00100000
10000000
01000000
00010000
,
00011000
00000000
00000000
00000000
;

//---------------dance-single - ----------------
#NOTES:
     dance-single:
     :
     Medium:
     7:
     0.350,0.387,0.153,0.131,0.004:
0000
0000
0000
0000
,
0000
0000
0000
0000
,
0000
0000
0000
0000
,
0000
0000
0000
0000
,
0010
1000
0100
0001
,
0010
1000
0010
1000
,
0100
0001
0100
0001
,
0100
0001
0010
1001
,
1000
1100
0001
1001
,
0001
0011
1000
1001
,
0010
0110
1000
1001
,
0010
0011
1100
0011
,
0010
0110
1000
1001
,
0100
0101
1000
1010
,
0001
0101
0001
1001
,
0100
0110
1001
1001
,
0000
0100
0000
0001
0000
1000
0000
0010
,
0000
0001
0000
0100
0000
0010
0000
1000
,
0000
0100
0000
0010
0000
0001
0000
1000
,
0000
0100
0000
0010
0000
0001
0000
0010
,
0000
0100
0000
1000
0000
0001
0000
0010
,
0000
0100
0000
1000
0000
0100
0010
0000
,
0000
0001
1000
0000
0000
0100
0010
0000
,
0002
0203
0302
2003
,
3010
0000
1000
1000
0000
0001
0001
0000
,
0100
0100
1000
0000
0001
0000
0010
0000
,
1000
0000
0010
0010
0000
1000
1000
1000
,
0100
0001
0010
1000
,
0100
0000
0001
0001
0000
0100
1000
0100
,
1000
0010
1000
0100
,
0001
0000
0100
0001
0000
1000
0001
1000
,
0100
0010
0001
1001
,
1000
0001
0010
0100
,
1000
0001
1000
0000
0010
1000
0010
0000
,
0100
1000
0001
0010
,
1000
0000
0000
0000
0000
0000
0000
0000
0000
0000
0000
0000
0000
0000
0000
0000
0100
0000
0000
0000
0000
0000
0000
0000
0000
0000
0000
0000
0000
0000
0000
0000
0010
0000
0000
0000
0000
0000
0000
0000
0000
0000
0000
0000
0000
0000
0000
0000
0002
0003
0000
0000
0000
0000
0000
0000
0000
0000
0000
0000
0000
0000
0000
0000
,
1000
0000
0000
0000
0000
0000
0000
0000
0000
0000
0000
0000
0000
0000
0000
0000
0001
0000
0000
0000
0000
0000
0000
0000
0000
0000
0000
0000
0000
0000
0000
0000
0020
0030
0000
0000
0000
0000
0000
0000
1000
0000
0000
0000
0000
0000
0000
0000
0000
0000
0000
0000
0000
0000
0000
0000
0100
0000
0000
0000
0000
0000
0000
0000
,
0000
0000
0000
0000
0000
0000
0000
0000
0001
0000
0000
0000
0000
0000
0000
0000
0000
0000
0000
0000
0000
0000
0000
0000
2000
3000
0000
0000
0000
0000
0000
0000
0100
0000
0000
0000
0000
0000
0000
0000
0000
0000
0000
0000
0000
0000
0000
0000
0010
0000
0000
0000
0000
0000
0000
0000
0000
0000
0000
0000
0000
0000
0000
0000
,
0001
0100
0002
1000
,
1000
0000
1003
0000
0000
1000
0001
0000
,
0010
0000
1000
0000
0000
1000
0001
0000
,
1000
0000
0100
0000
0000
0100
0001
0000
,
0010
0000
1000
0000
0000
1000
0001
0000
,
0010
1000
1000
1000
,
0010
1000
1000
1000
,
0010
0001
0001
0001
,
0100
0001
0001
0001
,
0100
1000
1000
1000
,
0010
1000
1000
1000
,
0100
0001
0001
0001
,
0100
0001
0001
0020
,
0000
1030
0000
0000
0000
0000
0000
0000
0001
0000
0000
0000
0000
0000
0000
0000
0000
0000
0000
0000
0000
0000
0000
0000
0010
0000
0000
0000
0000
0000
0000
0000
0000
0000
0000
0000
0000
0000
0000
0000
1000
0000
0000
0000
0000
0000
0000
0000
1000
0000
0000
0000
0000
0000
0000
0000
1000
0000
0000
0000
0000
0000
0000
0000
,
0000
0100
0000
0001
0000
1000
1000
1000
,
0000
0010
0000
0001
0000
0100
0100
0100
,
0000
0001
0000
0100
0000
1000
1000
1000
,
0000
0001
0000
1000
0000
0001
0001
0001
,
0000
0100
0000
0001
0000
0010
0010
0010
,
0000
1000
1000
1000
0000
0010
0010
0010
,
1000
0100
0001
1000
,
0010
0000
0010
0000
1000
0001
0010
0000
,
2000
0000
3000
0010
,
2000
0000
3001
0100
,
0002
0000
0000
0103
,
0002
0000
1003
0001
,
0020
0000
0031
0100
,
0002
0000
0000
0013
,
2000
0000
3001
1000
,
0010
0001
0010
1000
,
0010
0001
1000
0100
,
0001
0100
0001
0100
,
1000
0001
0010
1000
,
0200
0000
0301
1000
,
0020
0000
1030
0001
,
1000
0001
0100
0001
,
0010
1000
0001
1000
,
0010
1000
0100
0001
,
1001
0000
0000
0000
;

//---------------dance-double - ----------------
#NOTES:
     dance-double:
     :
     Easy:
     5:
     0.282,0.304,0.029,0.276,0.000:
00000000
00000000
00000000
00000000
,
00000000
00000000
00000000
00000000
,
00000000
00000000
00000000
00000000
,
00000000
00000000
00000000
00000000
,
10000000
00100000
00100000
00100000
,
00001000
00000100
00000100
00000100
,
00000001
00000010
00000010
00000010
,
00001000
00010000
00010000
00010000
,
10000000
00100000
10000000
00100000
,
00001000
00010000
00001000
00010000
,
00000010
00001000
00000010
00001000
,
00000001
00000100
00000001
00000100
,
00001000
00010000
00010000
00011000
,
00100000
00010000
00010000
10010000
,
10000000
01000000
00100000
00010000
,
00001000
00000100
00000010
00000001
,
00000000
00000010
00000000
00000010
00000000
00000010
00000000
00000000
,
00000000
00001000
00000000
00001000
00000000
00001000
00000000
00000000
,
00000000
00010000
00000000
00010000
00000000
00010000
00000000
00000000
,
00000000
00100000
00000000
00100000
00000000
00100000
00000000
00000000
,
00000000
10000000
00000000
10000000
00000000
10000000
00000000
00000000
,
00000000
01000000
00000000
01000000
00000000
01000000
00000000
00000000
,
00000000
00001000
00000000
00000000
00000000
00000010
00000000
00000000
,
00002000
00023000
02030000
23000000
,
30010000
00001000
00010000
00000100
,
00001000
00000010
00001000
00000010
,
00000001
00000100
00000001
00001000
,
00020000
00030000
02000000
03000000
,
00100000
10000000
00100000
10000000
,
00010000
00001000
00010000
00001000
,
00000010
00001000
00000010
00001000
,
00000001
00000100
00001000
00010000
,
00200000
00300000
02000000
03000000
,
00010000
00010000
00010000
00010000
,
00000200
00000300
00000020
00000030
,
00000001
00000000
00000000
00000000
00000000
00000000
00000000
00000000
00000000
00000000
00000000
00000000
00000000
00000000
00000000
00000000
00000100
00000000
00000000
00000000
00000000
00000000
00000000
00000000
00000000
00000000
00000000
00000000
00000000
00000000
00000000
00000000
00001000
00000000
00000000
00000000
00000000
00000000
00000000
00000000
00000000
00000000
00000000
00000000
00000000
00000000
00000000
00000000
00020000
00030000
00000000
00000000
00000000
00000000
00000000
00000000
00000000
00000000
00000000
00000000
00000000
00000000
00000000
00000000
,
00001000
00000000
00000000
00000000
00000000
00000000
00000000
00000000
00000000
00000000
00000000
00000000
00000000
00000000
00000000
00000000
00010000
00000000
00000000
00000000
00000000
00000000
00000000
00000000
00000000
00000000
00000000
00000000
00000000
00000000
00000000
00000000
00200000
00300000
00000000
00000000
00000000
00000000
00000000
00000000
00000000
00000000
00000000
00000000
00000000
00000000
00000000
00000000
00000000
00000000
00000000
00000000
00000000
00000000
00000000
00000000
01000000
00000000
00000000
00000000
00000000
00000000
00000000
00000000
,
00000000
00010000
00000000
00000000
00001000
00000000
00010000
00000000
,
00001000
00000000
00010000
00000000
00002000
00003000
00010000
00000000
,
00011000
02000000
00000000
03020000
,
00000000
00030200
00000000
00002300
,
00000000
00003002
00000000
00000023
,
00000000
00020030
00000000
01030000
,
00100000
20000000
00000000
00000000
,
31000000
00200000
00000000
00000000
,
00301000
00000200
00000000
00000000
,
00010300
00002000
00000000
00000000
,
00103000
20000000
00000000
00000000
,
30010000
00200000
00000000
00000000
,
00301000
00000020
00000000
00000000
,
00001030
00020000
00000000
00031000
,
00000000
00000100
00000000
00001000
00000000
00010000
00000000
00000000
,
00000000
00100000
00000000
00010000
00000000
00001000
00000000
00000000
,
00000000
01000000
00000000
00100000
00000000
00010000
00000000
00000000
,
00000000
00000100
00000000
00001000
00000000
00010000
00000000
00000000
,
00000000
10000000
00000000
01000000
00000000
00010000
00000000
00000000
,
00000000
00001000
00000000
00000100
00000000
00000010
00000000
00000000
,
00000000
00000001
00000000
00000000
00000000
00001000
00000000
00000000
,
00100000
00100000
00100000
00100000
,
00200000
00300000
00002000
00003000
,
00020000
00000000
00000000
00031000
,
00000020
00000000
00000100
00001030
,
00020000
00000000
00000000
00031000
,
00200000
00000000
00310000
01000000
,
20000000
00000000
00000000
30010000
,
00000200
00000000
00001000
00001300
,
00020000
00000000
00000000
00030100
,
00000002
00000000
00000103
00000010
,
00001000
00000100
00001000
00000100
,
00100000
00010000
00100000
00010000
,
10000000
01000000
10000000
01000000
,
00010000
00001000
00010000
00001000
,
00000010
00001000
00000010
00001000
,
00000001
00000100
00000001
00000100
,
00010000
00001000
00010000
00001000
,
00100000
00010000
00001000
00000100
,
00011000
00000000
00000000
00000000
;

//---------------dance-single - ----------------
#NOTES:
     dance-single:
     :
     Easy:
     5:
     0.282,0.304,0.029,0.276,0.000:
0000
0000
0000
0000
,
0000
0000
0000
0000
,
0000
0000
0000
0000
,
0000
0000
0000
0000
,
1000
0010
0010
0010
,
1000
0100
0100
0100
,
0001
0010
0010
0010
,
1000
0001
0001
0001
,
1000
0010
1000
0010
,
1000
0001
1000
0001
,
0010
1000
0010
1000
,
0001
0100
0001
0100
,
1000
0001
0001
1001
,
0010
0001
0001
1001
,
1000
0100
0010
0001
,
1000
0100
0010
0001
,
0000
0010
0000
0010
0000
0010
0000
0000
,
0000
1000
0000
1000
0000
1000
0000
0000
,
0000
0001
0000
0001
0000
0001
0000
0000
,
0000
0010
0000
0010
0000
0010
0000
0000
,
0000
1000
0000
1000
0000
1000
0000
0000
,
0000
0100
0000
0100
0000
0100
0000
0000
,
0000
1000
0000
0000
0000
0010
0000
0000
,
2000
3002
0203
2300
,
3001
1000
0001
0100
,
1000
0010
1000
0010
,
0001
0100
0001
1000
,
0002
0003
0200
0300
,
0010
1000
0010
1000
,
0001
1000
0001
1000
,
0010
1000
0010
1000
,
0001
0100
1000
0001
,
0020
0030
0200
0300
,
0001
0001
0001
0001
,
0200
0300
0020
0030
,
0001
0000
0000
0000
0000
0000
0000
0000
0000
0000
0000
0000
0000
0000
0000
0000
0100
0000
0000
0000
0000
0000
0000
0000
0000
0000
0000
0000
0000
0000
0000
0000
1000
0000
0000
0000
0000
0000
0000
0000
0000
0000
0000
0000
0000
0000
0000
0000
0002
0003
0000
0000
0000
0000
0000
0000
0000
0000
0000
0000
0000
0000
0000
0000
,
1000
0000
0000
0000
0000
0000
0000
0000
0000
0000
0000
0000
0000
0000
0000
0000
0001
0000
0000
0000
0000
0000
0000
0000
0000
0000
0000
0000
0000
0000
0000
0000
0020
0030
0000
0000
0000
0000
0000
0000
0000
0000
0000
0000
0000
0000
0000
0000
0000
0000
0000
0000
0000
0000
0000
0000
0100
0000
0000
0000
0000
0000
0000
0000
,
0000
0001
0000
0000
1000
0000
0001
0000
,
1000
0000
0001
0000
2000
3000
0001
0000
,
1001
0200
0000
0302
,
0000
0203
0000
2300
,
0000
3002
0000
0023
,
0000
0032
0000
0103
,
0010
2000
0000
0000
,
3100
0020
0000
0000
,
1030
0200
0000
0000
,
0301
2000
0000
0000
,
3010
2000
0000
0000
,
3001
0020
0000
0000
,
1030
0020
0000
0000
,
1030
0002
0000
1003
,
0000
0100
0000
1000
0000
0001
0000
0000
,
0000
0010
0000
0001
0000
1000
0000
0000
,
0000
0100
0000
0010
0000
0001
0000
0000
,
0000
0100
0000
1000
0000
0001
0000
0000
,
0000
1000
0000
0100
0000
0001
0000
0000
,
0000
1000
0000
0100
0000
0010
0000
0000
,
0000
0001
0000
0000
0000
1000
0000
0000
,
0010
0010
0010
0010
,
0020
0030
2000
3000
,
0002
0000
0000
1003
,
0020
0000
0100
1030
,
0002
0000
0000
1003
,
0020
0000
0031
0100
,
2000
0000
0000
3001
,
0200
0000
1000
1300
,
0002
0000
0000
0103
,
0002
0000
0103
0010
,
1000
0100
1000
0100
,
0010
0001
0010
0001
,
1000
0100
1000
0100
,
0001
1000
0001
1000
,
0010
1000
0010
1000
,
0001
0100
0001
0100
,
0001
1000
0001
1000
,
0010
0001
1000
0100
,
1001
0000
0000
0000
;

//---------------dance-single - ----------------
#NOTES:
     dance-single:
     :
     Beginner:
     4:
     0.144,0.166,0.007,0.007,0.000:
0000
0000
0000
0000
,
0000
0000
0000
0000
,
0000
0000
0000
0000
,
0000
0000
0000
0000
,
0001
0000
0001
0000
,
0100
0000
0100
0000
,
1000
0000
1000
0000
,
0100
0000
0100
0000
,
0010
0000
0010
0000
,
0001
0000
0001
0000
,
0010
0000
0010
0000
,
1000
0000
1000
0000
,
0100
0000
0100
0000
,
0001
0000
0001
0000
,
0100
0000
0100
0000
,
1000
0000
1000
0000
,
0020
0000
0000
0000
,
0000
0000
0000
0000
,
0030
0000
0000
0000
,
0000
0000
0000
0000
,
0000
0000
0000
0000
,
0000
0000
0000
0000
,
0000
0000
0000
0000
,
0100
0100
0100
0100
,
0100
0000
0010
0000
,
0100
0000
0010
0000
,
1000
0000
1000
0000
,
0001
0000
0001
0000
,
0100
0000
0010
0000
,
0100
0000
0010
0000
,
1000
0000
1000
0000
,
0001
0000
0001
0000
,
0010
0000
0010
0000
,
0100
0000
0100
0000
,
0001
0000
0001
0000
,
1000
0000
1000
0000
,
0000
0010
0000
0000
,
0000
0100
0000
0000
,
0000
0000
0001
0000
,
0000
0010
0000
1000
,
0000
0001
0000
1000
,
0000
0100
0000
0001
,
0000
1000
0000
0001
,
0000
0010
0000
0000
,
0001
0001
0000
1000
,
0000
0100
0000
0000
,
1000
1000
0000
0001
,
0000
0010
0000
0000
,
0100
0100
0000
0001
,
0000
1000
0000
0000
,
0010
0010
0000
0000
,
0000
0001
0001
0001
,
0000
1000
1000
1000
,
0000
0010
0010
0010
,
0000
0100
0100
0100
,
0000
0001
0001
0001
,
0000
1000
1000
1000
,
0000
0010
0000
0100
,
0100
0100
0100
0100
,
0100
0000
0000
0000
,
0100
0000
0000
0001
,
0001
0000
0010
0000
,
1000
0000
0000
1000
,
1000
0000
0010
0000
,
0001
0000
0000
0100
,
0100
0000
0001
0000
,
0010
0000
0000
1000
,
1000
0000
0100
0000
,
0001
0000
0000
1000
,
1000
0000
0010
0000
,
0001
0000
0000
0100
,
0100
0000
0010
0000
,
1000
0000
0000
0100
,
0100
0000
0001
0000
,
0010
0000
0000
0100
,
0100
0000
0010
0000
,
1001
0000
0000
0000
;
