#TITLE:PAPAYAPA BASS;
#SUBTITLE:;
#ARTIST:かめりあ feat. ななひら;
#TITLETRANSLIT:;
#SUBTITLETRANSLIT:;
#ARTISTTRANSLIT:Camellia feat. nanahira;
#GENRE:;
#CREDIT:;
#MENUCOLOR:;
#METERTYPE:DDR;
#BANNER:PAPAYAPA BASS.png;
#BACKGROUND:PAPAYAPA BASS-jacket.png;
#LYRICSPATH:;
#CDTITLE:;
#MUSIC:PAPAYAPA BASS.ogg;
#OFFSET:-0.020;
#SAMPLESTART:14.000;
#SAMPLELENGTH:12.430;
#SELECTABLE:YES;
#LISTSORT:;
#DISPLAYBPM:147.000;
#BPMS:0.000=147.000;
#STOPS:;
#BGCHANGES:1.667=PAPAYAPA BASS.avi=1.000=1=1=0,
99999=-nosongbg-=1.000=0=0=0 // don't automatically add -songbackground-
;
#ATTACKS:;

//---------------dance-single - ----------------
#NOTES:
     dance-single:
     :
     Hard:
     13:
     0.603,0.614,0.294,0.254,0.444:
0000
0000
0000
0000
,
0000
0000
0000
0000
,
0000
0000
0000
0000
,
0000
0000
0000
0000
,
0000
0000
0000
0000
0000
1000
0001
1000
,
1001
0000
0000
0000
0100
0010
0000
0100
0000
0000
0001
0000
0100
0000
0010
0000
,
1000
0000
0000
1000
0000
0000
0000
0000
0000
0000
0000
0000
0010
0000
0000
0000
,
0200
0000
0000
0000
0000
0000
0001
0000
0301
0000
0000
1000
0000
0000
2000
0000
,
0001
0001
0001
3001
0000
0010
0100
0010
,
0100
0000
0000
0000
1000
0010
0000
1000
0000
0000
0010
0000
0100
0000
0010
0000
,
0200
0000
0000
0310
0000
0000
0000
0000
0000
0000
0001
0000
0100
0000
0001
0000
,
0100
0000
0000
0000
0010
1000
0000
0010
0000
0000
0100
0000
0010
0000
0100
0000
,
0010
0000
0000
0100
0000
0000
0210
0000
0000
0000
0310
0000
1000
0000
0010
0000
,
0100
0000
0000
0000
0001
1000
0000
0002
0000
0000
0103
0000
0010
0000
0100
0000
,
0002
0000
0000
1003
0000
0000
0000
0000
0000
0000
0100
0000
0010
0000
0100
0000
,
0010
1000
0000
0010
0000
0000
1000
0000
0100
0000
0010
0000
0100
0000
0010
0000
,
0001
2002
0000
3003
,
0010
0000
0000
1000
0100
0000
1000
0000
0100
0010
0000
0010
0000
0000
0100
0000
,
0000
0000
0001
0100
0001
0100
0000
0010
0000
0100
0010
0000
0100
0000
0010
0000
,
1000
0000
0000
1000
0001
0000
0001
0000
0100
0010
0000
0100
0000
0000
0010
0000
,
1000
1100
0110
1001
,
0101
0000
0000
0000
0001
0000
0100
0000
0001
1000
0000
1000
0000
0000
0001
0000
,
0000
0000
0100
0010
0100
0010
0000
1000
0000
0000
0100
0000
0000
0000
0001
0000
,
0100
0000
0001
0100
0001
0000
0010
0000
1000
0100
1000
0100
1000
0000
0010
0000
,
0100
0000
0001
1000
0001
0000
0100
0000
0010
0000
1000
0000
0001
0000
1000
0000
,
1001
0000
0000
0000
1000
0000
0010
0000
0100
0001
0000
0001
0000
0000
0100
0000
,
0000
0000
1000
0010
1000
0010
0000
0100
0000
0000
0001
0000
0010
0000
1000
0000
,
0100
0000
0000
0010
0100
0000
0010
0000
0000
1000
0000
0001
0000
0000
0100
0000
,
0001
0011
0110
1001
,
0110
0000
0000
0000
1000
0000
0001
0000
0000
0001
0000
0001
0000
0000
0100
0000
,
0000
0000
1000
0010
1000
0010
0000
0100
0000
0000
0001
0000
0100
0000
0010
0000
,
1000
0000
0100
0010
0100
0000
0001
0000
0010
0100
0010
0100
0010
0000
1000
0000
,
0001
0000
0100
0010
0100
0000
0001
0000
1000
0100
1000
0100
2000
0000
0000
0000
,
3010
0000
0200
0000
0301
0010
0000
1000
,
0000
0000
0100
0000
0000
0000
0010
0000
1000
0100
0000
0010
0000
0000
0100
0000
,
0001
0000
0010
0000
0100
0010
0000
1000
,
0000
0000
0001
0000
0000
0000
0100
0000
0001
0100
0000
0010
0000
0000
1000
0000
,
0100
0000
0001
0000
1000
1000
0000
0010
,
0000
0000
0100
0000
0000
0000
0001
0000
1000
0000
0000
0010
0100
0000
0100
0000
,
0002
0000
0000
1000
2000
0000
3003
0000
,
0010
0010
0010
0010
0010
0010
1020
0000
,
2030
0000
0000
3001
0100
0001
0100
0010
,
2000
0000
0000
3002
0000
0000
0103
0000
,
0020
0000
0000
1030
0100
0010
0001
0100
,
0020
0000
0000
2030
0000
0000
3001
0000
,
0200
0000
0000
0301
0010
0100
1000
0010
,
0200
0000
0000
0302
0000
0000
1003
0000
,
0000
0000
0010
0100
0010
0100
0000
1001
0000
0100
0000
0010
1000
0000
0100
0000
,
0001
0000
0010
0100
0010
0100
0000
1001
0000
0100
0000
0010
1000
0000
0100
0000
,
0002
0000
1000
0000
1003
0100
0010
0001
,
1001
0000
0000
0000
0010
1000
0000
0100
1000
0000
0010
0000
0100
0000
0001
0000
,
2000
0000
0000
3001
0000
0000
0100
0000
0000
0000
0001
0000
0010
0000
0100
0000
,
1001
0000
0000
0000
0001
0100
0000
0001
0010
0000
0100
0000
1000
0000
0010
0000
,
0101
0000
0000
0100
0000
0000
1100
0000
0000
0000
0010
0000
0100
0000
1000
0000
,
1001
0000
0000
0000
0010
0100
0000
0010
0100
0000
1000
0000
0100
0000
0010
0000
,
0001
0000
0000
0101
0000
0000
1000
0000
0000
0000
0010
0000
0100
0000
0000
0000
,
0002
0000
0000
0000
1003
0000
0010
0000
0200
0000
0000
0302
0000
0000
2003
0000
,
0010
0000
0010
0000
3010
0100
0010
1000
,
1001
0000
0000
0000
0001
0100
0000
0010
1000
0000
0100
0000
0010
0000
0100
0000
,
0020
0000
0000
1030
0000
0000
0100
0000
0000
0000
0001
0000
0100
0000
0010
0000
,
1001
0000
0000
0000
1000
0100
0000
0010
0001
0000
0100
0000
0010
0000
1000
0000
,
1100
0000
0000
0100
0000
0000
0101
0000
0000
0000
0010
0000
0010
0000
1000
0000
,
1100
0000
0000
0000
0001
0100
0000
0001
0100
0000
0010
0000
1000
0000
0100
0000
,
0020
0000
0000
0130
0000
0000
1001
0000
0000
0000
0010
0000
0010
0000
0010
0000
,
1000
0001
0000
0001
1000
0000
0010
0000
0100
0000
0010
0000
0001
0000
0100
0000
,
1001
2002
0000
3003
,
0110
0000
0000
0000
1001
0000
1000
0000
0010
0100
0000
0100
0010
0000
1000
0000
,
0001
0000
0100
0001
0100
0001
0000
0010
0000
1000
0100
0000
0010
0000
0100
0000
,
0010
0000
0000
1000
0100
0000
0010
0000
0100
0001
0000
0001
0000
0000
0100
0000
,
0001
0110
1001
0110
,
1001
0000
0000
0000
1000
0000
1001
0000
0010
0100
0000
0100
0000
0000
0001
0000
,
1000
0000
0100
0010
0100
0010
0000
0001
0000
0100
0010
0000
1000
0000
0100
0000
,
0001
0000
0100
0010
0100
0000
1000
0000
0001
0100
0001
0100
0001
0000
0010
0000
,
1000
0100
0000
0001
0010
0100
0000
1000
0001
0000
0000
1001
0000
0000
0000
0000
;

//---------------dance-double - Copied from----------------
#NOTES:
     dance-double:
     Copied from:
     Hard:
     13:
     0.572,0.614,0.262,0.254,0.389:
00000000
00000000
00000000
00000000
,
00000000
00000000
00000000
00000000
,
00000000
00000000
00000000
00000000
,
00000000
00000000
00000000
00000000
,
00000000
00000000
00000000
00000000
00000000
00100000
00010000
00100000
,
00010000
00000000
00000000
00000000
00001000
00010000
00000000
00001000
00000000
00000000
00010000
00000000
00000100
00000000
00010000
00000000
,
00000010
00000000
00000000
00001000
00000000
00000000
00000000
00000000
00000000
00000000
00000000
00000000
00001001
00000000
00000000
00000000
,
00000220
00000000
00000000
00000000
00000330
00000000
00000001
00000000
00000100
00000000
00000000
00001000
00000000
00000000
00022000
00000000
,
00000000
00000000
00000000
00033000
00000000
00001000
01000000
00001000
,
01000000
00000000
00000000
00000000
00010000
00100000
00000000
00010000
00000000
00000000
00100000
00000000
01000000
00000000
00100000
00000000
,
02000000
00000000
00000000
03100000
00000000
00000000
00000000
00000000
00000000
00000000
01000000
00000000
00001000
00000000
01000000
00000000
,
00001000
00000000
00000000
00000000
10000000
00010000
00000000
10000000
00000000
00000000
00100000
00000000
01000000
00000000
00010000
00000000
,
00100000
00000000
00000000
01000000
00000000
00000000
00002000
00000000
00000000
00000000
00103000
00000000
00001000
00000000
00010000
00000000
,
00000100
00000000
00000000
00000000
00001000
00000001
00000000
00002000
00000000
00000000
00003100
00000000
00000010
00000000
00000100
00000000
,
00000002
00000000
00000000
00001003
00000000
00000000
00000000
00000000
00000000
00000000
00000100
00000000
00000010
00000000
00000100
00000000
,
00000010
00001000
00000000
00000010
00000000
00000000
00001000
00000000
00000100
00000000
00010000
00000000
00001000
00000000
00100000
00000000
,
00010000
20020000
00000000
30030000
,
00100000
00000000
00000000
10000000
01000000
00000000
10000000
00000000
01000000
00100000
00000000
00100000
00000000
00000000
01000000
00000000
,
00000000
00000000
00010000
01000000
00010000
01000000
00000000
00100000
00000000
01000000
00100000
00000000
00010000
00000000
00100000
00000000
,
00001000
00000000
00000000
00010000
00000100
00000000
00000100
00000000
00000000
00001000
00000000
00001000
00000000
00000000
00000010
00000000
,
00000001
00000011
00000110
00001001
,
00001100
00000000
00000000
00000000
00001000
00000000
00000100
00000000
00000000
00010000
00000000
00010000
00000000
00000000
00001000
00000000
,
00000000
00000000
00100000
00001000
00100000
00001000
00000000
01000000
00000000
00010000
01000000
00000000
00100000
00000000
00010000
00000000
,
01000000
00000000
00010000
01000000
00010000
00000000
00100000
00000000
10000000
01000000
10000000
01000000
10000000
00000000
00100000
00000000
,
01000000
00000000
00010000
00100000
00010000
00000000
01000000
00000000
00001000
00010000
00001000
00000000
00010000
00000000
00001000
00000000
,
00011000
00000000
00000000
00000000
00000010
00000000
00001000
00000000
00000000
00000001
00000000
00000001
00000000
00000000
00000100
00000000
,
00000000
00000000
00000010
00001000
00000010
00001000
00000000
00000100
00000000
00000000
00001000
00000000
00000100
00000000
00010000
00000000
,
00001000
00000000
00000000
00000000
00100000
00000000
00001000
00000000
00000000
01000000
00000000
00010000
00000000
00000000
01000000
00000000
,
00010000
00110000
01100000
10010000
,
01100000
00000000
00000000
00000000
10000000
00000000
00010000
00000000
00000000
00010000
00000000
00010000
00000000
00000000
01000000
00000000
,
00000000
00000000
10000000
00100000
10000000
00100000
00000000
01000000
00000000
00000000
00010000
00000000
01000000
00000000
00100000
00000000
,
10000000
01000000
00100000
00010000
00100000
00001000
00010000
00000100
,
00001000
00000010
00001000
00000100
00010000
00001000
01000000
00100000
,
10000000
00000000
02000000
00000000
03010000
00100000
00000000
10000000
,
00000000
00000000
01000000
00000000
00000000
00000000
00100000
00000000
10000000
01000000
00000000
00100000
00000000
00000000
00001000
00000000
,
00010000
00000000
00000100
00000000
00000010
00000100
00000000
00000001
,
00000000
00000000
00000100
00000000
00000000
00000000
00001000
00000000
00000010
00001000
00000000
00000100
00000000
00000000
00010000
00000000
,
00001000
00000000
01000000
00000000
10000000
10000000
00000000
00100000
,
00000000
00000000
01000000
00000000
00000000
00000000
00010000
00000000
10000000
00000000
00000000
00100000
01000000
00000000
01000000
00000000
,
00020000
00000000
00000000
10000000
20000000
00000000
30030000
00000000
,
00100000
00100000
00100000
00100000
00100000
00100000
10200000
00000000
,
20300000
00000000
00000000
30010000
01000000
00100000
01000000
00010000
,
00200000
00000000
00000000
00302000
00000000
00000000
00013000
00000000
,
00020000
00000000
00000000
00030100
00001000
00000010
00000100
00000001
,
00000020
00000000
00000000
00002030
00000000
00000000
00003100
00000000
,
00020000
00000000
00030000
00010000
00100000
01000000
10000000
00100000
,
02000000
00000000
00000000
03020000
00000000
00000000
10030000
00000000
,
00000000
00000000
00100000
00000000
00100000
00000000
00000000
10000000
00000000
01000000
00000000
00100000
00000000
00000000
00001000
00000000
,
00000000
00000000
00010000
00000000
00000100
00000000
00000000
00001000
00000000
00000100
00000000
00000010
00001000
00000000
00000100
00000000
,
00000020
00000000
00000000
00000000
00000000
00001030
00000100
00010000
,
00011000
00000000
00000000
00000000
00001000
00100000
00000000
00010000
01000000
00000000
00100000
00000000
01000000
00000000
00010000
00000000
,
20000000
00000000
00000000
30010000
00000000
00000000
01000000
00000000
00000000
00000000
00100000
00000000
00001000
00000000
00010000
00000000
,
00000010
00000000
00000000
00000000
00000100
00001000
00000000
00001000
00000100
00000000
00000010
00000000
00000001
00000000
00000100
00000000
,
00001100
00000000
00000000
00001000
00000000
00000000
01001000
00000000
00000000
00000000
00100000
00000000
01000000
00000000
10000000
00000000
,
10010000
00000000
00000000
00000000
00100000
01000000
00000000
00100000
01000000
00000000
10000000
00000000
01000000
00000000
00100000
00000000
,
00010000
00000000
00000000
01010000
00000000
00000000
01000000
00000000
00000000
00000000
00001000
00000000
00010000
00000000
00000000
00000000
,
00000200
00000000
00000000
00000000
00010300
00000000
00000010
00000000
00000200
00000000
00000000
00000302
00000000
00000000
00002003
00000000
,
00000100
00000000
00000100
00000000
00003100
00010000
00001000
01000000
,
00010000
00000000
00000000
00000000
00010000
01000000
00000000
00100000
10000000
00000000
00100000
00000000
01000000
00000000
00010000
00000000
,
20000000
00000000
00000000
30010000
00000000
00000000
01000000
00000000
00000000
00000000
00100000
00000000
00001000
00000000
00010000
00000000
,
00000010
00000000
00000000
00000000
00000100
00001000
00000000
00001000
00000100
00000000
00000010
00000000
00000001
00000000
00000100
00000000
,
00001100
00000000
00000000
00001000
00000000
00000000
01001000
00000000
00000000
00000000
00100000
00000000
01000000
00000000
10000000
00000000
,
10010000
00000000
00000000
00000000
00100000
01000000
00000000
00100000
01000000
00000000
10000000
00000000
01000000
00000000
00100000
00000000
,
00010000
00000000
00000000
01010000
00000000
00000000
01000000
00000000
00000000
00000000
00100000
00000000
00100000
00000000
00100000
00000000
,
10000000
00010000
00000000
00010000
10000000
00000000
00100000
00000000
01000000
00000000
00100000
00000000
00010000
00000000
01000000
00000000
,
10010000
20020000
00000000
30030000
,
11000000
00000000
01010000
00000000
01000000
00001000
00010000
00000000
,
00010000
00000000
00000010
00000000
00001000
00000000
00000000
00000001
00000000
00001000
00000000
00000001
00001000
00000000
00000010
00000000
,
00000100
00000010
00001000
00000000
00000100
00010000
00001000
00000000
,
00011000
00000000
00110000
00000000
01100000
00000000
11000000
01000000
,
01100000
00000000
00000000
00000000
01000000
00000000
00010000
00000000
00100000
00001000
00000000
00001000
00010000
00000000
00000010
00000000
,
00000100
00000000
00000001
00000010
00000001
00000010
00000000
00000001
00000000
00000100
00000010
00000000
00001000
00000000
00000100
00000000
,
00010000
00000000
00001000
00010000
00001000
00010000
00001000
00000000
00100000
00010000
00100000
00010000
00100000
00000000
01000000
00000000
,
00100000
10000000
00000000
01000000
00000000
00100000
00000000
00010000
01000000
00000000
00000000
10010000
00000000
00000000
00000000
00000000
;

//---------------dance-double - ----------------
#NOTES:
     dance-double:
     :
     Medium:
     9:
     0.468,0.439,0.333,0.190,0.040: // measure 1
00000000
00000000
00000000
00000000
,  // measure 2
00000000
00000000
00000000
00000000
,  // measure 3
00000000
00000000
00000000
00000000
,  // measure 4
00000000
00000000
00000000
00000000
,  // measure 5
00000000
00000000
00000000
00000000
,  // measure 6
00010000
00000000
00010000
00100000
01000000
00000000
00100000
00001000
,  // measure 7
00010000
00000000
00000100
00000000
00001000
00000000
00000010
00000001
,  // measure 8
00000200
00000000
00000000
00000000
00000010
00000000
00000000
00000000
00000310
00000000
00000000
00001000
00000000
00000000
00000200
00000000
,  // measure 9
00000010
00000000
00000010
00000000
00000300
00000001
00000010
00001000
,  // measure 10
00000100
00000000
00000100
00010000
00001000
00000000
00100000
00010000
,  // measure 11
01000000
00000000
10100000
00000000
01000000
00100000
01000000
00100000
,  // measure 12
01000000
00000000
00100000
00001000
00010000
00000000
00000100
00001000
,  // measure 13
00000010
00000000
00000000
00000001
00000000
00000000
00001001
00000000
00000000
00000000
00000010
00000000
00001000
00000000
00000100
00000000
,  // measure 14
00001000
00000000
00000100
00010000
00001000
00000000
01000000
00010000
,  // measure 15
00100000
00000000
00000000
10000000
00000000
00000000
00010000
00000000
00000000
00000000
01000000
00000000
00100000
00000000
01000000
00000000
,  // measure 16
00200000
00000000
00300000
00000000
10000000
01000000
00100000
00010000
,  // measure 17
00100000
00202000
00000000
00303000
,  // measure 18
00010000
00010100
00000100
00000110
,  // measure 19
00000001
00000010
00000100
00000000
00000100
00001000
00010000
00000000
,  // measure 20
00010000
00011000
00001000
00101000
,  // measure 21
00110000
01100000
11000000
10010000
,  // measure 22
11000000
00000000
01000000
00000000
01000000
00100000
00010000
00000000
,  // measure 23
00100000
00001000
00010000
00000000
00010000
00000010
00001000
00000000
,  // measure 24
00001000
00000100
00010000
00000100
00010000
00001000
00100000
00000000
,  // measure 25
00100000
00010000
01000000
00100000
10000000
01000000
00100000
00000000
,  // measure 26
00101000
00000000
00011000
00000000
00010000
00000100
00001000
00000000
,  // measure 27
00001000
00000010
00000100
00000000
00000001
00000010
00000100
00000000
,  // measure 28
00000010
00000000
00001010
00000000
00000100
00010000
00001000
00000000
,  // measure 29
00011000
00001010
00000101
00000011
,  // measure 30
00000101
00000000
00000010
00000000
00001000
00000100
00010000
00000000
,  // measure 31
00001000
00100000
00010000
00000000
00010000
01000000
10000000
00000000
,  // measure 32
10000000
01000000
10000000
01000000
00100000
00010000
00100000
00000000
,  // measure 33
00001000
01000000
00001000
00010000
00000010
00000100
00000010
00000001
,  // measure 34
00001001
00000000
00000010
00000000
00000010
00000100
00000000
00000001
,  // measure 35
00000000
00001000
00000000
00000000
00000010
00000000
00000100
00000000
,  // measure 36
00010000
00000000
00001000
00000000
00100000
00001000
00000000
00100000
,  // measure 37
00000000
00010000
00000000
00000000
10000000
00000000
01000000
00000000
,  // measure 38
00100000
00000000
00010000
00000000
00010000
01000000
00000000
00100000
,  // measure 39
00000000
10000000
00000000
00000000
01010000
00000000
10100000
00000000
,  // measure 40
10010000
00000000
00000000
01000000
02200000
00000000
00000000
03300000
,  // measure 41
00000000
00000000
00010000
00010000
,  // measure 42
02010000
00000000
00000000
03010000
00100000
00001000
00010000
00000010
,  // measure 43
00000200
00000000
00000000
00000020
00000000
00000000
00000330
00000000
,  // measure 44
00000002
00000000
00000000
00000103
00000010
00001000
00000100
00010000
,  // measure 45
00002000
00000000
00000000
02003000
00000000
00000000
03100000
00000000
,  // measure 46
20020000
00000000
00000000
30030000
01000000
00010000
00100000
00001000
,  // measure 47
00020000
00000000
00000000
00002000
00000000
00000000
00033000
00000000
,  // measure 48
00000100
00000000
00000100
00010000
00001000
00100000
00010000
00000000
,  // measure 49
00001000
00000000
00100000
00001000
00010000
00000010
00001000
00000000
,  // measure 50
00002002
00000000
00000000
00000000
00003003
00000010
00000010
00000100
,  // measure 51
00000010
00000000
00000001
00000010
00000100
00000000
00000010
00001000
,  // measure 52
00000100
00000000
00000000
00000100
00000000
00000000
00000000
00000000
00000000
00000000
00000010
00000000
00001000
00000000
00000010
00000000
,  // measure 53
00001000
00000000
00000100
00010000
00001000
00000000
00001000
01000000
,  // measure 54
00010000
00000000
00000000
00100000
00000000
00000000
01000000
00000000
00000000
00000000
00100000
00000000
01000000
00000000
10000000
00000000
,  // measure 55
00010000
00000000
01000000
00100000
00100000
00000000
00100000
00001000
,  // measure 56
00010000
00000000
00000000
00010000
00000000
00000000
00000000
00000000
00000000
00000000
00000000
00000000
00020000
00000000
00000000
00000000
,  // measure 57
00030200
00000000
00000000
00000000
00000000
00000000
00001300
00000000
00000010
00000000
00000000
00000100
00000000
00000000
00002000
00000000
,  // measure 58
00000000
00000000
00000010
00000000
00003010
00000100
00000010
00000100
,  // measure 59
00000010
00000000
00000010
00001000
00000100
00000000
00000100
00010000
,  // measure 60
00001000
00000000
01000000
00000000
00100000
01000000
10000000
01000000
,  // measure 61
00100000
00000000
01000000
00001000
00010000
00000000
00010000
00000010
,  // measure 62
00000100
00000000
00000000
00000100
00000000
00000000
00000101
00000000
00000000
00000000
00000100
00000000
00000010
00000000
00000100
00000000
,  // measure 63
00001010
00000000
00000100
00001000
00000100
00000000
00010000
00001000
,  // measure 64
00010000
00000000
00000000
00001000
00000000
00000000
00000000
00000000
00000000
00000000
00001000
00000000
00001000
00000000
00100000
00000000
,  // measure 65
00100000
00000000
00010000
00000000
01000000
00100000
00001000
00010000
,  // measure 66
00000100
00002200
00000000
00003300
,  // measure 67
00000100
00010100
00010000
00011000
,  // measure 68
00001000
00100000
00010000
00000000
00010000
01000000
10000000
00000000
,  // measure 69
10000000
11000000
00010000
00110000
,  // measure 70
00101000
00010100
00001010
00000101
,  // measure 71
00000001
00000000
00000011
00000000
00000001
00000100
00001000
00000000
,  // measure 72
00000010
00000000
00001100
00000000
00000100
00010000
00001000
00000000
,  // measure 73
00001000
00100000
00001000
00100000
00010000
00100000
00010000
00000000
,  // measure 74
10000000
00000000
01000000
00000000
00100000
00000000
00000000
00000000
00010000
00000000
00000000
10010000
00000000
00000000
00000000
00000000
;

//---------------dance-single - ----------------
#NOTES:
     dance-single:
     :
     Medium:
     9:
     0.468,0.439,0.349,0.190,0.040:
0000
0000
0000
0000
,
0000
0000
0000
0000
,
0000
0000
0000
0000
,
0000
0000
0000
0000
,
0000
0000
0000
0000
,
1000
0000
0100
0010
0100
0000
0010
1000
,
0010
0000
0100
0000
1000
0000
0010
0001
,
0020
0000
0000
0000
0100
0000
0000
0000
0130
0000
0000
0100
0000
0000
0200
0000
,
0010
0000
0010
0000
0300
0001
0010
0010
,
0010
0000
0100
0001
1000
0000
0010
0001
,
0100
0000
1001
0000
1000
0010
1000
0010
,
1000
0000
0010
0100
0001
0000
0100
0001
,
0010
0000
0000
0001
0000
0000
1001
0000
0000
0000
1000
0000
0001
0000
0010
0000
,
0001
0000
0010
0100
0001
0000
0010
0100
,
1000
0000
0000
0001
0000
0000
0100
0000
0000
0000
1000
0000
0001
0000
1000
0000
,
0002
0000
0003
0000
0100
1000
0001
0010
,
0001
2002
0000
3003
,
0010
1001
0100
1001
,
0010
0001
1000
0000
1000
0100
0010
0000
,
0010
0110
0100
0110
,
0011
0101
1001
0110
,
1001
0000
0001
0000
0001
0100
0001
0000
,
0100
0010
0100
0000
1000
0100
1000
0000
,
0010
0001
1000
0001
1000
0010
0100
0000
,
0100
1000
0001
0100
0010
0001
0100
0000
,
0110
0000
1010
0000
1000
0001
0010
0000
,
0010
0100
0001
0000
1000
0100
0001
0000
,
0100
0000
0110
0000
0001
1000
0010
0000
,
1010
0110
1001
1100
,
1001
0000
0100
0000
0010
0001
1000
0000
,
0010
0100
1000
0000
1000
0001
0010
0000
,
0010
0001
0010
0001
0100
1000
0100
0000
,
0010
0001
0010
1000
0100
0001
0100
1000
,
1010
0000
0100
0000
0100
0001
0000
1000
,
0000
0010
0000
0000
0100
0000
0001
0000
,
1000
0000
0010
0000
0100
0010
0000
0100
,
0000
1000
0000
0000
0010
0000
0001
0000
,
0100
0000
1000
0000
1000
0001
0000
0100
,
0000
0010
0000
0000
1001
0000
0110
0000
,
1010
0000
0000
0001
0202
0000
0000
0303
,
0000
0000
1000
1000
,
1002
0000
0000
1003
0100
0010
1000
0100
,
0002
0000
0000
0200
0000
0000
0303
0000
,
2000
0000
0000
3001
0100
0010
0001
1000
,
0020
0000
0000
0032
0000
0000
0103
0000
,
2002
0000
0000
3003
0001
1000
0100
0010
,
2000
0000
0000
0020
0000
0000
3030
0000
,
0001
0000
0001
1000
0010
0100
1000
0000
,
0010
0000
0100
0010
1000
0100
0010
0000
,
2002
0000
0000
0000
3003
0100
0100
0001
,
0100
0000
1000
0100
0001
0000
0100
0010
,
0001
0000
0000
0001
0000
0000
0000
0000
0000
0000
0100
0000
0010
0000
0100
0000
,
0010
0000
0001
1000
0010
0000
0010
0001
,
1000
0000
0000
0100
0000
0000
0001
0000
0000
0000
0100
0000
0001
0000
0010
0000
,
1000
0000
0001
0100
0100
0000
0100
0010
,
1000
0000
0000
1000
0000
0000
0000
0000
0000
0000
0000
0000
2000
0000
0000
0000
,
3002
0000
0000
0000
0000
0000
0013
0000
0100
0000
0000
0001
0000
0000
0020
0000
,
0000
0000
0100
0000
0130
0001
0100
0001
,
0100
0000
0100
0010
0001
0000
0001
1000
,
0010
0000
0001
0000
0100
0001
0010
0001
,
0100
0000
0001
0010
1000
0000
1000
0100
,
0001
0000
0000
0001
0000
0000
1001
0000
0000
0000
0001
0000
0100
0000
0001
0000
,
0110
0000
0001
0010
0001
0000
1000
0010
,
1000
0000
0000
0010
0000
0000
0000
0000
0000
0000
0010
0000
0010
0000
0100
0000
,
0100
0000
1000
0000
0001
0100
0010
1000
,
0001
2002
0000
3003
,
0001
1001
1000
1001
,
0010
0100
1000
0000
0100
0001
0010
0000
,
0010
1001
0100
1001
,
1100
0110
0011
1001
,
1000
1100
0001
0011
,
0100
0011
0010
1100
,
0010
0100
0010
0100
1000
0100
1000
0000
,
0010
0000
0001
0000
0100
0000
0000
0000
1000
0000
0000
1001
0000
0000
0000
0000
;

//---------------dance-double - ----------------
#NOTES:
     dance-double:
     :
     Easy:
     5:
     0.315,0.410,0.143,0.373,0.000:
00000000
00000000
00000000
00000000
,
00000000
00000000
00000000
00000000
,
00000000
00000000
00000000
00000000
,
00000000
00000000
00000000
00000000
,
00000000
00000000
00000000
00000000
,
00010000
00001000
00010000
00001000
,
00020000
00030000
00000000
00001000
,
00200000
00300000
00100000
00100000
,
00200000
00000000
00300000
00000000
,
10000000
01000000
10000000
01000000
,
20000000
30010000
00000000
00000000
,
00100000
00001000
00100000
00001000
,
00020000
00001000
00031000
00000000
,
00000100
00001000
00000100
00001000
,
00000200
00001300
00000000
00000000
,
00000020
00000030
00000200
00000300
,
00000001
00002002
00000000
00003003
,
00000010
00000010
00000001
00000001
,
00000100
00000100
00000010
00001000
,
00000100
00000100
00010000
00010000
,
00001000
00100000
00010000
01000000
,
10000000
00100000
01000000
00100000
,
01000000
01000000
00001000
00001000
,
00010000
00010000
00020000
00030000
,
00001000
00001000
00002000
00003000
,
00010000
00000100
00010000
00000100
,
00001000
00100000
00001000
00100000
,
00010000
01000000
00010000
01000000
,
10000000
01000000
00100000
10010000
,
01000000
00010000
01000000
00010000
,
00100000
00001000
00100000
00001000
,
00010000
00000100
00010000
00000100
,
00001000
00000100
00000010
00000001
,
00002001
00000000
00000000
00000000
,
00003020
00000000
00000230
00000000
,
00000302
00000000
00000000
00000000
,
00000203
00000000
00000320
00000000
,
00020030
00000000
00000000
00000000
,
00032000
00000000
02003000
00000000
,
03100000
00000000
02200000
00000000
,
03300000
00000000
00000000
20000000
,
30020000
00030000
00100000
01000000
,
20000000
00000000
00000000
30020000
00000000
00000000
00030000
00000000
,
00000000
00000000
01000000
00010000
,
00200000
00000000
00000000
00302000
00000000
00000000
00013000
00000000
,
00000200
00000000
00001300
00000010
,
00000002
00000000
00000000
00000200
00000000
00000000
00000303
00000000
,
00000000
00000010
00001000
00001100
,
00000000
00000010
00000001
00000101
,
00001001
00000000
00000100
00010000
,
00011000
00001000
00001000
00001000
,
00200000
00310000
00000000
10000000
,
11000000
00100000
00100000
00100000
,
02000000
00010000
03010000
00100000
,
00002000
00010000
00010000
00013000
,
00020000
00030100
00000000
00001000
,
00002020
00003030
00000202
00000303
,
00002002
00000000
00003003
00000010
,
00000100
00000010
00001000
00000010
,
00002000
00003100
00000000
00000100
,
00010000
00001000
00100000
00010000
,
02000000
00100000
03100000
00000000
,
10000000
01000000
10000000
01000000
,
00020000
00130000
00000000
00000000
,
01100000
00000000
10010000
00000000
,
01100000
02200000
00000000
03300000
,
10000000
01000000
10000000
01000000
,
00010000
00100000
00010000
00100000
,
00001000
00010000
00000100
00001000
,
00000010
00000001
00000100
00001001
,
00000010
00000100
00000010
00000100
,
00010000
00001000
00010000
00001000
,
01000000
00100000
01000000
00100000
,
10000000
01000000
00100000
10010000
;

//---------------dance-single - ----------------
#NOTES:
     dance-single:
     :
     Beginner:
     3:
     0.150,0.205,0.000,0.167,0.000:
0000
0000
0000
0000
,
0000
0000
0000
0000
,
0000
0000
0000
0000
,
0000
0000
0000
0000
,
0000
0000
0000
0000
,
0010
0000
0000
0000
,
0100
0000
0000
0000
,
0010
0000
0010
0000
,
0020
0000
0030
0000
,
1000
0000
0000
0000
,
0001
0000
0000
0000
,
1000
0000
0000
0000
,
0001
0000
0001
0000
,
0001
0000
0000
0000
,
1000
0000
0000
0000
,
0010
0000
0010
0000
,
0010
0020
0030
0000
,
0100
0000
0000
0000
,
0100
0000
0100
0000
,
0010
0000
0000
0000
,
0001
0001
0001
0001
,
0000
0000
0000
0000
,
1000
0000
1000
0000
,
2000
0000
3000
0000
,
0002
0000
0003
0000
,
0100
0000
0000
0000
,
0010
0000
0010
0000
,
0010
0000
0000
0000
,
1000
1000
1000
1000
,
0000
0000
0000
0000
,
0001
0000
0001
0000
,
0200
0000
0300
0000
,
0020
0000
0000
0030
,
2000
0000
0000
0000
,
3000
0000
0000
0000
,
0002
0000
0000
0000
,
0003
0000
0000
0000
,
0200
0000
0000
0000
,
0300
0000
0000
0000
,
0010
0000
0020
0000
,
0030
0000
0000
0000
,
1000
0000
1000
0000
,
2000
0000
3000
0000
,
0000
0000
0001
0000
,
0002
0000
0003
0000
,
0100
0000
0100
0000
,
0200
0000
0300
0000
,
0000
0010
0020
0030
,
0000
0010
0020
0030
,
0010
0000
0000
1000
,
1000
0000
0001
0000
,
1000
0000
0000
0000
,
0001
0000
1000
0000
,
0001
0000
0002
0003
,
0001
0000
1000
0000
,
0001
0000
0000
0000
,
0010
0000
0010
0000
,
0020
0000
0030
0000
,
0100
0100
0100
0000
,
0200
0300
0000
0000
,
0010
0010
0010
0000
,
0010
0010
0010
0000
,
1000
1000
1000
0000
,
0001
0002
0003
0000
,
0010
0000
0010
0000
,
0001
0002
0000
0003
,
0000
0100
0000
0100
,
0000
0100
0100
0100
,
0000
0001
0000
0001
,
0001
0001
0001
0001
,
0000
0100
0000
0100
,
0000
0010
0010
0010
,
0020
0000
0030
0000
,
0100
0000
0100
0100
;

//---------------dance-single - ----------------
#NOTES:
     dance-single:
     :
     Easy:
     5:
     0.315,0.410,0.167,0.373,0.000:
0000
0000
0000
0000
,
0000
0000
0000
0000
,
0000
0000
0000
0000
,
0000
0000
0000
0000
,
0000
0000
0000
0000
,
0001
1000
0001
1000
,
0002
0003
0000
1000
,
0002
0003
0100
0100
,
0200
0000
0300
0000
,
1000
0100
1000
0100
,
1000
0100
0000
0000
,
0001
0100
0001
0100
,
0002
0100
0103
0000
,
0010
0100
0010
0100
,
0020
0130
0000
0000
,
0020
0030
0200
0300
,
1001
2002
0000
3003
,
0010
0010
0001
0001
,
0100
0100
1000
1000
,
0010
0010
0001
0001
,
1000
0100
0010
1001
,
0010
0010
0100
0100
,
1000
0001
1000
0001
,
0010
0010
0020
0030
,
0100
0100
0200
0300
,
0010
0010
1000
1000
,
0100
0100
0001
0001
,
0010
0010
1000
1000
,
0001
0010
0100
1001
,
0010
0010
0100
0100
,
0001
1000
0001
1000
,
0100
0100
0200
0300
,
0010
0010
0020
0030
,
2001
0000
0000
0000
,
3020
0000
0230
0000
,
0302
0000
0000
0000
,
0203
0000
0320
0000
,
2030
0000
0000
0000
,
3200
0000
0320
0000
,
0031
0000
0220
0000
,
0330
0000
0000
2000
,
3002
0003
0010
0100
,
2000
0000
0000
3002
0000
0000
0003
0000
,
0000
0000
0010
0100
,
2000
0000
0000
3002
0000
0000
0003
0000
,
0200
0000
1300
0010
,
0002
0000
0000
0200
0000
0000
0303
0000
,
0000
0010
1000
1100
,
0000
0010
0001
0101
,
1001
0000
0100
0010
,
1001
1000
1000
1000
,
0200
0301
0000
0100
,
1001
0001
0001
0001
,
0200
0001
0301
0010
,
1001
0001
0001
0001
,
0200
1300
0000
1000
,
0220
0330
2002
3003
,
0220
0000
0330
0010
,
1000
1000
0001
0001
,
2000
3100
0000
0010
,
0001
0001
1000
1000
,
0200
0010
0310
0000
,
0010
0010
0100
0100
,
2000
3001
0000
0000
,
0110
0000
1001
0000
,
0110
0220
0000
0330
,
1000
0100
1000
0100
,
0001
0010
0001
0010
,
0010
0001
0100
1000
,
1000
0100
0010
1001
,
0010
0100
0010
0100
,
0001
1000
0001
1000
,
0100
0010
0100
0010
,
1000
0100
0010
1001
;
