#VERSION:0.83;
#TITLE:Only for you;
#SUBTITLE:;
#ARTIST:NieN ft. Lee Ji Ae;
#TITLETRANSLIT:;
#SUBTITLETRANSLIT:;
#ARTISTTRANSLIT:;
#GENRE:;
#ORIGIN:;
#CREDIT:;
#BANNER:Only for you.png;
#BACKGROUND:Only for you-bg.png;
#PREVIEWVID:;
#JACKET:Only for you-jacket.png;
#CDIMAGE:;
#DISCIMAGE:;
#LYRICSPATH:;
#CDTITLE:;
#MUSIC:Only for you.ogg;
#OFFSET:-0.222000;
#SAMPLESTART:48.319000;
#SAMPLELENGTH:15.800000;
#SELECTABLE:YES;
#BPMS:0.000=122.000;
#STOPS:;
#DELAYS:;
#WARPS:;
#TIMESIGNATURES:0.000=4=4;
#TICKCOUNTS:0.000=4;
#COMBOS:0.000=1;
#SPEEDS:0.000=1.000=0.000=0;
#SCROLLS:0.000=1.000;
#FAKES:;
#LABELS:0.000=Song Start;
#BGCHANGES:0.000=Only for you.avi=1.000=0=0=0=StretchNoLoop====,
288.000=Only for you-bg.png=1.000=0=0=1=====,
99999=-nosongbg-=1.000=0=0=0 // don't automatically add -songbackground-
;
#KEYSOUNDS:;
#ATTACKS:
;

//---------------dance-single - ----------------
#NOTEDATA:;
#CHARTNAME:;
#STEPSTYPE:dance-single;
#DESCRIPTION:;
#CHARTSTYLE:;
#DIFFICULTY:Hard;
#METER:10;
#RADARVALUES:0.330231,0.454800,0.164138,0.253047,0.215432,338.000000,314.000000,24.000000,37.000000,0.000000,0.000000,0.000000,0.000000,0.000000,0.330231,0.454800,0.164138,0.253047,0.215432,338.000000,314.000000,24.000000,37.000000,0.000000,0.000000,0.000000,0.000000,0.000000;
#CREDIT:;
#NOTES:
0000
0000
0000
0000
,
0000
0000
0000
0000
,
0000
0000
0000
0000
,
0000
0000
0000
0000
,
0000
0000
0000
0000
,
2002
0000
0003
0000
,
0020
0000
3000
0030
,
0100
0000
0000
0100
0000
0000
0000
0000
0220
0000
0000
0000
0330
0000
0000
0000
,
2002
0000
0000
0000
0000
0000
0000
0000
3003
0000
0001
0100
0001
0000
0000
0000
,
1000
0000
0001
0010
0100
1000
0100
0010
,
0100
0000
0000
0100
0000
0000
0010
0000
1000
0000
0000
0000
0010
0000
0001
0000
,
0010
0000
1000
0100
0010
0000
0001
0100
,
0010
0000
0000
0010
0000
0000
0100
0000
1000
0000
0001
0000
0100
0000
0000
0000
,
1000
0100
0010
0100
1000
0001
0010
0100
,
0010
0000
0000
0000
1000
0000
0100
0000
0010
0000
0000
1001
0000
0000
0010
0000
,
0100
0000
0000
0100
0000
0000
1001
0000
2002
0000
0000
0000
3003
0000
0000
0000
,
0010
0000
0000
0010
0000
0000
1001
0000
1001
0000
0000
0000
0010
0000
0100
0000
,
1000
0000
0000
0001
0100
0000
0001
0000
0010
0000
0100
0000
1000
0000
0010
0000
,
0001
0000
0000
1000
0100
0000
1000
0000
0100
0000
0010
0000
0001
0000
0100
0000
,
1000
0000
0000
0010
0100
0000
0001
0000
0010
0000
0100
0000
1000
0000
0010
0000
,
0001
0000
0000
0110
0000
0000
1000
0000
0100
0000
0010
0000
0001
0000
0100
0010
,
0100
0000
0000
0001
0000
0000
0010
0000
2000
0000
0000
0000
0100
0000
0000
0000
,
0010
0000
0000
0000
3001
0000
0100
0000
0001
0000
0000
0010
0000
0000
1000
0000
,
0001
0000
1000
0000
0001
0000
1000
0000
0001
1000
0001
1000
0001
1000
0001
1000
,
0020
0030
0100
0010
,
1000
0000
0000
1000
0000
0000
0010
0000
0001
0000
0000
0000
1000
0000
0000
0000
,
0001
0000
0000
0001
0000
0000
0100
0000
1000
0000
0000
0010
0000
0000
1000
0000
,
0001
0000
0000
0001
0000
0000
0010
0000
1000
0000
0000
0000
0001
0000
0000
0000
,
1000
0000
0001
0100
0001
0000
0000
0000
0110
0000
0000
0000
1001
0000
0000
0000
,
0001
0000
0000
0001
0000
0000
1000
0000
0001
0000
0000
0000
0000
0000
0100
0000
,
0010
0000
0000
1000
0000
0000
0001
0000
1000
0000
0000
0000
0000
0000
0010
0000
,
0010
0000
0000
0001
0000
0000
0100
0000
0010
0000
0000
1000
0000
0000
0100
0000
,
1000
0010
1100
0101
,
1000
0000
0000
0001
0000
0000
0100
0000
0001
0000
0000
0000
0100
0000
0000
0000
,
0010
0000
0000
1000
0000
0000
0010
0000
0100
0000
0000
0010
0000
0000
1000
0000
,
0001
0000
0000
0100
0000
0000
1000
0000
0001
0000
0000
0100
0000
0000
1000
0000
,
1001
0000
0000
0000
0110
0000
0000
0000
1000
0000
0000
0100
0000
0000
1000
0000
,
0001
0000
0000
0000
0000
0000
0000
0000
0001
0000
0000
1000
0000
0000
0001
0000
,
0100
0000
0000
0001
0000
0000
1000
0000
0001
0000
0000
0000
1001
0000
0000
0000
,
0001
0000
0000
0100
0000
0000
0010
0000
2000
0000
0000
0000
3100
0000
0000
0000
,
2001
0000
0000
0000
0000
0000
3001
0000
0200
0000
0000
0302
0000
0000
1003
0000
,
0020
0000
0000
0000
0000
0000
0130
0001
,
0010
0000
0000
0000
1000
0000
0000
0000
0001
0000
0000
0001
0000
0000
0001
0000
,
2000
0000
0000
0000
0000
0000
3010
0001
,
0100
0000
0000
0000
0000
0000
0010
0000
1000
0000
0000
1000
0000
0000
0001
0000
,
0200
0000
0000
0000
0000
0000
0000
0000
0000
0000
0300
0000
0000
0000
0001
0100
,
0002
0000
2000
3003
,
0100
0000
0000
0010
0000
0000
0001
0000
1000
0000
0000
0100
0000
0000
0010
0000
,
2000
0000
0000
0000
,
0002
0000
0000
3003
,
0010
0000
0000
0010
0000
0000
1000
0000
0002
0000
0000
0000
0103
0000
0000
0000
,
0010
0000
0000
0010
0000
0000
0001
1000
0001
0000
0000
1000
0000
0000
1000
0000
,
0001
0000
0000
0001
0000
0000
0100
0000
0002
0000
0000
0000
1003
0000
0000
0000
,
0001
0000
0010
0100
0010
0000
1001
0000
,
1000
0000
0000
1000
0000
0000
0100
0000
1000
0000
0000
0000
0101
0000
0000
0000
,
0001
0000
0000
0001
0000
0000
0100
0000
0001
0000
0000
0000
1100
0000
0000
0000
,
0010
0000
0000
0010
0000
0000
1000
0000
0100
0000
0000
0100
0000
0000
0000
0000
,
1000
0000
0000
1000
0000
0000
1000
0000
1000
0000
0000
0000
0101
0000
0000
0000
,
0010
0000
0000
0001
0000
0000
0200
0000
0020
0000
0000
0000
0330
0000
0000
0000
,
0010
0000
0000
1000
0000
0000
1000
0000
0010
0000
0000
0001
0000
0000
0001
0000
,
0100
0000
0000
0100
0000
0000
0010
0000
1000
0000
0000
1000
0000
0000
0001
0000
,
0200
0300
0001
1100
,
0020
0000
0000
0000
0030
0000
0000
0000
1000
0000
0000
0001
0000
0000
1000
0000
,
0001
0000
0000
0100
0000
0000
0001
0000
0100
0000
0000
0000
0000
0000
0001
0010
,
0001
0000
0000
0100
0000
0000
1000
0000
0020
0000
0000
0000
0000
0000
0000
0000
,
1030
0000
0000
0000
0000
0000
0100
0000
0020
0000
0000
2030
0000
0000
3001
0000
,
0220
0000
0000
0000
0000
0000
0000
0000
0000
0000
0000
0000
0330
0000
0001
1000
,
0002
0003
0200
0300
,
2002
0000
0000
0000
,
0000
0000
0000
0000
,
3003
0000
0000
0000
;

//---------------dance-double - ----------------
#NOTEDATA:;
#CHARTNAME:;
#STEPSTYPE:dance-double;
#DESCRIPTION:;
#CHARTSTYLE:;
#DIFFICULTY:Hard;
#METER:9;
#RADARVALUES:0.282357,0.382990,0.191495,0.355633,0.160719,289.000000,261.000000,28.000000,52.000000,0.000000,0.000000,0.000000,0.000000,0.000000,0.282357,0.382990,0.191495,0.355633,0.160719,289.000000,261.000000,28.000000,52.000000,0.000000,0.000000,0.000000,0.000000,0.000000;
#CREDIT:;
#NOTES:
00000000
00000000
00000000
00000000
,
00000000
00000000
00000000
00000000
,
00000000
00000000
00000000
00000000
,
00000000
00000000
00000000
00000000
,
00000000
00000000
00000000
00000000
,
20000000
00000000
00000000
30000000
,
02000000
00000000
03020000
00000000
,
00030100
00000000
00000000
00000100
00000000
00000000
00001001
00000000
00002002
00000000
00000000
00000000
00003003
00000000
00000000
00000000
,
00000220
00000000
00000000
00000330
,
00000011
00000000
00001100
00000000
00010000
00100000
01000000
10000000
,
00100000
00000000
00000000
00100000
00000000
00000000
10000000
00000000
00010000
00000000
00000000
00000000
00000000
00000000
00000000
00000000
,
11000000
00000000
00110000
00000000
00001000
00000100
00000010
00000000
,
00000010
00000000
00000000
00000010
00000000
00000000
00001000
00000000
00000001
00000000
00000000
00000000
00000000
00000000
00000000
00000000
,
00000101
00000000
00001100
00000000
00010000
01000000
10000000
00000000
,
00100000
00000000
00000000
10000000
01000000
00000000
00000000
00001000
,
00010000
00000000
00000000
00000100
00000000
00000000
00000100
00000000
00002000
00000000
00000000
00000000
00003010
00000000
00000000
00000000
,
00000001
00000000
00000000
00000001
00000000
00000000
00000100
00000000
00002000
00000000
00000000
00000000
00003100
00000000
00000000
00000000
,
00011000
00000000
00010000
00000000
00100000
01000000
10000000
00000000
,
10100000
00000000
00100000
00000000
00010000
00100000
00001000
00000000
,
00011000
00000000
00000100
00000000
00001000
00000100
00000010
00000000
,
00001001
00000000
00000000
00001100
00000000
00000000
00000100
00000000
00000101
00000000
00000000
00000000
00000010
00000000
00001000
00000000
,
00000100
00000000
00010000
00001000
00100000
00010000
01000000
00000000
,
00100000
00000000
00000000
00000000
10000000
00000000
01000000
00000000
00100000
00000000
00000000
00001000
00000000
00000000
00010000
00000000
,
00000010
00000000
00000000
00000100
00000000
00000000
00000001
00000000
00002000
00000000
00000000
00000000
00003002
00000000
00000000
00000000
,
00000203
00000300
00000010
00000100
,
00000001
00000000
00000000
00000001
00000000
00000000
00001000
00000000
00000200
00000000
00000000
00000000
00000300
00000000
00000000
00000000
,
00010000
00000000
00000000
00010000
00000000
00000000
00001000
00000000
00001000
00000000
00000000
00000000
00100000
00000000
00000000
00000000
,
00010000
00000000
00000000
00010000
00000000
00000000
01000000
00000000
00200000
00000000
00000000
00000000
00300000
00000000
00000000
00000000
,
20000000
30020000
02030000
03200000
,
10300000
00000000
00000000
10000000
00000000
00000000
01000000
00000000
00100000
00000000
00000000
00000000
00010000
00000000
00000000
00000000
,
00001000
00000000
00000000
00001000
00000000
00000000
00000100
00000000
00000010
00000000
00000000
00000000
00000001
00000000
00000000
00000000
,
00000100
00000000
00000000
00000100
00000000
00000000
00000100
00000000
00001000
00000000
00000000
00001000
00000000
00000000
00001000
00000000
,
00000010
00000000
00000000
00000010
00000000
00000000
00000010
00000000
00010000
00000000
00000000
00000000
00011000
00000000
00000000
00000000
,
00001000
00000000
00000000
00001000
00000000
00000000
00100000
00000000
00020000
00000000
00000000
00000000
01030000
00000000
00000000
00000000
,
00100000
00000000
00000000
00100000
00000000
00000000
00100000
00000000
10000000
00000000
00000000
10000000
00000000
00000000
01000000
00000000
,
00010000
00000000
00000000
00010000
00000000
00000000
00100000
00000000
00001000
00000000
00000000
00001000
00000000
00000000
00010000
00000000
,
00000020
00000030
00001001
00001100
,
00000202
00000000
00000000
00000000
00000303
00000000
00000000
00000000
00000010
00000000
00000000
00000010
00000000
00000000
00001000
00000000
,
00000100
00000000
00000000
00000100
00000000
00000000
00020000
00000000
00002000
00000000
00000000
00000000
00033000
00000000
00000000
00000000
,
00001000
00000000
00000000
00100000
00000000
00000000
00020000
00000000
02000000
00000000
00000000
00000000
00000000
00000000
00000000
00000000
,
03030000
00000000
00000000
00000000
00000000
00000000
00100000
00000000
10000000
00000000
00000000
10000000
00000000
00000000
00020000
00000000
,
02000000
00000000
00000000
03030000
,
00100000
00000000
00000000
00000000
00000000
00000000
00000000
00000000
00001000
00000000
00000000
00010000
00000000
00000000
00001000
00000000
,
00020000
00000000
00000000
00030000
,
00000200
00000300
00002000
00003000
,
00000020
00000000
00000000
00000030
,
00002000
00000000
00000000
00000000
00000000
00003000
00000000
00000000
00000020
00000000
00000000
00000000
00000030
00000000
00000000
00000000
,
00000100
00000000
00000000
00000100
00000000
00000000
00000100
00000000
00000010
00000000
00000000
00000010
00000000
00000000
00000010
00000000
,
00002000
00000000
00000000
00000000
,
00000002
00000000
00000000
00003003
,
00000001
00000000
00000000
00000001
00000000
00000000
00001000
00000000
00000200
00000000
00000000
00000000
00000300
00000000
00000000
00000000
,
00010000
00000000
00000000
00010000
00000000
00000000
00001000
00000000
00001000
00000000
00000000
00000000
00100000
00000000
00000000
00000000
,
00010000
00000000
00000000
01000000
00000000
00000000
00010000
00000000
02000000
00000000
00000000
00000000
03000000
00000000
00000000
00000000
,
00200000
00000000
00000000
20000000
00300000
00000000
00000000
00000000
30020000
00000000
00000000
00000000
02030000
00000000
00000000
00000000
,
03100000
00000000
00000000
00100000
00000000
00000000
10000000
00000000
11000000
00000000
00000000
00000000
00000000
00000000
00100000
00000000
,
00100000
00000000
00000000
00001000
00000000
00000000
00010000
00000000
00011000
00000000
00000000
00000000
00000000
00000000
00010000
00000000
,
00000100
00000000
00000000
00000100
00000000
00000000
00001000
00000000
00000010
00000000
00000000
00000010
00000000
00000000
00000001
00000000
,
00000100
00000000
00000000
00000100
00000000
00000000
00001000
00000000
00010000
00000000
00000000
00000000
00010000
00000000
00000000
00000000
,
00110000
00000000
00000000
00010000
00000000
00000000
01000000
00000000
02200000
00000000
00000000
00000000
03300000
00000000
00000000
00000000
,
10000000
00000000
00000000
01000000
00000000
00000000
00100000
00000000
00010000
00000000
00000000
00000000
00100000
00000000
00000000
00000000
,
00001000
00000000
00000000
00010000
00000000
00000000
00001000
00000000
00000100
00000000
00000000
00000010
00000000
00000000
00000100
00000000
,
00000002
00000000
00000003
00000000
00001001
00000000
00000000
00000101
,
00000101
00000000
00000000
00000000
00000000
00000000
00000010
00000000
00001000
00000000
00000000
00000100
00000000
00000000
00010000
00000000
,
00001000
00000000
00000000
01000000
00000000
00000000
00010000
00000000
10000000
00000000
00000000
00000000
00000000
00000000
10000000
00100000
,
10000000
00000000
00000000
00010000
00000000
00000000
00100000
00000000
00020000
00000000
00000000
00000000
00030000
00000000
00000000
00000000
,
00001000
00000000
00000000
00001000
00000000
00000000
00000010
00000000
00000100
00000000
00000000
00000100
00000000
00000000
00000001
00000000
,
00002002
00000000
00000000
00000000
00000000
00000000
00000000
00000000
00000000
00000000
00000000
00003000
00000003
00000000
00000000
00000000
,
00000200
00000000
00000000
00000000
00000000
00000300
00000000
00000000
00020000
00000000
00000000
00000000
00030000
00000000
00000000
00000000
,
00022000
00000000
00000000
00000000
,
00000000
00000000
00000000
00000000
,
00033000
00000000
00000000
00000000
;

//---------------dance-double - ----------------
#NOTEDATA:;
#CHARTNAME:;
#STEPSTYPE:dance-double;
#DESCRIPTION:;
#CHARTSTYLE:;
#DIFFICULTY:Medium;
#METER:7;
#RADARVALUES:0.277472,0.382990,0.198334,0.239369,0.143621,284.000000,255.000000,29.000000,35.000000,0.000000,0.000000,0.000000,0.000000,0.000000,0.277472,0.382990,0.198334,0.239369,0.143621,284.000000,255.000000,29.000000,35.000000,0.000000,0.000000,0.000000,0.000000,0.000000;
#CREDIT:;
#NOTES:
// measure 0
00000000
00000000
00000000
00000000
,  // measure 1
00000000
00000000
00000000
00000000
,  // measure 2
00000000
00000000
00000000
00000000
,  // measure 3
00000000
00000000
00000000
00000000
,  // measure 4
00000000
00000000
00000000
00000000
,  // measure 5
00020000
00000000
00000000
00000000
00000000
00000000
00030000
00001000
,  // measure 6
00000200
00000000
00000320
00001030
,  // measure 7
00000001
00000000
00000000
00000001
00000000
00000000
00001000
00000000
00000200
00000000
00000000
00000000
00000300
00000000
00000000
00000000
,  // measure 8
00002002
00000000
00000000
00003003
,  // measure 9
00000020
00001000
00000000
00001030
,  // measure 10
00000100
00000000
00000000
00000100
00000000
00000000
00001000
00000000
00000001
00000000
00000000
00000000
00000000
00000000
00000000
00000000
,  // measure 11
00002000
00000100
00000000
00003100
,  // measure 12
00010000
00000000
00000000
00010000
00000000
00000000
00001000
00000000
00100000
00000000
00000000
00000000
00010000
00000000
00000000
00000000
,  // measure 13
02000000
00100000
00000000
13000000
,  // measure 14
00200000
01000000
00000000
01300000
,  // measure 15
00010000
00000000
00000000
00010000
00000000
00000000
00010000
00000000
00000100
00000000
00000000
00000000
00000000
00000000
00000000
00000000
,  // measure 16
00000010
00000000
00000000
00000010
00000000
00000000
00001000
00000000
00000001
00000000
00000000
00000000
00000000
00000000
00000000
00000000
,  // measure 17
00000001
00000000
00000010
00000000
00001000
00000100
00001000
00000000
,  // measure 18
00010000
00000000
00100000
00000000
10000000
01000000
10000000
00000000
,  // measure 19
01000000
00000000
10000000
00000000
00100000
00010000
00100000
00000000
,  // measure 20
00001000
00000000
00000000
00001000
00000000
00000000
00000010
00000000
00000100
00000000
00000000
00000000
00001001
00000000
00000000
00000000
,  // measure 21
00000010
00000000
00000000
00000010
00000000
00000000
00001000
00000000
00000002
00000000
00000000
00000000
00000000
00000000
00000000
00000000
,  // measure 22
00002003
00000000
00000000
00000000
00000000
00000000
00000000
00000000
00003100
00000000
00000000
00010000
00000000
00000000
00000100
00000000
,  // measure 23
00010000
00000000
00000000
00001000
00000000
00000000
00010000
00000000
00002000
00000000
00000000
00000000
00000000
00000000
00000000
00000000
,  // measure 24
01003000
00000000
00100000
10010000
,  // measure 25
01000000
00000000
00000000
01000000
00000000
00000000
10000000
00000000
00010000
00000000
00000000
00000000
10010000
00000000
00000000
00000000
,  // measure 26
00100000
00000000
00000000
00100000
00000000
00000000
10000000
00000000
00010000
00000000
00000000
00100000
00000000
00000000
00001000
00000000
,  // measure 27
00010000
00000000
00000000
00010000
00000000
00000000
00010000
00000000
00001000
00000000
00000000
00000000
00000010
00000000
00000000
00000000
,  // measure 28
00000100
00000010
00001001
00000110
,  // measure 29
00000001
00000000
00000000
00000010
00000000
00000000
00001000
00000000
00000100
00000000
00000000
00000000
00001000
00000000
00000000
00000000
,  // measure 30
00010000
00000000
00000000
00100000
00000000
00000000
10000000
00000000
01000000
00000000
00000000
00000000
10000000
00000000
00000000
00000000
,  // measure 31
01000000
00000000
00000000
00100000
00000000
00000000
00000000
00000000
00010000
00000000
00000000
00001000
00000000
00000000
00000000
00000000
,  // measure 32
00000100
00001001
00000010
00001100
,  // measure 33
00010000
00000000
00000000
00100000
00000000
00000000
10000000
00000000
01000000
00000000
00000000
00000000
00100000
00000000
00000000
00000000
,  // measure 34
00001000
00000000
00000000
00000100
00000000
00000000
00000001
00000000
00000010
00000000
00000000
00001000
00000000
00000000
00000100
00000000
,  // measure 35
00010000
00000000
00000000
00001000
00000000
00000000
00010000
00000000
00001000
00000000
00000000
00100000
00000000
00000000
00010000
00000000
,  // measure 36
02000000
03100000
11000000
01010000
,  // measure 37
00200000
00301000
00011000
00001100
,  // measure 38
00000010
00001001
00000100
00001001
,  // measure 39
00000010
00000000
00001000
00000100
00000000
00010000
00001000
00000000
,  // measure 40
00200000
00000000
00000000
00000000
00300000
00000000
00010000
00000000
01000000
00000000
00000000
01000000
00000000
00000000
01000000
00000000
,  // measure 41
02200000
00000000
00000000
03300000
,  // measure 42
20000000
30000000
00020000
00030000
,  // measure 43
00002000
00000000
00000000
00003000
,  // measure 44
00000002
00000003
00002000
00003000
,  // measure 45
00020000
00000000
00000000
10000000
00000000
10030000
00010000
00000000
,  // measure 46
00002000
00000000
00000000
00010000
00000000
00013000
00001000
00000000
,  // measure 47
00000010
00000000
00000000
00000010
00000000
00000000
00000000
00000000
00000100
00000000
00000000
00000100
00000000
00000000
00000000
00000000
,  // measure 48
00002020
00000000
00000000
00000030
,  // measure 49
00000002
00000000
00000000
00003003
,  // measure 50
00000110
00000000
00000000
00000010
00000000
00000000
00000010
00000000
00000010
00000000
00000000
00000000
00001000
00000000
00000000
00000000
,  // measure 51
00011000
00000000
00000000
00010000
00000000
00000000
00010000
00000000
00100000
00000000
00000000
00100000
00000000
00000000
00100000
00000000
,  // measure 52
01100000
00000000
00000000
01000000
00000000
00000000
01000000
00000000
01000000
00000000
00000000
00000000
10010000
00000000
00000000
00000000
,  // measure 53
00110000
00000000
00000000
00010000
00000000
00000000
00010000
00000000
00001000
00000000
00000000
00001000
00000000
00000000
00001000
00000000
,  // measure 54
00000010
00000000
00000000
00000010
00000000
00000000
00000010
00000000
00001000
00000000
00000000
00000000
00001001
00000000
00000000
00000000
,  // measure 55
00000010
00000000
00000000
00000010
00000000
00000000
00000010
00000000
00000001
00000000
00000000
00000000
00001001
00000000
00000000
00000000
,  // measure 56
00000100
00000000
00000000
00000100
00000000
00000000
00000000
00000000
00010000
00000000
00000000
00010000
00000000
00000000
00000000
00000000
,  // measure 57
01000000
00000000
10100000
01010000
,  // measure 58
00100000
00000000
00000000
00100000
00000000
00000000
00001000
00000000
00010000
00000000
00000000
00000000
00000010
00000000
00000000
00000000
,  // measure 59
00000100
00000000
00000000
00000100
00000000
00000000
00010000
00000000
00001000
00000000
00000000
00000000
01000000
00000000
00000000
00000000
,  // measure 60
00100000
00000000
00000000
00100000
00000000
00000000
10000000
00000000
00010000
00000000
00000000
00100000
00000000
00000000
00100000
00000000
,  // measure 61
00001000
00000000
00000000
00000000
00010000
00000000
00000100
00000000
00001000
00000000
00000000
00000010
00000000
00000000
00001000
00000000
,  // measure 62
00000010
00000000
00000000
00000000
00001001
00000000
00000000
00000000
00000010
00000000
00000000
00000100
00000000
00000000
00000010
00000000
,  // measure 63
00000100
00000010
00001001
00000100
,  // measure 64
00010000
00000000
00001000
00100000
00000000
00010000
01000000
00000000
,  // measure 65
20020000
00000000
00000000
00000000
30030000
00000000
00100000
00000000
00001000
00000000
00000000
00001000
00000000
00000000
00001000
00000000
,  // measure 66
00020000
00000000
00000000
00000000
00000000
00000000
00000000
00030000
,  // measure 67
00000020
00000000
00000230
00000300
,  // measure 68
00002002
00000000
00000000
00000000
,  // measure 69
00000000
00000000
00000000
00000000
,  // measure 70
00003003
00000000
00000000
00000000
;

//---------------dance-single - ----------------
#NOTEDATA:;
#CHARTNAME:;
#STEPSTYPE:dance-single;
#DESCRIPTION:;
#CHARTSTYLE:;
#DIFFICULTY:Medium;
#METER:7;
#RADARVALUES:0.274541,0.335116,0.088908,0.355633,0.191495,281.000000,268.000000,13.000000,52.000000,0.000000,0.000000,0.000000,0.000000,0.000000,0.274541,0.335116,0.088908,0.355633,0.191495,281.000000,268.000000,13.000000,52.000000,0.000000,0.000000,0.000000,0.000000,0.000000;
#CREDIT:;
#NOTES:
0000
0000
0000
0000
,
0000
0000
0000
0000
,
0000
0000
0000
0000
,
0000
0000
0000
0000
,
0000
0000
0000
0000
,
0002
0000
0000
0000
,
2003
0000
3020
0000
,
0130
0000
0000
0100
0000
0000
1000
0000
0001
0000
0000
0000
0000
0000
0000
0000
,
2002
0000
0000
3003
,
0200
0010
0000
0310
,
2000
0001
0000
3001
,
0020
0100
0000
0130
,
0001
0000
0000
0001
0000
0000
0001
0000
2002
0000
0000
0000
3003
0000
0000
0000
,
0020
0100
0000
0130
,
2000
0100
0000
3100
,
0001
0000
0000
0001
0000
0000
0001
0000
0100
0000
0000
0000
1001
0000
0000
0000
,
1000
0000
0000
1000
0000
0000
1000
0000
0100
0000
0000
0000
1001
0000
0000
0000
,
0001
0010
0001
0010
0001
0000
0100
0000
,
0020
0000
0000
0100
0130
0000
1001
0000
,
1000
0100
1000
0100
1000
0000
0010
0000
,
0200
0000
0000
0010
0310
0000
1001
0000
,
0001
0000
0000
0010
0000
0000
0100
0000
2000
0000
0000
0000
0000
0000
0000
0000
,
3002
0000
0103
0010
,
0001
0000
0000
0001
0000
0000
1000
0000
0200
0000
0000
0000
0300
0000
0000
0000
,
2002
3003
0010
0100
,
0010
0000
0000
0010
0000
0000
2000
0000
0002
0000
0000
0000
0000
0000
0000
0000
,
3003
0000
0000
0000
0000
0000
0001
1000
0001
0000
0000
0001
0000
0000
0100
0000
,
0010
0000
0000
0010
0000
0000
0002
0000
2000
0000
0000
0000
0000
0000
0000
0000
,
3003
0000
0000
0000
0010
0000
0000
0000
1000
0000
0000
0001
0000
0000
1000
0000
,
0010
0000
0000
0010
0000
0000
0010
0000
0100
0000
0000
0000
0000
0000
0001
1000
,
0001
0000
0000
0100
0000
0000
0100
0000
0010
0000
0000
0000
0000
0000
1000
0000
,
0100
0000
0000
0100
0000
0000
0100
0000
0010
0000
0000
0010
0000
0000
0010
0000
,
0200
0310
0001
1001
,
0010
0000
0000
0010
0000
0000
0002
0000
0200
0000
0000
0000
0000
0000
0000
0000
,
0303
0000
0000
0000
0000
0000
1000
0001
1000
0000
0000
0010
0000
0000
0010
0000
,
1000
0000
0000
1000
0000
0000
0001
0000
1000
0000
0000
1000
0000
0000
0010
0000
,
0200
0000
0000
0000
0310
0000
0000
0000
1000
0000
0000
0001
0000
0000
1000
0000
,
0001
0000
0000
0000
0000
0000
0100
0000
0010
0000
0000
0100
0000
0000
0100
0000
,
0001
0000
0000
0001
0000
0000
1000
0000
0001
0000
0000
0000
0000
0000
0001
1000
,
0001
0000
0000
1000
0000
0000
0100
0000
0020
0000
0000
0000
0000
0000
1000
0000
,
2030
0000
0000
0000
0000
0000
0001
0000
3001
0000
0000
0001
0000
0000
1000
0000
,
2000
0000
0000
0000
0000
0000
3001
0010
,
0002
0000
0000
0000
0203
0000
0000
0000
0310
0000
0000
0010
0000
0000
0000
0000
,
1000
0000
0000
2000
0000
0000
0000
0000
0000
0000
0000
0000
3010
0000
0100
0000
,
0010
0000
0000
0000
0000
0000
1000
0000
1000
0000
0000
0001
0000
0000
1000
0000
,
0002
0000
0000
0000
2000
0000
0000
0000
0000
0000
0000
0000
3003
0000
0010
0100
,
0010
0000
0000
0010
0000
0000
1000
0001
1000
0000
0000
0000
0000
0000
0000
0000
,
0001
0000
0000
0010
0000
0000
0100
0000
0100
0000
0000
0010
0000
0000
0001
0000
,
2000
0000
0000
0000
0000
0000
0000
3000
,
2002
0000
0000
3003
,
0110
0000
0000
0100
0000
0000
0200
0000
0020
0000
0000
0000
0000
0000
0000
0000
,
0330
0000
0000
0000
0000
0000
0010
0100
0010
0000
0000
1000
0000
0000
0001
0000
,
0100
0000
0000
0100
0000
0000
0100
0000
0200
0000
0000
0000
0000
0000
0000
0000
,
0301
0000
0000
0000
1100
0000
0000
0000
0100
0000
0000
0001
0000
0000
0100
0000
,
0010
0000
0000
0010
0000
0000
0010
0000
0100
0000
0000
0000
0000
0000
0001
1000
,
0001
0000
0000
0100
0000
0000
0100
0000
0010
0000
0000
0000
0000
0000
1000
0000
,
0100
0000
0000
0100
0000
0000
0100
0000
0010
0000
0000
0010
0000
0000
0010
0000
,
0200
0310
0001
1001
,
0010
0000
0000
0010
0000
0000
0002
0000
0200
0000
0000
0000
0000
0000
0000
0000
,
0303
0000
0000
0000
0000
0000
1000
0001
1000
0000
0000
0010
0000
0000
0010
0000
,
1000
0000
0000
1000
0000
0000
0001
0000
1000
0000
0000
1000
0000
0000
0010
0000
,
0200
0000
0000
0000
0310
0000
0000
0000
1000
0000
0000
0001
0000
0000
1000
0000
,
0001
0000
0000
0000
0000
0000
0100
0000
0010
0000
0000
0100
0000
0000
0100
0000
,
0001
0000
0000
0001
0000
0000
1000
0000
0001
0000
0000
0000
0000
0000
0001
1000
,
0001
0000
0000
1000
0000
0000
0100
0000
0020
0000
0000
0000
0000
0000
1000
0000
,
2030
0000
0000
0000
0000
0000
0001
0000
3001
0000
0000
0001
0000
0000
0010
0000
,
0200
0000
0000
0000
0000
0000
0300
0001
,
2000
0000
0000
3000
0020
0000
0000
0030
,
2002
0000
0000
0000
,
0000
0000
0000
0000
,
3003
0000
0000
0000
;

//---------------dance-single - ----------------
#NOTEDATA:;
#CHARTNAME:;
#STEPSTYPE:dance-single;
#DESCRIPTION:;
#CHARTSTYLE:;
#DIFFICULTY:Beginner;
#METER:1;
#RADARVALUES:0.086954,0.143621,0.013678,0.088908,0.000000,89.000000,87.000000,2.000000,13.000000,0.000000,0.000000,0.000000,0.000000,0.000000,0.086954,0.143621,0.013678,0.088908,0.000000,89.000000,87.000000,2.000000,13.000000,0.000000,0.000000,0.000000,0.000000,0.000000;
#CREDIT:;
#NOTES:
0000
0000
0000
0000
,
0000
0000
0000
0000
,
0000
0000
0000
0000
,
0000
0000
0000
0000
,
0000
0000
0000
0000
,
0010
0000
0000
0000
,
0001
0000
0000
0000
,
1000
0000
0000
0000
,
0100
0000
0000
0000
,
0000
0001
0000
0001
,
0000
0000
0001
0000
,
0000
1000
0000
1000
,
0000
0000
1000
0000
,
0000
0010
0000
0010
,
0000
0010
0000
0010
,
0000
0000
0010
0000
,
0010
0000
0000
0000
,
0100
0000
0100
0000
,
0100
0000
0000
0000
,
0001
0000
0001
0000
,
0001
0000
0000
0000
,
1000
0000
1000
0000
,
1000
0000
0000
0000
,
0010
0000
0000
0000
,
0100
0000
0000
0000
,
0001
0000
0002
0000
,
0003
0000
0000
0000
,
1000
0000
2000
0000
,
3000
0000
0000
0000
,
0010
0000
0010
0000
,
0100
0000
0100
0000
,
1000
0000
0001
0000
,
1001
0000
0000
0000
,
0010
0000
0020
0000
,
0030
0000
0000
0000
,
0100
0000
0100
0000
,
0200
0000
0300
0000
,
0001
0000
0001
0000
,
1000
0000
1000
0000
,
0010
0000
0020
0000
,
0030
0000
0100
0000
,
0100
0000
0000
0000
,
0001
0000
0000
0000
,
0010
0000
0000
0000
,
1000
0000
0000
0000
,
0100
0000
0000
0000
,
1000
0000
1000
0000
,
0010
0000
0010
0000
,
0002
0000
0000
0000
,
0003
0000
0000
0000
,
0100
0000
0200
0000
,
0300
0000
0000
0000
,
0010
0000
0020
0000
,
0030
0000
0000
0000
,
1000
0000
1000
0000
,
0001
0000
0001
0000
,
0100
0000
0010
0000
,
0100
0000
0000
0000
,
0001
0000
0002
0000
,
0003
0000
0000
0000
,
1000
0000
1000
0000
,
2000
0000
3000
0000
,
0010
0000
0010
0000
,
0100
0000
0100
0000
,
0010
0000
0020
0000
,
0030
0000
0100
0000
,
0100
0000
0000
0000
,
0001
0000
1000
0000
,
2002
0000
0000
0000
,
0000
0000
0000
0000
,
3003
0000
0000
0000
;

//---------------dance-single - ----------------
#NOTEDATA:;
#CHARTNAME:;
#STEPSTYPE:dance-single;
#DESCRIPTION:;
#CHARTSTYLE:;
#DIFFICULTY:Easy;
#METER:2;
#RADARVALUES:0.093793,0.143621,0.027356,0.129943,0.000000,96.000000,92.000000,4.000000,19.000000,0.000000,0.000000,0.000000,0.000000,0.000000,0.093793,0.143621,0.027356,0.129943,0.000000,96.000000,92.000000,4.000000,19.000000,0.000000,0.000000,0.000000,0.000000,0.000000;
#CREDIT:;
#NOTES:
0000
0000
0000
0000
,
0000
0000
0000
0000
,
0000
0000
0000
0000
,
0000
0000
0000
0000
,
0000
0000
0000
0000
,
0010
0000
0000
0000
,
0100
0000
0000
0000
,
0010
0000
0010
0000
,
0010
0000
0000
0000
,
1000
0000
1000
0000
,
0001
0000
0001
0000
,
1000
0000
1000
0000
,
0001
0000
0001
0000
,
0100
0000
0100
0000
,
0100
0000
0100
0000
,
0010
0000
0020
0000
,
0030
0000
0000
0000
,
1000
0000
1000
0000
,
0100
0000
0100
0000
,
0001
0000
0001
0000
,
0100
0000
0100
0000
,
1000
0000
2000
0000
,
3000
0000
0000
0000
,
0001
0000
0002
0000
,
0003
0000
0000
0000
,
0010
0000
0020
0000
,
0030
0000
0000
0000
,
0100
0000
0200
0000
,
0300
0000
0000
0000
,
0001
0000
0100
0000
,
1000
0000
0100
0000
,
0001
0000
0001
0000
,
0001
0000
0000
0000
,
0100
0000
0200
0000
,
0300
0000
0000
0000
,
0010
0000
0020
0000
,
0030
0000
0000
0000
,
0001
0000
0010
0000
,
0100
0000
1000
0000
,
0001
0000
2000
0000
,
3000
0000
0002
0000
,
0003
0000
0000
0000
,
0100
0000
0100
0000
,
0100
0000
0000
0000
,
0010
0000
0010
0000
,
0010
0000
0000
0000
,
1000
0000
1000
0000
,
0001
0000
0001
0000
,
0100
0000
0000
0000
,
0020
0000
0030
0000
,
1001
0000
0002
0000
,
0003
0000
0000
0000
,
1001
0000
2000
0000
,
3000
0000
0000
0000
,
0010
0000
0010
0000
,
0001
0000
0001
0000
,
0100
0000
0100
0000
,
0200
0000
0300
0000
,
0010
0000
0020
0000
,
0030
0000
0000
0000
,
1000
0000
1000
0000
,
1000
0000
0000
0000
,
0001
0000
1000
0000
,
0001
0000
1000
0000
,
0010
0000
0020
0000
,
0030
0000
0100
0000
,
2002
0000
3003
0000
,
0010
0000
0100
0000
,
2002
0000
0000
0000
,
0000
0000
0000
0000
,
3003
0000
0000
0000
;

//---------------dance-double - ----------------
#NOTEDATA:;
#CHARTNAME:;
#STEPSTYPE:dance-double;
#DESCRIPTION:;
#CHARTSTYLE:;
#DIFFICULTY:Easy;
#METER:3;
#RADARVALUES:0.134828,0.191495,0.041035,0.088908,0.000000,138.000000,132.000000,6.000000,13.000000,0.000000,0.000000,0.000000,0.000000,0.000000,0.134828,0.191495,0.041035,0.088908,0.000000,138.000000,132.000000,6.000000,13.000000,0.000000,0.000000,0.000000,0.000000,0.000000;
#CREDIT:;
#NOTES:
00000000
00000000
00000000
00000000
,
00000000
00000000
00000000
00000000
,
00000000
00000000
00000000
00000000
,
00000000
00000000
00000000
00000000
,
00000000
00000000
00000000
00000000
,
02000000
00000000
03000000
00000000
,
00200000
00000000
01300000
00000000
,
00010000
00010000
00010000
00000000
,
00001000
00001000
00001000
00000000
,
00000000
00000010
00000000
00000010
,
00000000
00001000
00000000
00001000
,
00000000
00000100
00000000
00000100
,
00000001
00000001
00000001
00000000
,
00000000
00000100
00000000
00000100
,
00000000
00001000
00000000
00001000
,
00100000
00100000
00100000
00000000
,
01000000
01000000
01000000
00000000
,
10000000
10000000
10000000
00000000
,
00010000
00010000
00010000
00000000
,
00001000
00001000
00001000
00000000
,
00000001
00000001
00000001
00000000
,
00000100
00000100
00000100
00000000
,
00000010
00000000
00000100
00000000
,
00000010
00000010
00000010
00000000
,
00001000
00000000
00000000
00000000
,
00010000
01000000
10000000
00000000
,
00100000
00000000
00010000
00000000
,
00001000
00000100
00000001
00000000
,
00000010
00000000
00001000
00000000
,
00010000
00100000
01000000
00000000
,
10000000
01000000
00100000
00000000
,
00001000
00000000
00001000
00000000
,
00001001
00000000
00000000
00000000
,
00000001
00000001
00000100
00000000
,
00001000
00000000
00010000
00000000
,
10000000
10000000
01000000
00000000
,
00010000
00000000
00001000
00000000
,
00000010
00000000
00001001
00000000
,
00000010
00000000
00001001
00000000
,
00000100
00000100
00000200
00000000
,
00000300
00000000
00000010
00000000
,
00020000
00000000
00030000
00000000
,
00002000
00000000
00003000
00000000
,
00200000
00000000
00300000
00000000
,
02000000
00000000
03000000
00000000
,
20000000
00000000
30000000
00000000
,
00020000
00000000
00030000
00000000
,
00000010
00000000
00000100
00000000
,
00000001
00000000
00000000
00000000
,
00002002
00000000
00000000
00003003
,
00000010
00000000
00000010
00000000
,
00001000
00000000
00001000
00000000
,
00010000
00000000
00010000
00000000
,
00100000
00000000
00100000
00000000
,
10000000
00000000
10000000
00000000
,
01000000
00000000
01000000
00000000
,
00010000
00000000
00010000
00000000
,
00000100
00000000
00000100
00000000
,
00000001
00000000
00000001
00000000
,
00000100
00000000
00000010
00000000
,
00001000
00000000
00001000
00000000
,
01000000
00000000
00100000
00000000
,
10000000
00000000
10000000
00000000
,
00100000
00000000
00010000
00000000
,
00001000
00000000
00001000
00000000
,
00000100
00000000
00000010
00000000
,
00001001
00000000
00000000
00000000
,
00000100
00000000
00010000
00000000
,
00022000
00000000
00000000
00000000
,
00000000
00000000
00000000
00000000
,
00033000
00000000
00000000
00000000
;

//---------------dance-single - Copied from----------------
#NOTEDATA:;
#CHARTNAME:Copied from;
#STEPSTYPE:dance-single;
#DESCRIPTION:Copied from;
#CHARTSTYLE:;
#DIFFICULTY:Challenge;
#METER:12;
#RADARVALUES:0.478737,0.526611,0.287242,0.198334,0.386409,490.000000,448.000000,42.000000,29.000000,0.000000,0.000000,0.000000,0.000000,0.000000,0.478737,0.526611,0.287242,0.198334,0.386409,490.000000,448.000000,42.000000,29.000000,0.000000,0.000000,0.000000,0.000000,0.000000;
#CREDIT:Copied from;
#NOTES:
0000
0000
0000
0000
,
0000
0000
0000
0000
,
0000
0000
0000
0000
,
0000
0000
0000
0000
,
0000
0000
0000
0000
,
0002
0000
0000
0000
0100
0000
0000
0000
1000
0000
0000
0000
0100
0003
0000
0000
,
1000
0000
0100
0000
0010
0000
0200
0000
0000
0000
0000
0000
0300
0000
1000
0010
,
1000
0000
0000
1001
0000
0000
0010
0000
0200
0000
0000
0000
0301
0000
0000
0000
,
2000
0000
0000
0000
0010
0000
0000
0000
3100
0000
0001
1000
0001
0000
0000
0000
,
1000
0100
1000
0100
0001
0100
0001
0100
,
1000
0010
1000
0010
0001
0010
0001
0010
,
1000
0100
1000
0100
0010
0001
0010
0001
,
0100
0000
0000
0100
0000
0000
0010
0000
0010
0000
0000
0000
1000
0100
1000
0100
,
1000
0010
1000
0100
1000
0010
0100
0010
,
0100
0000
0001
0000
0100
0000
0001
0000
0100
0000
0000
0010
0000
0000
1000
0000
,
1100
0000
0000
1100
0000
0000
0001
0000
0202
0000
0000
0000
0303
0000
0000
0000
,
0020
0000
0000
0130
0100
0000
0001
0100
,
1000
0100
0000
0100
1000
0000
0010
0000
0100
0000
0001
0000
0100
0000
0001
0100
,
0001
0100
0000
0100
0010
0000
0100
0000
1000
0000
0100
0000
0010
0100
0010
0100
,
0010
0100
0000
0100
0001
0000
0001
0000
0010
0000
0100
0000
1000
0000
0000
0000
,
0101
0000
0000
0101
0000
0000
0100
0000
1000
0000
0100
0000
0010
0100
0010
0100
,
0020
0000
0000
1000
0000
0000
0100
0000
1030
0000
0001
0000
1000
0000
0001
0000
,
1000
0000
0000
0100
0000
0000
0010
0000
0001
0000
0100
0000
0001
0000
0100
0000
,
0101
0000
0001
0000
0001
0000
0001
0000
1000
0001
1000
0001
1000
0001
1000
0010
,
0200
0000
0320
2030
,
3001
0000
0000
0001
0100
0000
0100
0000
0010
0100
0010
0000
1000
0000
0001
0000
,
1000
0000
0000
1000
0100
0000
0010
0000
0001
0100
0010
0000
0100
0000
0001
0000
,
1000
0000
0000
1000
0001
0000
0100
0000
0010
0100
0010
0000
0100
0000
0001
0000
,
1000
0000
1000
0010
1000
0010
0100
0001
0100
0000
0000
0000
1001
0000
0000
0000
,
1100
0000
0000
0010
0000
0000
0001
0000
0100
0001
0100
0000
0001
0000
0010
0001
,
0100
0000
0000
0010
0000
0000
0010
0000
0100
0001
0100
0000
0010
0000
1000
0010
,
0100
0000
0000
0100
0001
0000
0001
0000
0010
0000
0000
1000
0010
0000
0100
0000
,
0001
0000
1000
0001
1000
0001
1000
0000
1010
0000
0000
0000
0101
0000
0000
0000
,
1100
0000
0000
1000
0010
0000
0100
0000
0001
0100
0001
0000
0100
0000
0010
1000
,
0010
0000
0000
0010
1000
0000
0100
1000
0100
0000
0000
1000
0010
0000
0100
0000
,
0001
0010
0000
0010
0001
0000
0100
0000
1000
0010
0000
0010
1000
0000
0100
0000
,
0001
0000
1000
0001
1000
0001
1000
0000
0110
0000
0000
1000
0000
0000
0001
0000
,
0110
0000
0000
0001
0000
0000
0001
0000
0110
0000
0000
1000
0000
0000
1000
0000
,
0101
0000
0000
0010
0000
0000
0010
0000
1100
0000
0000
0001
0000
0000
0001
0100
,
0001
0000
0000
0010
0000
0000
0100
0000
1000
0000
0100
0000
0010
0000
0001
0000
,
0100
0000
0000
0110
0000
0000
0010
0000
1000
0000
0000
0100
0000
0000
0001
0000
,
2002
0000
0000
0000
3003
0000
0010
1000
,
0100
0000
0000
0000
0001
0000
1000
0000
0001
0000
0000
0010
0000
0000
0100
0000
,
1000
0000
1000
0002
0000
0000
0000
0000
0003
0000
0100
0000
0010
0000
1000
0000
,
0002
0000
0000
0000
0003
0000
0100
0000
0010
0000
0000
0010
0000
0000
1000
0000
,
2001
0000
0000
0000
0000
0000
0001
0000
0000
0000
0000
0000
3001
0000
0100
0001
,
0200
0000
0000
0000
0000
0000
0310
1000
0020
0000
0000
0000
0000
0000
0030
0000
,
1100
0000
0000
0100
0000
0000
0100
0000
0001
0000
0000
0001
0000
0000
1000
0000
,
2002
0000
0000
3000
,
0200
0000
0000
0303
,
1001
0000
0000
0110
0000
0000
1000
0000
0001
0100
0001
0000
1000
0010
1000
0000
,
0101
0000
0000
0101
0000
0000
1000
0100
1000
0000
0001
0010
0000
0000
0010
0000
,
0001
0000
0100
0001
0000
0000
1000
0000
0001
1000
0001
0000
1000
0000
0100
0000
,
0010
0000
0100
0001
0100
0001
0100
0001
0100
0000
0000
0000
1000
0000
0000
0000
,
0110
0000
0000
0010
0000
0000
0010
0000
1000
0001
1000
0000
0001
0000
0100
0010
,
0100
0000
0000
0001
0000
0000
1000
0000
0001
0100
0001
0000
1000
0000
0100
0000
,
0010
0000
0000
0010
0001
0000
0001
0000
0100
0000
0000
0100
0010
0000
0010
0000
,
1000
0000
0001
0100
0001
0100
0001
0000
1100
0000
0000
0000
0101
0000
0000
0000
,
1010
0000
0000
0010
0000
0000
0010
0000
0100
0001
0100
0000
0010
0000
1000
0100
,
1000
0000
0000
0001
0000
0000
0100
0001
0100
0000
0000
0010
0000
0000
1000
0000
,
0100
0000
0000
0010
0000
0000
0001
0000
1001
0000
0000
0001
0000
0000
0100
0000
,
0110
0000
0000
0010
0000
0000
1000
0000
0101
0000
0000
0101
0000
0000
1000
0000
,
1100
0000
0000
1100
0000
0000
0010
0000
0101
0000
0000
0101
0000
0000
0010
0000
,
1001
0000
0000
1001
0000
0000
1000
0000
0001
0000
0100
0000
0010
0000
1000
0100
,
1000
0000
0000
0001
0100
0000
0001
0000
1000
0010
1000
0000
0001
0000
0100
0000
,
0010
0000
0000
0010
0000
0000
0010
0000
2000
0000
0000
3002
0000
0000
0103
0000
,
0220
0000
0000
0000
0000
0000
0000
0000
0330
0000
0000
0000
1000
0001
1000
0001
,
0200
0300
0020
0030
,
2002
0000
0000
0000
,
0000
0000
0000
0000
,
3003
0000
0000
0000
;

//---------------dance-double - ----------------
#NOTEDATA:;
#CHARTNAME:;
#STEPSTYPE:dance-double;
#DESCRIPTION:;
#CHARTSTYLE:;
#DIFFICULTY:Challenge;
#METER:12;
#RADARVALUES:0.423047,0.550548,0.170978,0.198334,0.348794,433.000000,408.000000,25.000000,29.000000,0.000000,0.000000,0.000000,0.000000,0.000000,0.423047,0.550548,0.170978,0.198334,0.348794,433.000000,408.000000,25.000000,29.000000,0.000000,0.000000,0.000000,0.000000,0.000000;
#CREDIT:;
#NOTES:
00000000
00000000
00000000
00000000
,
00000000
00000000
00000000
00000000
,
00000000
00000000
00000000
00000000
,
00000000
00000000
00000000
00000000
,
00000000
00000000
00000000
00000000
,
00020000
00000000
00000000
00030000
,
10000000
00000000
00100000
00000000
01000000
00000000
00020000
00000000
00000000
00000000
00000000
00030000
00000000
00000000
00100000
00010000
,
00100000
00000000
00000000
00100000
00000000
00000000
00001000
00000000
00022000
00000000
00000000
00000000
00033000
00000000
00000000
00000000
,
00000000
00000000
00001000
00000000
00000100
00000000
00000010
00000000
00000001
00000000
00000100
00000001
00000100
00000000
00000000
00000000
,
00000010
00001000
00000010
00001000
00000010
00001000
00000100
00001000
,
00000100
00010000
00001000
00010000
00001000
00100000
00001000
00100000
,
00010000
01000000
00010000
01000000
00100000
01000000
00100000
00000000
,
10100000
00000000
00000000
10100000
00000000
00000000
01000000
00000000
00010000
00000000
00000000
00000000
00100000
00010000
00100000
00010000
,
00200000
00000000
00000000
00000000
00000000
00000000
00000000
00000000
00000000
00000000
00000000
00300000
00001000
00000000
00000000
00000000
,
00010000
00001000
00010000
00001000
00010000
00000100
00010000
00000100
,
00001000
00000000
00000000
00001000
00000000
00000000
00000010
00000000
00002020
00000000
00000000
00000000
00003030
00000000
00000000
00000000
,
00000100
00000000
00000000
00000100
00000000
00000000
00000001
00000000
00001001
00000000
00000000
00000000
00000001
00000000
00000000
00000000
,
00001000
00000100
00000000
00000100
00001000
00000000
00000010
00000000
00000100
00000000
00000001
00000000
00001000
00000000
00000000
00000000
,
00000100
00001000
00000000
00001000
00000100
00000000
00010000
00000000
00001000
00000000
00100000
00000000
00010000
00000000
00000000
00000000
,
01000000
00010000
00000000
00010000
01000000
00000000
00100000
00000000
10000000
00000000
01000000
00000000
00100000
00000000
00000000
00000000
,
10100000
00000000
00000000
10100000
00000000
00000000
01000000
00000000
01010000
00000000
00000000
00000000
00100000
00010000
00100000
00010000
,
00200000
00000000
00000000
00000000
00001000
00000000
00000000
00000000
00001000
00300000
00001000
00000000
00001000
00000000
00010000
00000000
,
00020000
00000000
00030100
00000000
00001000
00000100
00001000
00000100
,
00001000
00000000
00001000
00000000
00001000
00000000
00001000
00000000
00000010
00000100
00000010
00000100
00000010
00000100
00000010
00000100
,
00000020
00000000
00000000
00000000
00000000
00000000
00000000
00000000
00002030
00000000
00000000
00000000
00003200
00000000
00000000
00000300
,
00010000
00000000
00000000
00010000
00000000
00000000
00001000
00000000
00100000
00010000
00100000
00000000
00010000
00000000
01000000
00000000
,
00100000
00000000
00000000
00100000
00000000
00000000
10000000
01000000
10000000
00000000
00000000
00100000
00000000
00000000
01000000
00000000
,
00010000
00000000
00000000
00010000
00000000
00000000
00100000
00000000
00001000
00100000
00001000
00000000
00100000
00000000
00010000
00000000
,
00001000
00000000
00010000
00001000
00010000
00000100
00010000
00000100
00001000
00000000
00000000
00000000
00001010
00000000
00000000
00000000
,
00001100
00000000
00000000
00001000
00000000
00000000
00000010
00000000
00000100
00000001
00000100
00000000
00000001
00000000
00001000
00000010
,
00001000
00000000
00000000
00000010
00000000
00000000
00001000
00000000
00000100
00001000
00000100
00000000
00010000
00000000
00001000
00000000
,
00010000
00000000
00000000
00001000
00000000
00000000
00100000
00000000
00010000
00000000
00000000
00010000
00000000
00000000
01000000
00000000
,
00100000
00000000
10000000
00100000
10000000
00000000
10000000
00000000
01010000
00000000
00000000
00000000
00110000
00000000
00000000
00000000
,
00011000
00000000
00000000
00001000
00000000
00000000
00000100
00000000
00001000
00000010
00001000
00000000
00000010
00000000
00000100
00000000
,
00000001
00000000
00000000
00000001
00000000
00000000
00001000
00000010
00001000
00000000
00000000
00000100
00000000
00000000
00010000
00000000
,
00001000
00000000
00000000
00100000
00000000
00000000
00010000
00000000
01000000
00000000
00000000
00100000
00000000
00000000
10000000
00000000
,
01000000
00000000
00000000
10000000
00000000
00000000
01000000
00000000
00100000
00000000
00000000
01100000
00000000
00000000
00010000
00000000
,
00110000
00000000
00000000
00000000
00000000
00000000
00100000
00000000
00002000
00000000
00000000
00013000
00000000
00000000
00000100
00000000
,
00002000
00000000
00000000
00003010
00000000
00000000
00000100
00000000
00001001
00000000
00000000
00000000
00000000
00000000
00000010
00001000
,
00000010
00000000
00000000
00010000
00000000
00000000
00001000
00000000
00020000
00000000
00000000
00000000
00031000
00000000
00000000
00000000
,
00100000
00000000
00000000
00100000
00000000
00000000
00010000
00000000
01000000
00000000
00000000
10000000
00000000
00000000
00100000
00000000
,
20020000
00000000
00000000
00000000
00000000
00000000
30030000
00100000
,
01000000
00000000
00000000
00000000
00000000
00000000
00010000
00000000
00100000
00000000
00000000
00001000
00000000
00000000
00010000
00000000
,
00000100
00000000
00000100
00002000
00000000
00000000
00000000
00000000
00000000
00000000
00003000
00000000
00000010
00000000
00000100
00000000
,
00000001
00000000
00000000
00000000
00000000
00000000
00001000
00000000
00001000
00000000
00000000
00000010
00000000
00000000
00010000
00000000
,
00002000
00000000
00000000
00000000
00000000
00000000
00100000
00000000
00000000
00000000
00103000
00000000
00010000
00000000
01000000
00100000
,
02000000
00000000
00000000
00000000
00000000
03000000
00010000
00100000
00020000
00000000
00000000
00000000
00030000
00000000
00000000
00000000
,
20000000
00000000
00000000
00000000
00000000
00000000
00000000
00000000
00000000
00000000
00000000
30010000
00000000
00000000
00100000
00000000
,
00002000
00000000
00000000
00000000
00000000
00000000
00000000
00000000
00000000
00000000
00000000
00000000
00000000
00000000
00000000
00020000
,
00000000
00000000
00000000
00033000
,
00000010
00000000
00000000
00000100
00000000
00000000
00000001
00000000
00001000
00000100
00001000
00000000
00000010
00000000
00001000
00000000
,
00010000
00000000
00000000
00000100
00000000
00000000
00010000
00001000
00010000
00000000
00000000
00001000
00100000
00000000
00010000
00000000
,
01000000
00000000
00000000
00100000
00000000
00000000
10000000
00000000
01000000
10000000
01000000
00000000
10000000
00000000
00100000
00000000
,
01000000
00000000
00010000
01000000
00010000
01000000
00010000
01000000
00010000
00000000
00000000
00000000
00100000
00000000
00000000
00000000
,
00001000
00000000
00000000
00010000
00000000
00000000
00000100
00000000
00001000
00000100
00001000
00000000
00000010
00000000
00000100
00000001
,
00000100
00000000
00000000
00000010
00000000
00000000
00001000
00000000
00000100
00001000
00000100
00000000
00001000
00000000
00010000
00000000
,
00100000
00000000
00000000
01000000
00010000
00000000
01000000
00000000
00100000
00000000
00000000
10000000
01000000
00000000
10000000
00000000
,
00100000
01000000
00100000
01000000
00100000
01000000
00100000
00000000
10100000
00000000
00000000
00000000
01010000
00000000
00000000
00000000
,
00100000
00000000
00100000
00001000
00000000
00001000
00010000
00000000
00010000
00000000
00000100
00000000
00001000
00000000
00000010
00000000
,
00000100
00000000
00000001
00000100
00000000
00000100
00000010
00000000
00001000
00000000
00000000
00000100
00000000
00000000
00010000
00000000
,
00001000
00000000
00001000
00010000
00000000
00010000
00001000
00000000
00001000
00000000
00001000
00100000
00000000
00100000
00010000
00000000
,
00010000
00000000
01000000
00100000
01000000
00100000
01000000
00100000
01000000
00000000
00000000
11000000
00000000
00000000
01000000
00000000
,
01010000
00000000
00000000
00000000
00000000
00000000
00010000
00000000
00011000
00000000
00000000
00001000
00000000
00000000
00000100
00000000
,
00000010
00000000
00000000
00000001
00000000
00000000
00001000
00000000
00000100
00000000
00000000
00000000
00000000
00000000
00000100
00010000
,
00001000
00000000
00001000
00100000
00000000
00100000
00010000
00000000
01000000
00000000
00100000
00000000
10000000
00000000
01000000
00000000
,
01100000
00000000
00000000
01000000
00000000
00000000
10000000
00000000
10010000
00000000
00000000
00000000
00100000
00000000
00010000
00000000
,
00022000
00000000
00000000
00000000
00000000
00000000
00000000
00000000
00000000
00000000
00033000
00000000
00000100
00010000
00001000
00010000
,
00000200
00000000
00020300
00000000
,
00002000
00000000
00000000
00000000
,
00000000
00000000
00000000
00000000
,
00033000
00000000
00000000
00000000
;
