#TITLE:OTENAMI Hurricane;
#SUBTITLE:;
#ARTIST:t+pazolite;
#TITLETRANSLIT:;
#SUBTITLETRANSLIT:;
#ARTISTTRANSLIT:;
#GENRE:;
#CREDIT:;
#BANNER:OTENAMI Hurricane.png;
#BACKGROUND:;
#LYRICSPATH:;
#CDTITLE:;
#MUSIC:OTENAMI Hurricane.ogg;
#OFFSET:-0.080000;
#SAMPLESTART:90.504265;
#SAMPLELENGTH:13.395973;
#SELECTABLE:YES;
#BPMS:0.000000=215.000000
,112.000000=198.000000
,113.000000=176.000000
,113.500000=154.000000
,114.333336=136.000000
,114.750000=107.500000
,138.000000=215.000000
,172.000000=107.500000
,187.000000=215.000000
,220.000000=107.500000
,235.000000=215.000000
,235.500000=107.499001
,236.000000=214.990005
;
#STOPS:187.000000=0.139534,
187.500000=0.139534,
235.000000=0.139534
;
#BGCHANGES:0.000=OTENAMI Hurricane.avi=1.000=0=0=0=StretchNoLoop====,
99999=-nosongbg-=1.000=0=0=0 // don't automatically add -songbackground-
;
#KEYSOUNDS:;
#ATTACKS:;

//---------------dance-single - ----------------
#NOTES:
     dance-single:
     :
     Hard:
     16:
     0.820081,1.171108,0.328502,0.492752,0.435265,699.000000,659.000000,40.000000,60.000000,0.000000,0.000000,0.820081,1.171108,0.328502,0.492752,0.435265,699.000000,659.000000,40.000000,60.000000,0.000000,0.000000:
0000
0000
0000
0000
,
0000
0000
0000
0000
,
0000
0000
0000
0000
,
0000
0000
0000
0000
,
0000
0000
0000
0000
0000
0000
1000
0001
,
0200
0000
0000
0000
0310
0000
0001
1000
,
0200
0000
0000
0000
0310
0000
1000
0001
,
0200
0000
0000
0000
0310
0000
0010
1000
,
0200
0000
1300
0101
,
1001
0100
0010
1000
0001
0100
0010
1000
,
0010
0100
0001
0100
0010
1000
0100
0010
,
0001
0100
0010
1000
0100
0010
0001
0100
,
0020
0000
1030
0001
1000
0001
1000
0001
,
1000
0100
0010
0002
0000
0103
0100
0020
,
0000
1030
0100
0001
0200
0000
0310
0000
,
0001
0000
0100
0000
0010
0000
1000
0000
0010
0000
0001
0100
0001
0000
0200
0000
,
0000
0000
0000
0310
0000
0000
1000
0000
0000
0100
0000
0000
2002
0000
0000
0000
3003
0000
0110
0000
0000
0100
0000
0000
,
0001
0000
0001
0000
0001
0100
0001
0100
0001
0000
0010
0000
1000
0100
1000
0100
,
1000
0000
0010
0000
0100
0001
0100
0001
0100
0000
0010
0000
1000
0000
0100
0000
,
0001
0000
1000
0000
0001
0100
0001
0000
0010
0000
1000
0000
0100
1000
0100
0000
,
1000
0010
0001
0100
0001
0000
1001
0000
,
0020
0000
1000
1000
0000
0100
0100
0000
,
0230
0000
0001
0001
0000
0010
0310
0000
,
2000
0000
0100
0100
0000
0001
0001
0000
,
3020
0000
0100
0100
0000
0000
1030
0000
,
0001
0000
1000
0000
0100
0000
1000
0000
0001
0000
0000
0000
1000
0001
1000
0001
,
1000
0010
0100
0010
0100
0000
1001
0000
,
0001
0000
0010
0000
0100
0000
1000
0000
0001
0100
0001
0100
0001
0000
2000
0000
,
0000
0000
0000
0000
0000
0000
0000
0000
0000
0000
0000
0000
3001
0010
0001
0100
,
0001
0000
1000
0100
1000
0010
1000
0001
1000
0000
0010
0000
1000
0001
1000
0010
,
0100
0000
0001
0100
0001
1000
0001
0100
0001
0000
1000
0000
0100
0001
0000
1000
,
1001
0000
0010
0000
1000
0100
1000
0100
1000
0000
0001
0000
0010
0100
0000
0010
,
0110
0000
1000
0001
1000
0100
1000
0001
0100
0000
1001
0000
1000
0001
0100
0001
,
1000
0010
0100
0001
1000
0010
0100
0100
0001
0000
1001
0000
0001
0100
0010
1000
,
0001
0100
0010
0010
2000
0000
0000
0000
3100
0000
0000
0000
1001
0000
0000
0000
,
1000
0000
0010
0000
0010
0000
1000
0000
0001
0100
0001
0000
1000
0000
0010
0000
,
0100
0000
0001
0000
1000
0000
0001
1000
0001
1000
0001
0000
0100
0000
0010
0000
,
1000
0000
0100
0000
0100
0000
1000
0000
0010
1000
0010
0000
0100
0000
0001
0000
,
0010
0000
0001
0000
0100
0000
0001
0000
0100
0000
0010
0000
0100
0010
0100
0010
,
0000
0000
1000
0001
1000
0000
0010
0000
0100
0000
0001
0100
0001
0000
0010
0000
,
0000
0000
0100
0001
0100
0000
0001
0000
0010
0000
1000
0000
0100
0001
0100
0000
,
0000
0000
1000
0001
1000
0000
0100
0000
0010
1000
0010
1000
0001
1000
0001
0000
,
2002
0000
3003
0110
,
2000
0000
3000
0100
0020
0000
0030
0001
0100
0010
1000
0001
0100
0000
0010
0000
,
2000
0000
3000
0100
0020
0000
0030
0001
0100
0010
0100
0010
1000
0000
0001
0000
,
0020
0000
0030
0100
0002
0000
0003
1000
0010
0100
0001
1000
0001
0000
0100
0000
,
0020
0000
0030
0100
0010
0000
1000
0000
0001
0010
0100
1000
0100
0000
1001
0000
,
1100
0000
0001
0100
0101
0000
1000
0100
,
1100
0000
0001
0100
0001
0000
0010
0000
1001
0000
0000
0000
1100
0000
0000
0000
,
1001
0000
0010
0100
0010
0000
1000
0001
,
1000
0000
0001
1000
0001
0000
0100
0000
0020
0000
0000
0000
2030
0000
0000
0000
,
3002
0000
0103
0010
1010
0000
0100
0010
,
0110
0000
0001
1000
0001
0000
1000
0000
0200
0000
0000
0000
0320
0000
0000
0000
,
0032
0000
0103
0010
2000
0000
3002
0000
,
0103
0000
0001
0100
0001
0000
2000
0000
0020
0000
0000
0000
0000
0000
3000
0000
,
0130
0000
0001
0010
0100
1000
0010
0100
0001
1000
0010
0100
0000
0001
1000
0100
,
0000
0001
1000
0010
0100
0000
0001
1000
0200
0000
0000
0000
0310
0000
1000
0001
,
0110
0000
0110
0000
1001
0000
0100
0010
0100
0010
0110
0000
1001
0000
1000
0001
,
0100
0010
1000
0001
0100
0000
0010
0100
1000
0000
0100
0000
0010
0000
1000
0100
,
0001
0000
0001
0100
0001
0100
0010
1000
,
0100
0100
0010
0002
0000
1003
0100
0020
,
0000
0000
0031
0000
0100
0000
0010
0000
1000
0000
0001
1000
0001
0000
0100
0000
,
0020
0000
0000
0000
0000
0000
1030
0100
,
0010
0000
1000
0100
0010
0001
0100
0010
,
1000
0001
0100
0020
0000
1030
0100
0010
,
0001
0000
0100
0000
0010
0000
1000
0000
0001
0000
0100
0010
0100
0000
0001
0000
,
2002
0000
0000
3003
,
0011
1010
0011
1010
,
0001
0100
1000
0100
0001
0100
1000
0010
,
0001
0000
0100
0000
0010
0000
1000
0000
0001
0000
0100
0001
0100
0000
0010
0000
,
1000
0000
0001
0100
0001
0000
1000
0000
1010
0000
0100
0000
0010
0000
0001
0000
,
0100
0000
0010
1000
0010
0000
0100
0001
,
0010
0100
1000
0001
0100
0010
1000
0100
,
0010
0000
0001
0100
0001
0000
0100
0000
0010
0000
1000
0000
0100
0000
1000
0000
,
1002
0100
0013
1001
,
1100
0000
0001
0010
0100
1000
0001
0100
,
0010
1000
0100
0020
0000
0130
0001
1000
,
0010
0000
0100
0000
1000
0000
0010
0000
0001
0000
0100
0010
0100
0000
0001
0000
,
1000
0100
0010
0001
1000
0001
0010
0100
,
1000
0000
0001
0000
0100
0010
0100
0010
0100
0000
0001
0000
1000
0100
1000
0100
,
1000
0000
0010
0000
0100
0000
0001
0000
1000
0000
0010
0000
0001
1000
0001
1000
,
0001
0000
0100
0000
0010
0000
1000
0000
0001
0000
0100
0010
0100
0000
0001
0000
,
2000
0000
3001
0100
0010
1000
0100
0010
,
0002
0000
1000
2000
0003
0020
3000
0200
,
0030
0301
0010
1000
1001
0000
0110
0000
,
1000
0010
0100
0002
0000
2000
0003
0020
,
3000
0130
0001
1000
1100
0000
0101
0000
,
0010
1000
0100
0002
0000
0203
0000
0320
,
0000
1030
0100
0010
0001
0000
1000
0000
,
0001
0010
0100
2000
0000
3001
0100
0010
,
2000
0000
0000
3001
0100
0010
1000
0100
,
0002
2000
0000
0000
,
3003
0000
0000
0000
;

//---------------dance-solo - ----------------
#NOTES:
     dance-solo:
     :
     Challenge:
     1:
     0.007039,0.236521,0.008213,0.000000,0.000000,6.000000,1.000000,1.000000,0.000000,0.000000,1.000000,0.007039,0.236521,0.008213,0.000000,0.000000,6.000000,1.000000,1.000000,0.000000,0.000000,1.000000:
000000
000000
000000
000000
,
000000
000000
000000
000000
,
000000
000000
000000
000000
,
000000
000000
000000
000000
,
000000
000000
000000
000000
,
000000
000000
000000
000000
,
000000
000000
000000
000000
,
000000
000000
000000
000000
,
000000
000000
000000
000000
,
000000
000000
000000
000000
,
000000
000000
000000
000000
,
000000
000000
000000
000000
,
000000
000000
000000
000000
,
000000
000000
000000
000000
,
000000
000000
000000
000000
,
000000
000000
000000
000000
,
000000
000000
000000
000000
,
000000
000000
000000
000000
,
000000
000000
000000
000000
,
000000
000000
000000
000000
,
000000
000000
000000
000000
,
000000
000000
000000
000000
,
000000
000000
000000
000000
,
000000
000000
000000
000000
,
000000
000000
000000
000000
,
000000
000000
000000
000000
,
000000
000000
000000
000000
,
000000
000000
000000
000000
,
000000
000000
000000
000000
,
000000
000000
000000
000000
,
000000
000000
000000
000000
,
000000
000000
000000
000000
,
000000
000000
000000
000000
,
000000
000000
000000
000000
,
000000
000000
000000
000000
,
000000
000000
000000
000000
,
000000
000000
000000
000000
,
000000
000000
000000
000000
,
000000
000000
000000
000000
,
000000
000000
000000
000000
,
000000
000000
000000
000000
,
000000
000000
000000
000000
,
000000
000000
000000
000000
,
000000
000000
000000
000000
,
000000
000000
000000
000000
,
000000
000000
000000
000000
,
000000
000000
000000
000000
,
000000
000000
000000
000000
,
000000
000000
000000
000000
,
000000
000000
000000
000000
,
000000
000000
000000
000000
,
000000
000000
000000
000000
,
000000
000000
000000
000000
,
000000
000000
000000
000000
,
000000
000000
000000
000000
,
000000
000000
000000
000000
,
000000
000000
000000
000000
,
000000
000000
000000
000000
,
000000
000000
000000
000000
,
000000
000000
000000
000000
,
000000
000000
000000
000000
,
000000
000000
000000
000000
,
000000
000000
000000
000000
,
000000
000000
000000
000000
,
000000
000000
000000
000000
,
000000
000000
000000
000000
,
000000
000000
000000
000000
,
000000
000000
000000
000000
,
000000
000000
000000
000000
,
000000
000000
000000
000000
,
000000
000000
000000
000000
,
000000
000000
000000
000000
,
000000
000000
000000
000000
,
000000
000000
000000
000000
,
000000
000000
000000
000000
,
000000
000000
000000
000000
,
000000
000000
000000
000000
,
000000
000000
000000
000000
,
000000
000000
000000
000000
,
000000
000000
000000
000000
,
000000
000000
000000
000000
,
000000
000000
000000
000000
,
000000
000000
000000
000000
,
000000
000000
000000
000000
,
000000
000000
000000
000000
,
000000
000000
000000
000000
,
000000
000000
000000
000000
,
000000
000000
000000
000000
,
000000
000000
000000
000000
,
000000
000000
000000
000000
,
000000
000000
000000
000000
,
000000
000000
000000
000000
,
000000
000000
000000
000000
,
000000
000000
000000
000000
,
000000
000000
000000
000000
,
000000
000000
000000
000000
,
111111
000000
000000
000000
;

//---------------dance-double - ----------------
#NOTES:
     dance-double:
     :
     Hard:
     15:
     0.734436,1.019997,0.344927,0.197101,0.250482,626.000000,584.000000,42.000000,24.000000,0.000000,0.000000,0.734436,1.019997,0.344927,0.197101,0.250482,626.000000,584.000000,42.000000,24.000000,0.000000,0.000000:
00000000
00000000
00000000
00000000
,
00000000
00000000
00000000
00000000
,
00000000
00000000
00000000
00000000
,
00000000
00000000
00000000
00000000
,
00000000
00000000
00000000
00000000
00000000
00000000
00100000
10000000
,
02000000
00000000
00000000
00000000
03010000
00000000
00100000
00001000
,
00020000
00000000
00000000
00000000
00030100
00000000
00001000
00000010
,
00000200
00000000
00000000
00000000
00000301
00000000
00001000
00000010
,
00000200
00000000
00000000
00000000
00010300
00000000
00001000
00100000
,
00010000
00100000
00010000
01000000
00010000
10000000
00010000
01000000
,
00001000
00010000
00001000
00100000
00001000
01000000
00001000
00010000
,
00000010
00010000
00000100
00010000
00001000
00010000
00000010
00000100
,
00000001
00000000
00000010
00000100
00001000
00000000
00000001
00000000
,
00000010
00001000
00000100
00001000
00000000
00000100
00000000
00010000
,
00000000
00100000
00010000
01000000
10000000
00000000
10010000
00000000
,
10000000
01000000
00010000
00100000
00001000
00001000
00010000
00010000
,
00000000
00000010
00000100
00000001
00001000
00000000
00000110
00000000
,
00000010
00010000
00001000
00100000
00000000
00010000
00000000
10100000
,
00000000
10000000
01000000
00100000
01000000
00000000
00001000
00000000
,
00010000
00000100
00001000
00000010
00000000
00001010
00000000
00000101
,
00000000
00000001
00000010
00000100
00001000
00000000
00001100
00000000
,
00000100
00010000
00001000
00100000
00010000
01000000
00100000
10000000
,
01000000
00100000
00001000
00010000
00000100
00000000
00001001
00000000
,
00000001
00001000
00000100
00010000
00001000
00010000
00100000
10000000
,
01000000
00100000
00001000
00010000
00000100
00000000
00001001
00000000
,
00000100
00001000
00000100
00010000
00001000
00100000
00010000
10000000
,
01000000
00100000
00001000
00000100
00000010
00000000
00001001
00000000
,
00000001
00000000
00000100
00000000
00001000
00000000
00010000
00000000
00100000
01000000
00100000
01000000
00100000
00000000
20000000
00000000
,
00000000
00000000
00000000
00000000
00000000
00000000
00000000
00000000
00000000
00000000
30000000
00000000
00000000
00100000
00010000
00100000
,
00010000
00000000
00100000
00000000
00001000
00010000
00001000
00010000
00001000
00000000
00010000
00000000
00000000
00000010
00001000
00000010
,
00000100
00000000
00000001
00000000
00000100
00000010
00001000
00000010
00000100
00000000
00000001
00000000
00000000
00001000
00000100
00010000
,
00001000
00000000
00100000
00000000
00010000
01000000
00100000
01000000
00010000
00000000
10000000
00000000
00000000
00010000
00100000
00010000
,
00100000
00000000
00001000
00000000
00010000
00000100
00001000
00000100
00010000
00000000
00000010
00000000
00000100
00000001
00001000
00000001
,
00000100
00000000
00000010
00001000
00000100
00001000
00000010
00001000
00000100
00000000
00010000
00000000
00001000
01000000
00001000
00100000
,
00001000
00000000
00010000
01000000
00100000
10000000
01000000
00100000
10000000
00000000
00000000
00000000
10010000
00000000
00000000
00000000
,
01000000
00100000
00010000
00000000
00001000
00010000
00000100
00000000
,
00000010
00001000
00000001
00000100
00000010
00000000
00001001
00000000
,
00000010
00001000
00000100
00000000
00000100
00010000
00001000
00000000
,
00001000
01000000
00100000
00010000
10000000
00000000
01100000
00000000
,
00000000
10000000
00100000
01000000
00001000
00010000
00000100
00001000
,
00000000
00000001
00000100
00000001
00001000
00000100
00010000
00001000
,
00000000
01000000
00100000
01000000
00100000
01000000
00100000
00000000
,
20020000
00000000
30030000
01100000
,
20000000
00000000
30000000
01000000
00200000
00000000
00300000
00010000
00001000
00000000
00000100
00000010
00000001
00000000
00000100
00000000
,
00000002
00000000
00000003
00000010
00000200
00000000
00000300
00001000
00010000
00000000
00100000
01000000
10000000
00000000
00100000
00000000
,
20000000
00000000
30000000
00100000
02000000
00000000
03000000
00001000
00020000
00000000
00030100
00001000
00000010
00000000
00000100
00000000
,
00000002
00000000
00000103
00000010
00001000
00000000
00000100
00000000
00010000
00100000
01000000
00000000
10010000
00000000
00000000
00000000
,
11000000
01010000
11000000
01010000
,
01000000
00100000
00010000
00001000
00000100
00000000
00001010
00000000
,
00000101
00001100
00000101
00001100
,
00000010
00000100
00001000
00010000
00100000
00000000
00110000
00000000
,
10100000
01010000
10100000
01010000
,
01000000
00010000
00100000
00001000
00010000
00000000
00001100
00000000
,
00000011
00000000
00000001
00000010
00001000
00000000
00001100
00000000
,
00000100
00010000
00100000
01000000
10000000
00000000
10010000
00000000
,
01100000
00000000
10000000
01000000
00010000
01000000
10000000
00100000
01000000
00001000
00010000
00000100
00000000
00001000
00000010
00000100
,
00000000
00000001
00000100
00000010
00001000
00000000
00000100
00010000
00002000
00000000
00000000
00000000
01003000
00000000
00100000
10000000
,
01000000
00000000
01100000
00000000
10010000
00000000
01000000
00010000
00100000
00000000
00011000
00000000
00001100
00000000
00000010
00001000
,
00000100
00001000
00000010
00000100
00000000
00000001
00001000
00000100
00002000
00000000
00000000
00000000
00003100
00000000
00010000
00000000
,
00002000
00103000
00020000
01030000
,
10000000
01000000
00100000
00010000
00000000
00001000
00010000
00000100
,
00000000
00000100
00001000
00000010
00000100
00000000
00000001
00000100
,
00000020
00000000
00000000
00000000
00000000
00000000
00001030
00000100
,
00001000
00000010
00001000
00000001
00001000
00000010
00001000
00000100
,
00010000
00001000
01000000
00001000
00010000
00001000
01000000
00010000
,
00100000
01000000
10000000
00100000
01000000
00001000
00010000
00000010
,
00000200
00000000
00000310
00001001
,
00000101
00000000
00001000
00000100
00000001
00000000
00000100
00001000
,
00000100
00010000
00001000
01000000
00000000
00010000
01000000
00100000
,
00000000
10000000
01000000
00100000
00010000
00000000
00100000
00001000
,
00010000
00000000
00000100
00000000
00001000
00000000
00000010
00000001
,
00000100
00000000
00000010
00001000
00000100
00000000
00000010
00001000
,
00000100
00010000
00001000
01000000
00000000
00010000
10000000
01000000
,
00000000
10000000
01000000
00100000
00010000
00000000
00100000
00001000
,
00010000
00000000
00000100
00000000
00001000
00000000
00000010
00000001
,
00000100
00000000
00000010
00001000
00000100
00000000
00000100
00000000
,
00010000
00001000
01000000
00001000
00000000
01000000
00010000
00100000
,
00000000
00100000
10000000
01000000
00100000
00000000
00100000
00001000
,
00010000
00000000
00001000
00000000
00000100
00000000
00000010
00000001
,
00000100
00000000
00000010
00001000
00000100
00000000
00000100
00010000
,
00001000
01000000
00010000
01000000
00000000
00100000
10000000
01000000
,
00100000
00010000
00100000
00001000
00000000
00010000
00000100
00001000
,
00000020
00000000
00000000
00000130
00000001
00001000
00000010
00000100
,
00000001
00001000
00000100
00010000
00000000
00001000
00000000
01000000
,
00000000
00000000
00100000
10000000
00100000
01000000
00100000
10000000
00100000
00000000
00000000
00000000
01100000
00000000
00000000
00000000
,
01000000
00010000
01000000
00001000
00000000
00010000
00000000
00000100
,
00000000
00000000
00001000
00000000
00000010
00000100
00000010
00000100
00000010
00000000
00000000
00000000
00001001
00000000
00000000
00000000
,
00000001
00000100
00000010
00001000
00000100
00010000
00001000
01000000
,
00100000
01000000
00001000
00010000
00000100
00001000
00000010
00000100
,
00000001
00001000
00000100
00010000
00001000
01000000
00100000
10000000
,
02000000
00000000
00000000
03010000
00100000
00001000
00010000
00000100
,
00020000
00000000
00000000
00000000
,
00030000
00000000
00000000
00000000
;

//---------------dance-single - ----------------
#NOTES:
     dance-single:
     :
     Medium:
     12:
     0.557280,0.717776,0.525603,0.205314,0.032850,475.000000,411.000000,64.000000,25.000000,0.000000,0.000000,0.557280,0.717776,0.525603,0.205314,0.032850,475.000000,411.000000,64.000000,25.000000,0.000000,0.000000:
0000
0000
0000
0000
,
0000
0000
0000
0000
,
0000
0000
0000
0000
,
0000
0000
0000
0000
,
0000
0000
0000
0000
0000
0000
1000
0001
,
0200
0000
0000
0000
0300
0000
0001
1000
,
0200
0000
0000
0000
0300
0000
1000
0001
,
0020
0000
0000
0000
0030
0000
0001
1000
,
0020
0000
0030
1000
,
0101
0000
0000
1001
0000
0000
0010
0000
,
1010
0000
0000
1001
0000
0000
0100
0000
,
1010
0001
0100
1000
,
0202
0000
0303
1000
,
0010
0100
0010
0100
0000
0001
0000
1000
,
0000
0010
0100
0010
0100
0000
0000
0000
,
1000
0100
1000
0100
0000
0010
0000
0001
,
0000
1000
0100
1000
0100
0000
0000
0000
,
0001
0010
0001
0010
0000
0100
0000
1000
,
0000
0001
0010
0001
0010
0000
0000
0000
,
0100
0001
1000
0001
0000
0100
0000
0001
,
0000
1000
0001
0100
0001
0000
0000
0000
,
2000
0000
0000
0000
3100
0001
0100
0001
,
0200
0000
0000
0000
0310
1000
0010
1000
,
0020
0000
0000
0000
0130
0001
0100
0001
,
0200
0000
0310
1001
,
1000
0100
0000
0001
0100
0000
0010
0100
,
0010
0100
0000
0001
1000
0000
0000
0000
,
0001
0100
0001
0100
1000
0100
1000
0200
,
0000
0000
0000
0000
0000
0000
0300
1000
,
1000
1000
0001
0001
0100
0100
0000
0001
,
0001
0001
1000
1000
0100
0000
1000
1000
,
1010
0000
0001
0100
0101
0000
0001
0001
,
0101
0000
1000
0010
1010
0000
0010
0010
,
0110
0000
1000
0001
1001
0000
0100
0100
,
0110
0000
0001
1000
1001
0000
0000
0000
,
1000
0001
0101
0001
,
1000
0010
0110
0010
,
1000
0100
1100
0100
,
1000
0010
0101
0010
,
0000
0100
0010
0100
0010
0100
0010
0100
,
0000
0001
1000
0001
1000
0001
1000
0001
,
0000
1000
0100
1000
0100
0010
0001
0100
,
0002
0000
0003
0000
,
1000
0000
0001
0000
1000
0100
0001
0100
,
1000
0000
0001
0000
0100
1000
0100
0010
,
0100
0000
0001
0000
0010
0100
1000
0100
,
0001
1000
0001
0000
1000
0001
1000
0000
0100
0000
0010
0000
0001
0000
0000
0000
,
1100
1100
0101
0101
,
1100
1010
1001
0000
,
0101
0101
1100
1100
,
0011
0101
1001
0000
,
0110
0110
1001
1001
,
0101
1100
1001
0000
,
1010
0000
0001
0100
0001
0000
0100
0000
,
0010
0100
0010
0100
0020
0000
0000
0000
,
1030
0000
1000
0000
0001
0000
0001
0000
0100
0000
0010
0100
0000
0010
0000
0100
,
0000
0000
0001
0100
2000
0000
3010
0000
,
0100
0000
0001
0000
0100
0000
0001
0000
1000
0000
0001
1000
0000
0000
0010
0000
,
0100
0000
0010
0100
0000
0010
0100
0000
0020
0000
0000
0000
0130
0000
0000
0000
,
1200
0000
0302
0000
,
0013
1000
0010
2000
0000
0000
3001
0000
,
0200
0000
0310
1000
,
0002
0000
0103
0010
,
1000
0000
0001
1000
0001
0000
0100
0000
,
0010
0000
1000
0010
0000
0100
0001
0000
,
1000
0100
0010
0001
,
2002
0000
0000
3003
,
0011
0011
1010
1010
,
0001
0100
0010
0100
0000
0001
0100
0001
,
0000
1000
0000
0100
1000
0000
0010
0100
,
0010
1000
0101
1000
,
0110
0110
1001
0100
,
0010
1000
0100
0010
0000
1000
0001
0100
,
0001
1000
0001
0100
0000
0001
1000
0100
,
1000
0010
0100
1001
,
0101
0101
1100
1100
,
0001
0010
0100
0000
1000
0010
0100
0000
,
1100
1100
0101
0101
,
1000
0001
0100
0000
0001
1000
0100
0000
,
1100
1100
0011
0011
,
0100
0010
1000
0001
0000
0100
0010
0100
,
0010
0000
0001
1000
0000
0100
0010
0000
,
2000
0000
3001
0100
,
0010
1000
0010
1000
0000
0001
0000
0100
,
0000
0010
1000
0010
1000
0000
0000
0000
,
1000
0100
1000
0100
0000
0010
0000
0001
,
0000
1000
0100
1000
0100
0000
0000
0000
,
1000
0001
1000
0001
0000
0100
0000
0010
,
0000
1000
0001
1000
0001
0000
0000
0000
,
0001
0100
0001
0000
1000
0100
1000
0000
,
0020
0000
1030
0100
,
0002
0000
0000
0000
,
0003
0000
0000
0000
;

//---------------dance-double - ----------------
#NOTES:
     dance-double:
     :
     Medium:
     12:
     0.529122,0.679998,0.131401,0.262801,0.008213,451.000000,435.000000,16.000000,32.000000,0.000000,0.000000,0.529122,0.679998,0.131401,0.262801,0.008213,451.000000,435.000000,16.000000,32.000000,0.000000,0.000000:
00000000
00000000
00000000
00000000
,
00000000
00000000
00000000
00000000
,
00000000
00000000
00000000
00000000
,
00000000
00000000
00000000
00000000
,
00000000
00000000
00000000
00000000
,
20000000
00000000
30010000
00100000
,
00002000
00000000
00003001
00000010
,
00000002
00000000
00001003
00000010
,
00020000
00000000
10030000
00100000
,
10000000
01000000
00010000
00001000
,
00000001
00000100
00001000
00010000
,
10000000
00100000
00010000
00001000
,
00000020
00000000
00000030
00000100
,
00000001
00000100
00000001
00000100
00000000
00001000
00000000
00010000
,
00000000
00100000
10000000
00100000
10000000
00000000
00000000
00000000
,
10000000
01000000
10000000
01000000
00000000
00100000
00000000
00010000
,
00000000
00001000
00000100
00001000
00000100
00000000
00000000
00000000
,
00000001
00000100
00000001
00000100
00000000
00001000
00000000
00010000
,
00000000
00100000
10000000
00100000
10000000
00000000
00000000
00000000
,
01000000
00100000
01000000
00100000
00000000
00001000
00000000
00010000
,
00000000
00000010
00000100
00000000
00001001
00000000
00000000
00000000
,
00000002
00000000
00000000
00000000
00000103
00000010
00001000
00000100
,
00020000
00000000
00031000
01000000
,
20000000
00000000
00000000
00000000
30100000
01000000
00001000
00010000
,
00002000
00000000
00013000
00000010
,
00000100
00000001
00000000
00001000
00000010
00000000
00010000
00000000
,
00001000
01000000
00000000
00100000
10000000
00000000
00000000
00000000
,
10000000
01000000
00010000
00000000
00001000
00000100
00000010
00000002
,
00000000
00000000
00000000
00000000
00000000
00000003
00000000
00000100
,
00001000
00010000
01000000
01000000
10000000
01000000
00000000
01000000
,
00010000
00001000
00000100
00000100
00000001
00000000
00001000
00001000
,
00000010
00001000
00010000
00010000
00100000
00010000
00001000
00001000
,
01000000
00001000
00010000
00010000
00000100
00000000
00001000
00001000
,
01000000
00100000
00010000
00010000
00000010
00000100
00001000
00001000
,
01000000
00001000
00010000
00010000
00001000
00000000
00000000
00000000
,
00110000
11000000
10010000
01000000
,
00100000
00001000
00100000
00001000
00100000
00000000
00010000
00000000
,
00001100
00001100
00000011
00001100
,
00000010
00001000
00000010
00001000
00000010
00000000
00001100
00000000
,
00010000
00002000
00000000
01003000
00010000
00100000
00010000
01000000
,
00000000
20000000
00000000
30010000
01000000
00010000
00100000
00010000
,
00000000
00002000
00000000
00003100
00000010
00000001
00001000
00000100
,
00002000
00000000
00000000
00003000
,
00000200
00000300
00020000
00030000
00100000
01000000
10000000
01000000
,
00020000
00030000
00000200
00000300
00000010
00000001
00000100
00000000
,
00002000
00003000
00020000
00030000
00100000
01000000
10000000
01000000
,
00100000
00000000
00010000
00000000
00000100
00000000
00000010
00000000
00000001
00000010
00000100
00001000
00010000
00000000
00000000
00000000
,
00011000
00000000
00010000
00100000
01000000
00000000
10000000
01000000
,
00100000
01000000
00100000
00001000
00010000
00000000
00001000
00000000
,
00000100
00000000
00001000
00000100
00000010
00000000
00000001
00000010
,
00000100
00000010
00001000
00000100
00010000
00000000
00001000
00000000
,
01000000
00000000
00100000
10000000
01000000
00000000
00100000
00010000
,
01000000
00001000
00010000
00000100
00001000
00000000
00000010
00000000
,
00000100
00000000
00000001
00001000
00000100
00000000
00001000
00000000
,
00000100
00010000
00000100
00010000
00000200
00000000
00000000
00000000
,
00010300
00010000
00001000
00001000
00100000
00000000
00010000
00000000
,
01000000
01000000
00100000
00100000
20000000
00000000
30000000
00000000
,
00010000
00010000
00001000
00000000
00000100
00000100
00000010
00000000
,
00000001
00000100
00001000
00010000
02000000
00000000
03100000
00000000
,
10000000
01000000
00010000
00001000
,
00000010
00000000
00000001
00000010
00000000
00000100
00000000
00001000
,
00000000
00100000
00000000
01000000
10000000
00000000
00100000
00000000
,
02000000
00000000
03000000
00000000
,
11000000
00000000
01010000
00000000
10000000
00100000
10000000
00000000
,
00010000
00000000
00001000
00000100
00000000
00000010
00000100
00000000
,
00000001
00000100
00000001
00000100
00000000
00000010
00001000
00000100
,
00002000
00000000
00000000
00003100
,
00010000
00001000
01000000
00100000
,
10000000
01000000
10000000
01000000
00000000
00100000
00010000
00100000
,
00000000
00001000
00000000
00010000
00000100
00000000
00001000
00000010
,
00000200
00000001
00001000
00000301
,
00000010
00000000
00000010
00001000
00000010
00000000
00001000
00000000
,
00000100
00010000
00000100
00010000
00000000
00001000
00010000
00001000
,
00100000
00010000
00100000
00010000
00000000
10000000
01000000
00100000
,
02000000
00010000
00100000
03010000
,
11000000
00000000
01010000
00000000
11000000
00000000
00100000
01000000
,
00100000
01000000
00010000
01000000
00000000
00100000
00001000
00010000
,
00000000
00010000
00000100
00001000
00000010
00000000
00000100
00000001
,
00002000
00000100
00000100
00003100
,
00000010
00000000
00001000
00000100
00001000
00000000
00000100
00000000
,
00010000
00001000
00010000
00001000
00000000
00100000
00010000
00100000
,
00010000
01000000
00100000
10000000
00000000
10000000
01000000
00100000
,
02000000
00000000
00000000
00000000
03001000
00010000
00001000
00010000
,
00001000
00000000
00010000
00000100
00000000
00010000
00000000
00000100
,
00000000
00001000
00000100
00000010
00000001
00000000
00000000
00000000
,
00000001
00000010
00000100
00001000
00000000
00000100
00000000
00001000
,
00000000
00010000
00100000
01000000
10000000
00000000
00000000
00000000
,
10000000
01000000
00100000
00010000
00000000
00001000
00000000
00010000
,
00000000
00001000
00000100
00000010
00000001
00000000
00000000
00000000
,
00000010
00010000
00001000
00010000
00000020
00000000
00000000
00000000
,
00010030
00000000
00100000
01000000
,
20020000
00000000
00000000
00000000
,
30030000
00000000
00000000
00000000
;

//---------------dance-double - ----------------
#NOTES:
     dance-double:
     :
     Easy:
     8:
     0.342580,0.566665,0.123188,0.164251,0.000000,292.000000,277.000000,15.000000,20.000000,0.000000,0.000000,0.342580,0.566665,0.123188,0.164251,0.000000,292.000000,277.000000,15.000000,20.000000,0.000000,0.000000:
00000000
00000000
00000000
00000000
,
00000000
00000000
00000000
00000000
,
00000000
00000000
00000000
00000000
,
00000000
00000000
00000000
00000000
,
00000000
00000000
00000000
00000000
,
10000000
00000000
00010000
00000000
,
00001000
00000000
00000001
00000000
,
00000001
00000000
00001000
00000000
,
00010000
00000000
10000000
00000000
,
02000000
00000000
00000000
00010000
00000000
00000000
03100000
00000000
,
00002000
00000000
00000000
00010000
00000000
00000000
00003100
00000000
,
00000020
00000000
00000000
00000100
00000000
00000000
00000031
00000000
,
00002002
00000000
00000000
00003003
,
00001000
00000000
00000000
00100000
00000000
00010000
00000000
01000000
,
00000000
10000000
00000000
00000000
10010000
00000000
00000000
00000000
,
00100000
00000000
00000000
00001000
00000000
00000100
00000000
00000001
,
00000000
00000010
00000000
00000000
00001001
00000000
00000000
00000000
,
00000100
00000000
00000000
00010000
00000000
00100000
00000000
10000000
,
00000000
01000000
00000000
00000000
10010000
00000000
00000000
00000000
,
00100000
00000000
00000000
00001000
00000000
00010000
00000000
00000010
,
00000000
00000100
00000100
00000000
,
00000002
00000000
00000103
00001000
,
00020000
00000000
01030000
10000000
,
02000000
00000000
03010000
00001000
,
00000200
00000000
00000301
00000100
,
00001000
00010000
00000000
00001000
00010000
00000000
00000000
00000000
,
00010000
00001000
00000000
00010000
00001000
00000000
00000000
00000000
,
00001000
00000000
00010000
00000000
00100000
00000000
01000000
00200000
,
00000000
00000000
00000000
00000000
00000000
00300000
00000000
00000000
,
00000000
00000000
00000000
00000000
,
00000000
00000000
00000000
00000000
00000000
00000000
10000000
01000000
,
00100000
00000000
00100000
00000000
00110000
00000000
00001000
00000100
,
00000010
00000000
00000010
00000000
00000011
00000000
00000010
00000100
,
00001000
00000000
00001001
00000000
00011000
00000000
00100000
01000000
,
10000000
10010000
00010000
00000100
,
00000000
00000100
00001000
00000100
,
00010000
00100000
01000000
10000000
,
00000000
01000000
00010000
01000000
,
00001000
00000100
00000010
00000001
,
00000000
00000001
00001000
00000100
,
00000000
00010000
10000000
01000000
,
00000000
10000000
00010000
01000000
,
00002000
00000000
00003000
00000000
,
00010000
00000000
00001000
00000000
00010000
00010000
00010000
00000000
,
00000100
00000000
00000010
00000000
00000100
00000100
00000100
00000000
,
00010000
00000000
00001000
00000000
00010000
00010000
00010000
00000000
,
00100000
01000000
00100000
00000000
01000000
00100000
01000000
00000000
,
10000000
10000000
00010000
00010000
,
00100000
00100000
00100000
00000000
,
00001000
00001000
00000001
00000001
,
00000100
00000100
00000100
00000000
,
00000001
00000001
00001000
00001000
,
00000100
00000100
00000100
00000000
,
00010000
00010000
01000000
00000000
,
10000000
10000000
01000000
00000000
,
00100000
00001000
00100000
00001000
,
00010000
00000100
00000002
00000003
,
00000001
00000001
00000100
00000100
,
00010000
00001000
00020000
00030000
,
00100000
00100000
00100000
00000000
,
10000000
10000000
10000000
00000000
,
00010000
00100000
00010000
00100000
,
00020000
00000000
00030000
00000000
,
00001000
00001000
00000010
00000000
,
00000001
00000001
00000010
00000000
,
00001000
00000100
00001000
00000100
,
00002000
00000000
00003000
00000000
,
00010000
00010000
01000000
01000000
,
10000000
10000000
00100000
00100000
,
00001000
00001000
00000010
00000010
,
00000001
00000100
00001000
00000000
,
00001000
00001000
00000100
00000100
,
00000001
00000001
00000010
00000010
,
00010000
00010000
00100000
00100000
,
10000000
01000000
00010000
00000000
,
10000000
01000000
00010000
00100000
,
00001000
00000100
00000001
00000010
,
00001000
01000000
10000000
00100000
,
00010000
00000100
00000001
00000010
,
00010000
00001000
00010000
00001000
,
01000000
00100000
10010000
00000000
,
00010000
00001000
00010000
00001000
,
00000010
00000000
00000100
00000000
,
00002002
00000000
00000000
00003003
,
00000100
00010000
00011000
00000000
,
00100000
01000000
10000000
00000000
,
00100000
00001000
00011000
00000000
,
00001000
00000010
00000001
00000000
,
00000001
00000100
00001100
00000000
,
00001000
00010000
00200000
00000000
,
01300000
00000000
00010000
00000000
,
00022000
00000000
00000000
00000000
,
00033000
00000000
00000000
00000000
;

//---------------dance-single - ----------------
#NOTES:
     dance-single:
     :
     Beginner:
     5:
     0.215872,0.302221,0.073913,0.057488,0.000000,184.000000,175.000000,9.000000,7.000000,0.000000,0.000000,0.215872,0.302221,0.073913,0.057488,0.000000,184.000000,175.000000,9.000000,7.000000,0.000000,0.000000:
// measure 0
0000
0000
0000
0000
,  // measure 1
0000
0000
0000
0000
,  // measure 2
0000
0000
0000
0000
,  // measure 3
0000
0000
0000
0000
,  // measure 4
0000
0000
0000
0000
,  // measure 5
0010
0000
0000
0000
,  // measure 6
0100
0000
0000
0000
,  // measure 7
0010
0000
0000
0000
,  // measure 8
0100
0000
0000
0000
,  // measure 9
0001
0000
0001
0000
,  // measure 10
1000
0000
1000
0000
,  // measure 11
0001
0000
0001
0000
,  // measure 12
1000
0000
0000
0000
,  // measure 13
0010
0000
0000
0000
,  // measure 14
0100
0000
0100
0000
,  // measure 15
0100
0000
0000
0000
,  // measure 16
0001
0000
0001
0000
,  // measure 17
0001
0000
0000
0000
,  // measure 18
1000
0000
1000
0000
,  // measure 19
1000
0000
0000
0000
,  // measure 20
0010
0000
0000
0000
,  // measure 21
0100
0000
0100
0000
,  // measure 22
0001
0000
0001
0000
,  // measure 23
0100
0000
0100
0000
,  // measure 24
1000
0000
1000
0000
,  // measure 25
0010
0010
0010
0000
,  // measure 26
0100
0100
0100
0000
,  // measure 27
0010
0010
0010
0020
,  // measure 28
0000
0000
0030
0000
,  // measure 29
0000
0000
0000
0000
,  // measure 30
0000
0000
0000
0100
,  // measure 31
0100
0000
0100
0000
,  // measure 32
0010
0000
0010
0000
,  // measure 33
1000
0000
1000
0000
,  // measure 34
0001
0000
0001
0000
,  // measure 35
0100
0000
0100
0000
,  // measure 36
0100
0100
0100
0000
,  // measure 37
0010
0000
0010
0000
,  // measure 38
0010
0010
0010
0000
,  // measure 39
1000
0000
0001
0000
,  // measure 40
1000
0000
0001
0000
,  // measure 41
0100
0100
0100
0100
,  // measure 42
0100
0000
0000
0000
,  // measure 43
0001
0001
0001
0000
,  // measure 44
1000
1000
1000
0000
,  // measure 45
0010
0010
0010
0000
,  // measure 46
0100
0000
0100
0000
,  // measure 47
1000
0000
1000
0000
,  // measure 48
0001
0001
0001
0000
,  // measure 49
1000
0000
1000
0000
,  // measure 50
0001
0001
0001
0000
,  // measure 51
0100
0000
0100
0000
,  // measure 52
0010
0010
0010
0000
,  // measure 53
0100
0100
0100
0000
,  // measure 54
0001
0001
0001
0000
,  // measure 55
1000
0000
0001
0000
,  // measure 56
1000
0000
0001
0000
,  // measure 57
0100
0000
0010
0000
,  // measure 58
0100
0000
0010
0000
,  // measure 59
1000
0000
1000
0000
,  // measure 60
1000
0000
0000
0000
,  // measure 61
0001
0000
0001
0000
,  // measure 62
0001
0000
0000
0000
,  // measure 63
0100
0000
0100
0000
,  // measure 64
0010
0000
0010
0000
,  // measure 65
1001
0000
1001
0000
,  // measure 66
2002
0000
3003
0000
,  // measure 67
1000
1000
1000
1000
,  // measure 68
1000
0000
0100
0000
,  // measure 69
0010
0000
0001
0000
,  // measure 70
1001
0000
0000
0000
,  // measure 71
0001
0001
0001
0001
,  // measure 72
0001
0000
0010
0000
,  // measure 73
0100
0000
1000
0000
,  // measure 74
1001
0000
0000
0000
,  // measure 75
0010
0010
0010
0010
,  // measure 76
0010
0000
1000
0000
,  // measure 77
0100
0000
0001
0000
,  // measure 78
1001
0000
0000
0000
,  // measure 79
0010
0010
0010
0010
,  // measure 80
0010
0000
0001
0000
,  // measure 81
0100
0000
1000
0000
,  // measure 82
0001
0000
1000
0000
,  // measure 83
1001
0000
0000
0000
,  // measure 84
0010
0010
0010
0000
,  // measure 85
1000
0000
1000
0000
,  // measure 86
0100
0100
0100
0000
,  // measure 87
0001
0000
0001
0000
,  // measure 88
1000
0000
1000
0000
,  // measure 89
0010
0000
0100
0000
,  // measure 90
2002
0000
3003
0000
,  // measure 91
2002
0000
0000
0000
,  // measure 92
3003
0000
0000
0000
;

//---------------dance-single - ----------------
#NOTES:
     dance-single:
     :
     Easy:
     7:
     0.322636,0.377777,0.156038,0.229951,0.000000,275.000000,256.000000,19.000000,28.000000,0.000000,0.000000,0.322636,0.377777,0.156038,0.229951,0.000000,275.000000,256.000000,19.000000,28.000000,0.000000,0.000000:
0000
0000
0000
0000
,
0000
0000
0000
0000
,
0000
0000
0000
0000
,
0000
0000
0000
0000
,
0000
0000
0000
0000
,
0200
0000
0301
0000
,
2000
0000
3100
0000
,
0200
0000
1300
0000
,
0002
0000
0103
0000
,
0020
0000
0000
1000
0000
0000
0030
0000
,
0200
0000
0000
0001
0000
0000
0300
0000
,
0020
0000
0000
1000
0000
0000
0030
0000
,
0220
0000
0330
0000
,
1000
0000
0000
0001
0000
0010
0000
0100
,
0000
1000
0000
0000
1001
0000
0000
0000
,
0001
0000
0000
1000
0000
0100
0000
0010
,
0000
0001
0000
0000
1001
0000
0000
0000
,
0010
0000
0000
0100
0000
0010
0000
1000
,
0000
0001
0000
0000
0110
0000
0000
0000
,
0100
0000
0000
0010
0000
0100
0000
0001
,
0000
1000
0000
0000
0110
0000
0000
0000
,
2000
0000
3100
0010
,
0002
0000
0013
0100
,
0002
0000
1003
0100
,
2000
0000
3001
0100
,
0001
0000
0000
0001
0000
0000
0001
0000
,
1000
0000
0000
1000
0000
0000
0000
0000
,
0010
0000
0100
0000
1000
0000
0001
0200
,
0000
0000
0000
0000
0000
0300
0000
0000
,
0000
0000
0000
0000
,
0000
0000
0000
1000
,
0001
1000
0001
0100
,
0100
0010
0010
0001
,
1000
0001
1000
0010
,
0010
0100
0100
0000
,
0000
1000
1000
0000
,
0001
0001
0001
0000
,
0000
0010
0010
0000
,
0100
0100
0100
0000
,
0000
0001
0001
1000
,
0000
1000
1000
0001
,
0000
0010
0010
0010
,
0220
0000
0330
0000
,
1000
0001
1000
1000
,
0001
1000
0001
0001
,
0100
0010
0100
0100
,
0010
0000
0100
0000
0010
0010
0010
0000
,
1000
1000
1000
1000
,
0001
0100
1000
0000
,
0001
0001
0001
0001
,
1000
0100
0001
0000
,
0010
0010
0010
0010
,
1000
0100
0001
0000
,
0001
0100
1000
0000
,
1000
0010
0001
0000
,
0010
0000
0000
0000
,
1000
0100
0001
0000
,
0001
0100
0010
1000
,
0100
0010
0001
0000
,
1000
1000
0001
0000
,
0100
0100
0010
0000
,
0001
0001
1000
0000
,
0220
0000
0330
0000
,
0001
0100
1000
0000
,
1000
0100
0001
0000
,
0010
0100
1000
0001
,
2002
0000
3003
0000
,
0010
0010
1000
1000
,
0001
0100
0010
1000
,
0010
0010
0001
0001
,
1000
0100
0010
0001
,
0100
0100
0001
0001
,
1000
0100
0010
0001
,
0010
0100
1000
0001
,
2002
0000
3003
0000
,
1001
1001
1001
0000
,
0010
0100
1000
0000
,
0100
0010
0100
0010
,
2002
0000
3003
0000
,
0110
0110
0110
0000
,
0001
0100
1000
0000
,
0100
0010
1000
0001
,
0200
0000
0310
1000
,
0001
0001
0100
0100
,
0010
1000
1001
0000
,
1000
1000
0100
0100
,
1000
0010
1001
0000
,
0001
0010
0100
1000
,
0001
0100
0010
1000
,
0001
1000
0100
0010
,
0002
0000
0013
0100
,
2002
0000
0000
0000
,
3003
0000
0000
0000
;
