#TITLE:Nightmare before oversleep;
#SUBTITLE:;
#ARTIST:猫叉Master;
#TITLETRANSLIT:;
#SUBTITLETRANSLIT:;
#ARTISTTRANSLIT:Nekomata Master;
#GENRE:;
#CREDIT:;
#BANNER:Nightmare before oversleep.png;
#BACKGROUND:Nightmare before oversleep-jacket.PNG;
#LYRICSPATH:;
#CDTITLE:;
#MUSIC:Nightmare before oversleep.ogg;
#OFFSET:-0.040000;
#SAMPLESTART:76.139999;
#SAMPLELENGTH:12.000000;
#SELECTABLE:YES;
#DISPLAYBPM:48:190;
#BPMS:0.000000=47.500000
,4.000000=95.000000
,32.000000=47.500000
,32.166668=47.700001
,32.333332=47.759998
,32.500000=47.700001
,32.666668=47.759998
,32.833332=47.680000
,33.000000=183.600998
,34.000000=190.000000
,284.000000=95.000000
;
#STOPS:191.500000=1.880000,
283.750000=1.280000
;
#BGCHANGES:;
#KEYSOUNDS:;
#ATTACKS:;

//---------------dance-single - ----------------
#NOTES:
     dance-single:
     :
     Beginner:
     5:
     0.175206,0.393170,0.050059,0.000000,0.000000,147.000000,141.000000,6.000000,0.000000,0.000000,0.000000,0.175206,0.393170,0.050059,0.000000,0.000000,147.000000,141.000000,6.000000,0.000000,0.000000,0.000000:
0000
0000
0000
0000
,
0000
0000
0000
0000
,
0000
0000
0000
0000
,
0000
0000
0000
0000
,
0000
0000
0001
0000
,
0000
0000
1000
0000
,
0000
0000
0001
0000
,
1000
0000
0001
0000
,
0001
0001
0001
0000
,
0010
0000
0010
0000
,
0010
0000
0100
0000
,
0100
0000
0100
0000
,
0001
0000
0001
0000
,
1000
0000
1000
0000
,
0000
0100
0000
0000
,
0100
0000
0000
0100
,
0000
0000
0100
0000
,
0100
0000
0001
0000
,
0001
0000
1000
0000
,
1000
0000
0010
0000
,
0010
0000
0100
0000
,
0100
0000
0001
0000
,
0000
0001
0000
0001
,
0000
0001
0000
0001
,
0000
0000
1000
0000
,
1000
0000
0010
0000
,
0010
0000
0100
0000
,
0100
0000
0001
0000
,
0001
0000
0010
0000
,
0010
0000
0100
0000
,
0100
0000
1000
0000
,
0001
0000
1000
0000
,
0001
0001
0000
0000
,
0100
0000
0000
1000
,
0000
0000
0010
0000
,
0000
0001
0000
0000
,
1000
0000
0000
0001
,
0000
0000
0010
0000
,
0010
0010
0000
0100
,
0100
0000
0001
0001
,
0000
1000
1000
0000
,
0010
0010
0000
0100
,
0100
0000
0000
0001
,
0000
0000
1000
0000
,
0000
0001
0000
0000
,
1000
0000
0000
0001
,
0000
0000
1000
0000
,
0000
0001
0000
0000
,
0010
0000
0010
0000
,
0001
0000
0001
0000
,
1000
0000
1000
0000
,
0010
0000
0010
0000
,
0100
0000
0100
0000
,
0001
0000
0001
0000
,
1000
0000
1000
0000
,
0010
0000
0010
0010
,
0010
0000
0100
0100
,
0100
0000
0001
0001
,
0001
0000
1000
1000
,
1000
0000
0010
0000
,
0100
0000
0001
0000
,
0010
0000
0100
0000
,
1000
1000
1000
0000
,
0001
0001
0001
0000
,
0010
0010
0010
0000
,
0100
0100
0100
0000
,
0001
0001
0001
0000
,
1000
1000
1000
0000
,
0110
0110
0110
0000
,
1001
1001
1001
0000
,
0010
0010
0010
0010
,
1000
0000
0000
0000
,
0000
0000
1000
0000
;

//---------------dance-double - ----------------
#NOTES:
     dance-double:
     :
     Easy:
     7:
     0.277707,0.362926,0.141833,0.091775,0.000000,233.000000,216.000000,17.000000,11.000000,0.000000,0.000000,0.277707,0.362926,0.141833,0.091775,0.000000,233.000000,216.000000,17.000000,11.000000,0.000000,0.000000:
00000000
00000000
00000000
00000000
,
00000000
00000000
00000000
00000000
,
00000000
00000000
00000000
00000000
,
00000000
00000000
00000000
00000000
,
00000000
00000000
00010000
00000100
,
00010000
00001000
00100000
00010000
,
01000000
00100000
10000000
01000000
,
00100000
00010000
00002000
00000000
,
00023000
10030000
01000000
00000000
,
01000000
00000000
00000000
00100000
00000000
00000000
10000000
00000000
,
01000000
00100000
00010000
00000000
,
00010000
00000000
00000000
00010000
00000000
00000000
00001000
00000000
,
00010000
00000200
00000000
00000302
,
00000000
00002003
00000000
00003200
,
00000000
00000000
00001300
00000000
00000000
00100000
00000000
00000000
,
10000000
00000000
00000000
01000000
00000000
00000000
00010000
00000000
,
00000000
00000000
10000000
00000000
00000000
00100000
00000000
00000000
,
10000000
00000000
00000000
00100000
00000000
00000000
01000000
00000000
,
00010000
00000000
00100000
00000000
00000000
00001000
00000000
00000000
,
00100000
00000000
00000000
00001000
00000000
00000000
00100000
00000000
,
00001000
00000000
00010000
00000000
00000000
00000010
00000000
00000000
,
00010000
00000000
00000000
00000100
00000000
00000000
00010000
00000000
,
00001000
00000000
00000010
00000000
00000000
00001000
00000000
00000000
,
00000100
00000000
00000000
00001000
00000000
00000000
00000010
00000000
,
00001000
00000000
00000100
00000000
00000000
00010000
00000000
00000000
,
00000100
00000000
00000000
00010000
00000000
00000000
00001000
00000000
,
00100000
00000000
10000000
00000000
00000000
01000000
00000000
00000000
,
00010000
00000000
00000000
01000000
00000000
00000000
10000000
00000000
,
00010000
00000000
00100000
00000000
00000000
00001000
00000000
00000000
,
00100000
00000000
00000000
00001000
00000000
00000000
00010000
00000000
,
00000100
00000000
00001000
00000000
00000000
00000010
00000000
00000000
,
00000001
00000000
00000000
00000100
00000000
00000000
00001000
00000000
,
00000000
00000000
00000010
00000000
00000000
00001000
00000000
00000000
,
00000010
00000000
00000000
00001000
00000000
00000000
00000100
00000000
,
00000000
00010000
00000000
00000000
00000100
00000000
00010000
00000000
,
00001000
00100000
00010000
00100000
,
00001000
00100000
01000000
00010000
,
10000000
00000000
01000000
00000000
01000000
00000000
00000000
00100000
,
00000000
00000000
01000000
00000000
00000000
00010000
00000000
00000000
,
00100000
00000000
00000000
00001000
00000000
00000000
00010000
00000000
,
00000100
00010000
00001000
00000010
,
00000100
00000010
00000001
00000100
,
00010000
00000000
00000000
00001000
00000000
00000000
00010000
00000000
,
00000000
00000100
00000000
00000000
00001000
00000000
00000000
00000010
,
00000000
00000000
00001000
00000000
00000000
00000100
00000000
00000000
,
00011000
00000000
00000000
00110000
00000000
00000000
10010000
00000000
,
00000000
11000000
00000000
00000000
01010000
00000000
00000000
00011000
,
00000000
00000110
00000001
00001000
,
00100000
00100000
00010000
00001000
,
00010000
00000100
00010000
00000100
,
00001000
00000100
00001000
00000100
,
00000001
00000100
00000001
00000100
,
00002000
00000000
00003000
00010000
,
02000000
00000000
03000000
00010000
,
00001000
00000010
00000001
00000100
,
00000010
00001000
00000100
00010000
,
00001000
01000000
00100000
10000000
,
01000000
00001000
00100000
00001000
,
00010000
00000010
00000100
00000001
,
00002000
00000000
00003000
00010000
,
00200000
00000000
00300000
00001000
,
00020000
00000000
00000000
00031000
,
00110000
01000000
10000000
01000000
,
00101000
00000100
00010000
00001000
,
00000101
00000010
00001000
00000100
,
00101000
00010000
01000000
00100000
,
10010000
01000000
00001000
00010000
,
00001100
00000010
00000001
00000100
,
00001010
00010000
00001000
01000000
,
10010000
01000000
00001000
00010000
,
00001100
00000010
00000001
00001001
,
00001000
00000000
00000000
00000000
,
00000000
00000000
00010000
00000000
;

//---------------dance-single - ----------------
#NOTES:
     dance-single:
     :
     Easy:
     6:
     0.281283,0.423414,0.166863,0.091775,0.000000,236.000000,216.000000,20.000000,11.000000,0.000000,0.000000,0.281283,0.423414,0.166863,0.091775,0.000000,236.000000,216.000000,20.000000,11.000000,0.000000,0.000000:
0000
0000
0000
0000
,
0000
0000
0000
0000
,
0000
0000
0000
0000
,
0000
0000
0000
0000
,
0000
0000
1000
0010
,
0001
0010
1000
0010
,
0001
1000
0100
1000
,
0100
0000
0200
0000
,
0302
0000
0013
0000
0000
0010
0000
0000
,
0100
0000
0000
0010
0000
0000
0010
0000
,
0001
0000
0100
0000
0000
1000
0000
0000
,
1000
0000
0000
0100
0000
0000
0001
0000
,
0001
0200
0000
0302
,
0000
2003
0000
3200
,
0000
0000
0310
0000
0000
1000
0000
0000
,
0100
0000
0000
0100
0000
0000
0010
0000
,
0000
0000
0001
0000
0000
0001
0000
0000
,
0100
0000
0000
0001
0000
0000
0010
0000
,
0001
0000
0001
0000
0000
0010
0000
0000
,
0100
0000
0000
0100
0000
0000
0001
0000
,
0010
0000
0100
0000
0000
0100
0000
0000
,
0001
0000
0000
1000
0000
0000
0001
0000
,
0010
0000
0001
0000
0000
1000
0000
0000
,
0010
0000
0000
0100
0000
0000
0001
1000
,
0001
0000
0010
0000
0000
0001
0000
0000
,
1000
0000
0000
0010
0000
0000
1000
0000
,
0100
0000
0001
0000
0000
1000
0000
0000
,
0010
0000
0000
0001
0000
0000
0100
0000
,
0010
0000
0001
0000
0000
0010
0000
0000
,
0100
0000
0000
0010
0000
0000
0100
0000
,
1000
0000
0100
0000
0000
0001
0000
0000
,
0010
0000
0000
0010
0000
0000
0010
0000
,
0000
0000
1000
0000
0000
0001
0000
0000
,
0100
0000
0000
0100
0000
0000
0001
0000
,
0000
0001
0000
0000
0100
0000
1000
0000
,
0001
0001
0001
1000
,
0001
0100
0100
0110
,
1000
0000
0100
0000
0010
0000
0000
1000
,
0000
0000
1000
0000
0000
0010
0000
0000
,
0100
0000
0000
0100
0000
0000
0010
0000
,
0001
0001
0001
1000
,
1000
1000
0100
0100
,
0100
0000
0000
0010
0000
0000
1000
0000
,
0000
1000
0000
0000
0100
0000
0000
0010
,
0000
0000
0010
0000
0000
0001
0000
0000
,
0110
0000
0000
1010
0000
0000
0011
0000
,
0000
0101
0000
0000
1100
0000
0000
1001
,
0000
1100
0110
1001
,
0001
0010
0001
1000
,
0100
0100
1000
0100
,
0010
0001
0100
1000
,
0100
0100
0100
0100
,
2000
0000
3000
0100
,
0200
0000
0300
0010
,
1000
0100
1000
1000
,
0100
0010
0010
0010
,
0001
0010
0001
0010
,
0001
0100
1000
1000
,
0001
0100
1000
0010
,
2000
0000
3000
0001
,
0020
0000
0030
0100
,
0002
0000
0000
0103
,
1100
0100
0010
0010
,
1100
0001
0100
1000
,
0011
0100
0010
0010
,
0110
1000
0001
1000
,
1001
0010
1000
0010
,
1010
0001
1000
1000
,
0011
0001
0100
0001
,
1010
1000
1000
0100
,
1001
1000
0100
1001
,
1000
0000
0000
0000
,
0000
0000
0001
0000
;

//---------------dance-single - Copied from----------------
#NOTES:
     dance-single:
     Copied from:
     Medium:
     11:
     0.433843,0.483902,0.258637,0.116804,0.000000,364.000000,333.000000,31.000000,14.000000,0.000000,0.000000,0.433843,0.483902,0.258637,0.116804,0.000000,364.000000,333.000000,31.000000,14.000000,0.000000,0.000000:
0000
0000
0000
0000
,
0000
0000
0000
0000
,
0000
0000
0000
0000
,
0000
0000
0000
0000
,
0000
0000
0001
1000
,
0001
1000
0001
0010
,
0010
0000
1000
0100
1000
0000
0100
0010
,
0001
0010
0100
1000
0200
0000
0000
0000
,
0302
0000
1003
0000
0110
0100
0000
0000
,
0110
0000
0000
1100
0100
0000
0001
0000
,
0110
0000
1000
0000
1001
0001
0000
1000
,
0001
0000
0000
0010
0110
0000
0001
0000
,
0110
0000
0200
0000
0010
0000
0302
0010
,
0010
0000
2003
0000
0100
0000
3200
0010
,
0010
0000
0301
0010
1000
0010
0001
0010
,
1000
0100
0001
0100
1000
0100
0001
0000
,
1001
0000
0010
0000
0100
0010
0000
0010
,
0100
0000
0010
0100
0000
0010
0100
0000
,
0010
0000
0010
0000
1000
0001
0000
1000
,
0010
0000
1000
0010
0000
0001
1000
0000
,
0010
0000
1000
0000
0001
1000
0000
0010
,
0100
0000
1000
0001
0000
0010
1000
0000
,
0100
0000
1001
0000
1000
1001
0000
0000
,
1010
0000
0000
1100
0000
0000
0001
0100
,
0001
0100
0001
0000
0010
0100
0000
1000
,
0001
0000
0010
0100
0000
0010
0100
0010
,
0100
0000
1000
0000
0001
0100
0000
1000
,
0010
0000
0001
0010
0000
0100
1000
0100
,
1000
0000
0001
0000
0100
0010
0000
0100
,
0001
0000
0100
1000
0000
0100
0010
0000
,
0100
0000
1000
0001
0000
1000
0010
0000
,
0001
0100
0000
0010
1000
0010
0100
0000
,
0110
0000
1000
0000
0100
0001
0100
0001
,
0100
0000
0010
1000
0010
1000
0010
0000
,
0100
0010
0100
0010
0100
0000
1000
0001
,
1000
0001
1000
0000
1000
0000
0010
0000
,
0010
0000
0010
0100
0010
0100
0010
0000
,
1001
0000
0110
0000
1001
0000
0100
1000
,
0100
0000
0001
0000
0010
0001
0010
0000
,
0001
0000
0010
0100
0010
0000
0001
0000
,
0001
0000
0010
0000
0100
0000
0010
0100
,
0010
0100
0010
0000
1000
0001
1000
0001
,
1000
0000
0000
0001
0000
0000
0100
0000
,
0000
1000
0000
0000
0100
0000
0000
0010
,
0000
0000
0001
0000
0000
1000
0000
0000
,
1001
0000
0000
1001
0000
0000
0110
0000
,
0000
1001
0000
0000
0110
0000
0000
0110
,
0000
0000
0110
0010
0100
0010
0110
0020
,
0130
0001
0001
1000
,
0010
0000
0001
0100
1000
0100
0001
0000
,
0001
0100
1000
0100
,
0100
1000
0100
0000
0010
0001
0010
0000
,
2000
0000
0000
0000
3000
0100
0001
0010
,
0200
0000
0000
0000
0300
1000
0100
0010
,
0001
0011
0000
1100
0000
0110
0000
1001
,
0001
1000
0010
0100
,
2000
0000
3001
0010
0100
1000
0100
0000
,
0100
1000
0100
1000
,
0010
0100
0010
0100
1000
0000
0010
0000
,
2000
0000
0000
0000
3000
0100
0010
0100
,
0020
0000
0000
0000
0030
0001
1000
0010
,
0002
0000
0100
0013
,
1000
0001
1000
0001
1000
0000
0100
0000
,
0010
0100
0010
0100
,
0001
1000
0001
1000
0100
0000
1000
0000
,
1010
0010
0010
0010
,
0010
0001
1000
0001
0100
0000
0001
0000
,
1000
0110
0010
0110
,
0001
1000
0010
1000
0010
0000
1000
0000
,
1000
0010
1000
0000
0100
0001
0100
0000
,
1000
0100
0001
0100
1000
0100
0001
0200
,
0310
0000
0000
0000
,
0000
0000
0010
0000
;

//---------------dance-double - Copied from----------------
#NOTES:
     dance-double:
     Copied from:
     Medium:
     11:
     0.402854,0.453658,0.300353,0.108461,0.000000,338.000000,302.000000,36.000000,13.000000,0.000000,0.000000,0.402854,0.453658,0.300353,0.108461,0.000000,338.000000,302.000000,36.000000,13.000000,0.000000,0.000000:
00000000
00000000
00000000
00000000
,
00000000
00000000
00000000
00000000
,
00000000
00000000
00000000
00000000
,
00000000
00000000
00000000
00000000
,
00000000
00000000
00001000
00010000
,
00001000
00010000
00001000
00010000
,
00010000
00000000
01000000
00100000
01000000
00000000
00100000
00001000
,
00010000
00001000
00100000
01000000
00020000
00000000
00000000
00000000
,
00030200
00000000
00010300
00000000
00011000
00010000
00000000
00000000
,
00011000
00000000
00000000
00110000
00010000
00000000
00000100
00000000
,
00011000
00000000
00001000
00000000
00001000
00000100
00000000
00001000
,
00000100
00000000
00000000
00001000
00001100
00000000
00000100
00000000
,
00001100
00000000
00002000
00000000
00000100
00000000
00003020
00000100
,
00000100
00000000
00010030
00000000
00001000
00000000
00010000
00100000
,
00100000
00000000
00010100
00000000
00000000
00001100
00000000
00000000
,
00010100
00000000
00000000
00001010
00000000
00000000
00001010
00000000
,
00001001
00000000
00000010
00000000
00000100
00000010
00000000
00000010
,
00000100
00000000
00000010
00000100
00000000
00000010
00000100
00000000
,
00000010
00000000
00000010
00000000
00001000
00000001
00000000
00001000
,
00000010
00000000
00001000
00000010
00000000
00000001
00001000
00000000
,
00000100
00000000
00010000
00000000
00000100
00010000
00000000
00000100
,
00001000
00000000
00010000
00000100
00000000
00000100
00010000
00000000
,
00001000
00000000
00011000
00000000
00000000
00010100
00000000
00000000
,
00010100
00000000
00000000
00011000
00000000
00000000
00000010
00001000
,
00000100
00000000
00000100
00000000
00000000
00010000
00000000
00000000
,
00000100
00000000
00000000
00010000
00000000
00001000
00010000
00001000
,
00010000
00000000
00100000
00000000
00000000
00010000
00000000
00000000
,
00100000
00000000
00000000
00100000
00000000
00010000
00100000
00010000
,
01000000
00000000
00010000
00000000
00000000
00010000
00000000
00000000
,
10000000
00000000
00000000
01000000
00000000
00100000
00010000
00000000
,
00100000
00000000
01000000
00001000
00000000
01000000
00010000
00000000
,
00001000
01000000
00000000
00010000
01000000
00010000
01000000
00000000
,
00000000
00000000
10000000
00000000
01000000
00010000
01000000
00010000
,
01000000
00000000
00100000
10000000
00100000
10000000
00100000
00000000
,
01000000
00100000
01000000
00100000
01000000
00000000
10000000
00010000
,
10000000
00010000
10000000
00000000
10000000
00000000
00100000
00000000
,
00010000
00000000
00010000
00100000
00010000
00100000
00010000
00000000
,
00011000
00000000
00011000
00000000
00011000
00000000
00001000
00010000
,
00001000
00000000
00001000
00000000
00010000
00001000
00010000
00000000
,
00001000
00000000
00100000
00010000
00100000
00000000
00001000
00000000
,
00000100
00000000
00001000
00000000
00010000
00000000
00001000
00010000
,
00001000
00010000
00001000
00000000
00001000
00000100
00001000
00000100
,
00001000
00000000
00000000
00000100
00000000
00000000
00010000
00000000
,
00000000
00100000
00000000
00000000
00010000
00000000
00000000
00001000
,
00000000
00000000
00000010
00000000
00000000
00010000
00000000
00000000
,
00010010
00000000
00000000
00010010
00000000
00000000
00001100
00000000
,
00000000
00000011
00000000
00000000
00000110
00000000
00000000
00000110
,
00000000
00000000
00000000
00001100
00000000
00000000
00011000
00000000
00000000
00022000
00000000
00033000
,
00000010
00000101
00000001
00001100
,
00000010
00000000
00000001
00000100
00001000
00000100
00000001
00000000
,
00000001
00000100
00001000
00100000
,
00100000
00010000
00100000
00000000
01000000
10000000
01000000
00000000
,
00020000
00000000
00030000
00000000
00000000
00010000
01000000
00100000
,
02000000
00000000
03000000
00000000
00000000
10000000
01000000
00100000
,
00010000
00011000
00001100
00000110
,
00000010
00001000
00000100
00001000
,
00000020
00000000
00000130
00001000
00000100
00000000
00010000
00000000
,
00010000
00100000
00010000
00100000
,
00001000
00010000
00001000
00000000
00100000
00000000
00001000
00000000
,
00200000
00000000
00000000
00000000
00300000
00010000
00001000
00000000
,
00020000
00000000
00000000
00000000
00030000
00001000
01000000
00000000
,
20000000
00000000
30100000
00010000
,
00010000
00001000
00010000
00001000
00010000
00000000
00100000
00000000
,
00010000
00100000
00010000
00100000
,
00010000
10000000
00010000
10000000
01000000
00000000
00010000
00000000
,
00001010
00000010
00000010
00000010
,
00000010
00000001
00000001
00001000
00000010
00000000
00001000
00000000
,
00010000
00011000
00010000
00011000
,
00001000
01000000
00010000
01000000
00010000
00000000
01000000
00000000
,
01000000
00010000
01000000
00000000
00100000
00001000
00100000
00000000
,
01000000
00000000
00001000
00000000
01000000
00000000
00001000
00200000
,
00310000
00000000
00000000
00000000
,
00000000
00000000
00001000
00000000
;

//---------------dance-double - ----------------
#NOTES:
     dance-double:
     :
     Hard:
     15:
     0.567333,0.695609,0.333725,0.383784,0.158520,476.000000,436.000000,40.000000,46.000000,0.000000,0.000000,0.567333,0.695609,0.333725,0.383784,0.158520,476.000000,436.000000,40.000000,46.000000,0.000000,0.000000:
00000000
00000000
00000000
00000000
,
00000000
00000000
00000000
00000000
,
00000000
00000000
00000000
00000000
,
00000000
00000000
00000000
00000000
,
00000000
00000000
00020000
00032000
,
00003020
00000032
00000203
00020300
,
00032000
00000000
00103000
10000000
02000000
00000000
03010000
00100000
,
00001000
00000100
00000010
00000001
00000200
00000000
00000000
00000000
,
00020300
00000000
00031000
00000000
00001000
00010000
00000000
00010000
,
00001000
00000000
00100000
00001000
00010000
00100000
00010000
00000000
,
01100000
00000000
11000000
00000000
10000000
00010000
00000000
00010000
,
10000000
00000000
10000000
00100000
01000000
00010000
00100000
00000000
,
00110000
00000000
00011000
00000000
00000100
00001000
00000000
00001000
,
00000100
00000000
00000001
00000100
00001000
00000100
00000001
00000000
,
00000110
00000000
00001010
00000000
00001000
00011000
00000000
00100000
,
00110000
00000000
10000000
11000000
00000000
01000000
00100000
00010000
,
00001000
00100000
01000000
10000000
01000000
00010000
10000000
01000000
,
00010000
10000000
00100000
00010000
01000000
00100000
00001000
00000100
,
00000010
00000100
00000001
00000100
00001000
00000010
00000100
00001000
,
00000001
00000100
00001000
00000010
00000100
00001000
00000100
00010000
,
00001000
00100000
00010000
10000000
01000000
00010000
10000000
01000000
,
00100000
10000000
01000000
00010000
00100000
00001000
00010000
00000100
,
00001000
00000010
00000001
00000100
00001000
00000001
00000010
00000100
,
00000001
00000100
00001000
00000100
00010000
00001000
01000000
00100000
,
10000000
01000000
00010000
00100000
00001000
00000100
00001000
00010000
,
00001000
00000100
00000001
00000100
00001000
00000010
00000001
00000100
,
00000010
00001000
00010000
00001000
00010000
00100000
00010000
00100000
,
01000000
00100000
01000000
10000000
01000000
00010000
00001000
00000100
,
00000010
00000001
00001000
00000010
00000100
00001000
00000010
00000100
,
00001000
00000001
00000100
00001000
00100000
00010000
01000000
10000000
,
01000000
00100000
00011000
00000000
00000000
00001100
00000000
00000000
,
00000110
00000000
00000000
00000000
00000000
00000000
00000011
00000000
00000000
00000000
00000000
00000000
00000001
00000100
00000001
00000000
,
00001000
00000010
00001000
00000000
00000200
00000000
00000000
00000000
00001000
00000000
00020300
00000000
00000000
00000000
00000100
00000000
,
00032000
00000000
00010000
00203000
00000000
00001000
00320000
00000000
,
00100000
02030000
00000000
10000000
03200000
00000000
20300000
00000000
,
32000000
03010000
00100000
00011000
,
00001200
00000000
00000301
00000100
00001000
00000100
00000001
00000000
,
00001100
00000000
00011000
00000000
02000000
00000000
00100000
03020000
,
00000000
00001000
00230000
00000000
00010000
00302000
00000000
00100000
,
00023000
00000000
00001000
00030200
00000000
00001000
00002300
00000000
,
00003020
00000230
00000302
00000103
,
00000010
00000000
00001000
00000000
00000100
00010000
00001000
00010000
,
00000100
00000000
00000000
00001100
00000000
00000000
00011000
00000000
,
00000000
00110000
00000000
00000000
10100000
00000000
00000000
01100000
,
00000000
00000000
01010000
00000000
00000000
00011000
00000000
00000000
,
00010000
00001000
00000100
00001000
00010000
00001000
00000100
00000010
,
00000001
00000100
00001000
00000100
00000001
00000100
00001000
00010000
,
00100000
00000000
10000000
00000000
01000000
00000000
00100000
00000000
00010000
00000000
00001000
00000000
00010000
00000000
00002000
00003000
,
00010000
00011000
00001100
00000110
,
00000011
00000000
00000001
00000100
00001000
00000100
00000001
00000100
,
00001000
00001100
00011000
00110000
,
01100000
00000000
10000000
01000000
00010000
00100000
10000000
01000000
,
00020000
00000000
00000000
00000000
00000000
00000000
00000000
00000000
00030000
00000000
00001000
00010000
00001000
00010000
00001000
00000000
,
00000200
00000000
00000000
00000000
00000000
00000000
00000000
00000000
00000300
00000000
00000010
00000100
00000010
00000100
00000010
00000000
,
00000001
00000100
00001000
00000001
00000010
00001000
00000100
00010000
,
00020000
00031000
00002000
00013000
00020000
00130000
00200000
01300000
,
02000000
00000000
03010000
00100000
00001000
00010000
00000100
00001000
,
00000020
00001030
00002000
00003100
00000200
00000310
00000020
00000031
,
00000001
00000100
00001000
00000100
00000001
00000010
00001000
00000100
,
00020000
00000000
00000000
00000000
00000000
00000000
00000000
00000000
00030000
00000000
00100000
00010000
01000000
00010000
00100000
00000000
,
20000000
00000000
00000000
00000000
00000000
00000000
00000000
00000000
30000000
00000000
00100000
00010000
01000000
00010000
00100000
00000000
,
10000000
01000000
00010000
00100000
00001000
00000100
00000010
00000001
,
00001010
00001010
00000100
00011000
00011000
00100000
01100000
00000000
,
00100000
00010000
00000000
00000000
00001000
00010000
00000000
00000000
00001000
00000100
00000000
00000000
00010000
00001000
00000000
00000000
,
00001000
00100000
00000000
00000000
00100000
10000000
00000000
00000000
10000000
01000000
00000000
00000000
01000000
00010000
00000000
00000000
,
00100000
00001000
00000000
00000000
00010000
00000100
00000000
00000000
00001000
00000010
00000000
00000000
00000100
00000010
00000000
00000000
,
00000001
00000100
00000000
00000000
00000010
00001000
00000000
00000000
00000100
00010000
00000000
00000000
00010000
00100000
00000000
00000000
,
10000000
01000000
00000000
00000000
01000000
00010000
00000000
00000000
00100000
00001000
00000000
00000000
00010000
00000100
00000000
00000000
,
00001000
00000010
00000000
00000000
00000010
00001000
00000000
00000000
00001000
00010000
00000000
00000000
00100000
00010000
00000000
00000000
,
00100000
00010000
00100000
00000000
00010000
00001000
00010000
00000000
00000100
00001000
00000100
00000000
00010000
00001000
00010000
00000000
,
00100000
00000000
00001000
00000000
00010000
00000000
00000100
00000000
00001000
00000000
00010000
00000000
00100000
00000000
00220000
00330000
,
00011000
00000000
00000000
00000000
,
00000000
00000000
00011000
00000000
;

//---------------dance-single - ----------------
#NOTES:
     dance-single:
     :
     Hard:
     15:
     0.598322,0.756097,0.333725,0.383784,0.166863,502.000000,462.000000,40.000000,46.000000,0.000000,0.000000,0.598322,0.756097,0.333725,0.383784,0.166863,502.000000,462.000000,40.000000,46.000000,0.000000,0.000000:
// measure 0
0000
0000
0000
0000
,  // measure 1
0000
0000
0000
0000
,  // measure 2
0000
0000
0000
0000
,  // measure 3
0000
0000
0000
0000
,  // measure 4
0000
0000
0002
2003
,  // measure 5
3020
0032
0203
0302
,  // measure 6
2003
0000
3010
0100
0002
0000
1003
0010
,  // measure 7
1000
0100
0010
0001
0200
0000
0000
0000
,  // measure 8
2300
0000
3010
0000
0010
0100
0000
0100
,  // measure 9
0010
0000
0010
0001
0100
0010
0100
0000
,  // measure 10
0011
0000
1001
0000
1000
0100
0000
0100
,  // measure 11
1000
0000
1000
0010
0001
0100
0010
0000
,  // measure 12
0110
0000
0101
0000
1000
0001
0000
0001
,  // measure 13
1000
0000
0001
1000
0001
1000
0001
0000
,  // measure 14
1010
0000
0011
0000
0001
0101
0000
0010
,  // measure 15
0110
0000
1000
1001
0000
0001
0010
0100
,  // measure 16
0001
0010
0001
1000
0001
0100
1000
0001
,  // measure 17
0100
1000
0010
0100
0001
0010
0001
1000
,  // measure 18
0010
1000
0001
1000
0001
0010
1000
0001
,  // measure 19
0100
1000
0001
0010
1000
0001
1000
0100
,  // measure 20
0001
0010
0100
1000
0001
0100
1000
0001
,  // measure 21
0010
1000
0001
0100
0010
0001
0100
1000
,  // measure 22
0001
0010
0100
1000
0001
0100
0010
1000
,  // measure 23
0100
0000
1000
0000
0001
0000
1000
0000
0100
0000
0001
0000
0010
1000
0010
0000
,  // measure 24
0100
0001
0100
0000
0100
0000
1000
0000
0001
0000
1000
0000
0001
0000
0100
0000
,  // measure 25
0001
1000
0100
1000
0001
0010
0100
1000
,  // measure 26
0010
0001
0100
0001
0100
1000
0100
1000
,  // measure 27
0010
1000
0010
0100
0010
0100
0001
1000
,  // measure 28
0010
0100
0001
0010
1000
0001
0010
1000
,  // measure 29
0001
0100
1000
0001
1000
0100
0010
0100
,  // measure 30
0010
1000
0101
0000
0000
1001
0000
0000
,  // measure 31
1010
0000
0000
0000
0000
0000
1010
0000
0000
0000
0000
0000
1000
0100
1000
0000
,  // measure 32
0001
0010
0001
0000
0200
0000
0000
0000
0001
0000
2300
0000
0000
0000
0100
0000
,  // measure 33
3002
0000
1000
0203
0000
0001
2300
0000
,  // measure 34
0100
3020
0000
1000
0230
0000
2300
0000
,  // measure 35
3020
1030
0100
1001
,  // measure 36
0201
0000
1300
0100
0001
0100
1000
0000
,  // measure 37
0101
0000
1001
0000
0020
0000
0100
2030
,  // measure 38
0000
0001
3200
0000
1000
0302
0000
0100
,  // measure 39
2003
0000
0001
3200
0000
0001
0302
0000
,  // measure 40
0023
0230
2300
3100
,  // measure 41
0010
0000
0001
0000
0100
1000
0001
1000
,  // measure 42
0100
0000
0000
0101
0000
0000
1001
0000
,  // measure 43
0000
1100
0000
0000
1100
0000
0000
0110
,  // measure 44
0000
0000
1010
0000
0000
1001
0000
0000
,  // measure 45
1000
0001
0100
0001
1000
0001
0100
0010
,  // measure 46
1000
0100
0001
0100
1000
0100
0001
1000
,  // measure 47
0100
0000
1000
0000
0010
0000
0100
0000
1000
0000
0001
0000
1000
0000
0002
0003
,  // measure 48
1000
1001
0101
0110
,  // measure 49
1010
0000
1000
0100
0001
0100
1000
0100
,  // measure 50
0001
0101
1001
1100
,  // measure 51
0110
0000
1000
0010
1000
0100
1000
0010
,  // measure 52
2000
0000
0000
0000
0000
0000
0000
0000
3000
0000
0001
1000
0001
1000
0001
0000
,  // measure 53
0200
0000
0000
0000
0000
0000
0000
0000
0300
0000
0010
0100
0010
0100
0010
0000
,  // measure 54
1000
0100
0001
1000
0010
0001
0100
1000
,  // measure 55
2000
3001
0002
1003
2000
3100
0200
0310
,  // measure 56
0020
0000
1030
0100
0001
1000
0100
0001
,  // measure 57
0020
0031
0002
0103
0200
0310
0020
1030
,  // measure 58
1000
0100
0001
0100
1000
0010
0001
0100
,  // measure 59
2000
0000
0000
0000
0000
0000
0000
0000
3000
0000
0100
1000
0010
1000
0100
0000
,  // measure 60
0002
0000
0000
0000
0000
0000
0000
0000
0003
0000
0100
1000
0010
1000
0100
0000
,  // measure 61
0001
0010
1000
0100
0001
0100
0010
1000
,  // measure 62
0011
0011
0100
1001
1001
0100
0110
0000
,  // measure 63
0100
1000
0100
0000
0001
1000
0001
0000
0001
0100
0001
0000
1000
0001
1000
0000
,  // measure 64
0001
0100
0001
0000
0100
0001
0100
0000
0001
0010
0001
0000
0010
1000
0010
0000
,  // measure 65
0100
0001
0100
0000
1000
0100
1000
0000
0001
0010
0001
0000
0100
0010
0100
0000
,  // measure 66
1000
0100
1000
0000
0010
0001
0010
0000
0100
1000
0100
0000
1000
0100
1000
0000
,  // measure 67
0001
0010
0001
0000
0010
1000
0010
0000
0100
0001
0100
0000
1000
0100
1000
0000
,  // measure 68
0001
0010
0001
0000
0010
0001
0010
0000
0001
1000
0001
0000
0100
1000
0100
0000
,  // measure 69
0100
1000
0100
0000
1000
0001
1000
0000
0100
0001
0100
0000
1000
0001
1000
0000
,  // measure 70
0100
0000
0000
0000
0000
0000
0000
0000
0001
0000
0000
0000
0000
0000
0000
0000
1000
0000
0000
0000
0000
0000
0000
0000
0100
0000
0000
0000
0000
0000
0000
0000
0001
0000
0000
0000
0000
0000
0000
0000
1000
0000
0000
0000
0000
0000
0000
0000
0100
0000
0000
0000
0000
0000
0000
0000
2200
0000
0000
0000
0000
3300
0000
0000
,  // measure 71
1001
0000
0000
0000
,  // measure 72
0000
0000
1001
0000
;
