#TITLE:NOVA SAY NEVER;
#SUBTITLE:;
#ARTIST:raikoverground underlay;
#TITLETRANSLIT:;
#SUBTITLETRANSLIT:;
#ARTISTTRANSLIT:;
#GENRE:;
#CREDIT:;
#BANNER:NOVA SAY NEVER.png;
#BACKGROUND:NOVA SAY NEVER-bg.png;
#LYRICSPATH:;
#CDTITLE:;
#MUSIC:NOVA SAY NEVER.ogg;
#OFFSET:0.000000;
#SAMPLESTART:73.915016;
#SAMPLELENGTH:13.773621;
#SELECTABLE:YES;
#DISPLAYBPM:100.000000:200.000000;
#BPMS:0.000000=100.000000
,8.000000=200.000000
,33.000000=200.800003
,73.000000=100.300003
,87.000000=51.000000
,88.000000=100.000000
,90.000000=100.279999
,111.000000=103.000000
,112.000000=100.289001
,134.500000=98.699997
,135.500000=90.000000
,136.000000=200.382996
,254.000000=100.000000
,255.500000=75.000000
,255.750000=60.000000
,256.000000=33.000000
,256.666656=110.000000
;
#STOPS:8.000000=1.780000,
165.750000=0.599000
;
#BGCHANGES:;
#KEYSOUNDS:;
#ATTACKS:;

//---------------dance-single - ----------------
#NOTES:
     dance-single:
     :
     Medium:
     12:
     0.448456,0.539548,0.504513,0.252256,0.032700,336.000000,282.000000,54.000000,27.000000,0.000000,0.000000,0.448456,0.539548,0.504513,0.252256,0.032700,336.000000,282.000000,54.000000,27.000000,0.000000,0.000000:
0000
0000
0000
0000
,
0000
0000
0000
0000
,
1000
0000
0001
1000
,
0010
0100
0001
0000
0100
0000
1001
0000
,
1000
0000
0001
0100
0001
0100
0001
0000
,
0010
0000
1000
0100
1000
0100
1000
0000
,
0010
1000
0001
1000
,
0010
0100
0010
0000
0001
0000
1000
0000
,
0001
0000
1000
0100
1000
0100
1000
0000
,
0010
0000
0001
0100
0001
0100
0001
0000
,
1000
0000
0101
0000
0000
1100
0000
0000
,
0110
0000
0000
1001
0000
0000
1000
0100
,
0010
0001
1000
0000
0000
1100
0000
0000
,
0101
0000
0000
0011
0000
0000
0001
0100
,
0010
1000
1001
0000
0000
1100
0000
0000
,
0110
0000
0000
1001
0000
0000
0001
0100
,
0010
1000
1100
0000
0000
0101
0000
0000
,
0011
0000
0000
1010
0000
0000
0110
0000
,
1001
0220
0000
0000
,
0330
2200
0000
0000
,
3300
0022
0000
0000
,
0033
0220
0000
0000
,
0330
0010
1010
0000
0100
0100
0110
0000
,
0001
0000
0000
1000
0000
0000
0100
0000
0000
0000
0010
0000
1001
0000
0000
0000
,
0100
0100
0110
0000
0001
0001
0101
0000
,
1000
0000
0000
0001
0000
0000
0100
0000
0000
0000
0010
0000
1001
0000
0000
0000
,
1000
0000
0100
0000
0001
0000
0100
0000
1000
0000
0000
0010
0000
0000
0001
0000
,
0010
0000
0000
0100
0000
0000
1000
0000
0000
0000
0010
0000
1001
0000
0000
0000
,
0001
0000
0100
0000
1000
0000
0100
0000
0001
0000
0000
0010
0000
0000
1000
0000
,
0100
0000
0000
0010
0000
0000
0001
0000
0000
0000
0100
0000
1001
0000
0000
0000
,
1020
0001
1000
0031
,
1200
0001
1000
0301
,
0020
0100
1000
0031
,
0200
0010
0001
1300
,
0101
0101
0101
1100
,
1010
1010
1010
0011
,
0101
1100
0101
1100
,
1010
0011
1010
0011
,
0100
0010
0100
0010
0100
0010
1000
0001
,
0010
0100
0010
0100
0010
0100
1000
0001
,
1000
0100
1000
0100
0010
0001
0010
0001
,
1000
0100
0010
0001
1000
0000
0010
0100
,
0001
1000
0010
0000
1000
0100
0010
0000
,
0001
0010
0100
0000
0001
0001
0000
1000
,
1000
0000
0010
0010
0000
0100
0100
0000
,
2002
0000
3003
0000
0010
0000
1000
0001
,
1000
0001
0100
0000
0010
1000
0010
1000
,
0001
0100
0001
0100
0010
0010
0000
1000
,
1000
0000
0001
0001
0000
0100
0100
0000
,
2002
0000
3003
0000
0010
1000
0100
0000
,
0010
0001
0100
0000
0010
1000
0001
0000
,
0010
0001
1000
0000
0100
0100
0000
0010
,
0010
2002
3003
1100
,
0202
0000
0303
0000
0001
0010
0100
0000
,
1000
0100
0010
0000
0001
0100
0001
0000
,
1000
0100
1000
0000
0001
0001
0000
1000
,
1000
0000
0010
0000
0100
0100
0000
0001
,
0001
2000
0002
0000
,
0000
0000
0000
0000
,
0000
0000
3003
0000
0010
0000
0000
0100
,
0000
0000
2000
0000
0001
0000
0000
0010
,
0000
0000
3100
0000
0020
0000
0000
0100
,
0000
0000
1000
0000
0000
0001
0000
0000
,
0200
0000
0000
0000
0330
0000
0000
0000
0001
0000
0000
0010
0000
0000
0100
0000
,
2002
0000
3003
0000
0000
0000
0000
0000
0000
0000
0000
0000
;

//---------------dance-single - ----------------
#NOTES:
     dance-single:
     :
     Hard:
     14:
     0.552561,0.689423,0.597941,0.467141,0.126128,414.000000,350.000000,64.000000,50.000000,0.000000,0.000000,0.552561,0.689423,0.597941,0.467141,0.126128,414.000000,350.000000,64.000000,50.000000,0.000000,0.000000:
0000
0000
0000
0000
,
0000
0000
0000
0000
,
1001
0000
1100
0000
0101
0000
0100
0010
,
1000
0001
0100
0000
0101
0000
0001
0010
,
0100
1000
0001
0000
1100
0000
0001
0100
,
0010
1000
0100
0000
0101
0000
1000
0010
,
0100
0000
0101
0000
1100
0000
0001
0100
,
0010
1000
0001
0000
0110
0000
0001
1000
,
0010
0100
0001
0000
1001
0000
0100
0010
,
1000
0001
0100
0000
1100
0000
0001
0010
,
0100
0000
1001
0000
0010
0110
0000
1000
,
1100
0000
0001
0101
0000
0010
1000
0100
,
0001
0010
0100
0000
0001
1000
0000
0100
,
0010
0000
1000
0100
0000
0001
0100
0000
,
1001
0000
0110
0000
1000
0100
0010
0001
,
0100
0000
0001
0010
0100
1000
0010
0000
,
0100
0000
0001
1000
0100
1000
0001
0000
,
1000
0001
1000
0100
1000
0000
0010
0000
,
0100
2002
0000
0000
,
0003
3010
0000
0000
0220
0000
0000
0000
0000
0000
0000
0000
0000
0000
0000
0000
,
0030
0301
0000
0000
0022
0000
0000
0000
0000
0000
0000
0000
0000
0000
0000
0000
,
0030
0000
1003
0000
0000
0000
0000
0000
2200
0000
0000
0000
0000
0000
0000
0000
0000
0000
0000
0000
0000
0000
0000
0000
0000
0000
0000
0000
0300
3010
0000
0000
,
0100
0000
0000
0000
0000
0000
0001
0000
0000
0000
0010
0000
0100
0000
0000
0000
1000
0000
0000
0000
0000
0000
0000
0000
0020
0000
0000
0030
0000
0000
0200
0000
0000
0300
0000
0000
0002
0000
0000
0003
0000
0000
2000
0000
0000
3000
0000
0000
,
0020
0000
0000
0230
0000
0000
0320
0000
0000
0000
1030
0000
0202
0000
0000
0000
,
0303
0000
0000
0010
0000
1000
0010
0000
0001
0000
0000
0000
1000
0000
0000
0100
0000
0000
0001
0000
0000
0010
0000
0000
,
1000
0000
0000
1001
0000
0000
0220
0000
0000
0300
1030
0000
0202
0000
0000
0300
,
1003
0000
0000
0000
0000
0000
0010
0000
0000
0000
0100
0000
0010
0000
0000
0000
0100
0000
0010
0000
0000
0000
1000
0000
0001
0000
0000
0000
0000
0000
0010
0000
0000
0100
0000
0000
0000
0000
0000
1000
0000
0000
0100
0000
0000
0000
0000
0000
,
0001
0000
0000
1000
0000
0000
0220
0000
0000
0330
1000
0000
2002
0000
0000
3003
,
0010
0000
0000
0100
0000
0001
0100
0000
0010
1000
0000
0001
0100
0000
0000
0010
0000
0000
1000
0000
0000
0101
0000
0000
,
1100
0000
0000
0110
0000
0000
1001
0000
0000
0000
0010
0000
1100
0000
0000
0000
,
0201
0000
0010
0000
1000
0010
1000
0310
,
1020
0000
0001
0000
0100
1000
0100
0031
,
1020
0000
0100
0000
0001
1000
0001
1030
,
0210
0000
1000
0000
0001
0010
1300
0000
,
0101
0000
0101
0000
0101
0000
0010
0100
,
1100
0000
1100
0000
1100
0000
0010
0100
,
0101
0101
1100
1100
,
0010
0100
0010
1000
0001
1000
0001
0000
,
1100
0000
0101
0000
1000
0100
0001
0000
,
0101
0000
1100
0000
0001
0010
1000
0000
,
0100
0100
0100
0000
0010
0010
0010
0000
,
1000
0001
0100
0010
1000
0001
0100
0001
,
0001
0100
0001
0000
0100
0000
0000
0000
0010
1000
0010
0000
0100
0000
0000
0000
,
0001
0100
0001
0000
0010
0000
0000
0000
1000
0000
0100
0000
0010
0000
0001
0000
,
0100
0000
0001
0010
0100
1000
0010
0000
,
0110
0000
1001
0000
0010
1000
0001
0100
,
0010
1000
0010
0000
0001
0000
0000
0000
1000
0100
1000
0000
0010
0000
0000
0000
,
0001
0100
0001
0000
0010
0000
0000
0000
1000
0000
0001
0000
0100
0000
0010
0000
,
1000
0000
0001
0100
0010
1000
0100
0000
,
2200
0000
3300
0000
0001
0100
0010
1000
,
0001
0100
0010
1000
0100
0010
0001
1000
,
0100
0010
0001
0000
1001
0000
1000
1100
,
0000
0001
0101
0000
0001
0010
0100
1000
,
0010
0100
1001
0000
1000
0010
0100
0001
,
1000
0010
0100
0001
0010
0100
1000
0001
,
0010
0100
1000
0000
0110
0000
1000
1001
,
0000
0000
0110
0000
1001
0000
0010
0110
,
0000
0000
2000
0000
0002
0000
0003
0020
,
0000
0030
0200
0000
0300
0020
0000
0030
,
0002
0000
0000
3003
0200
0000
0000
2000
,
0000
3000
0002
0003
0020
0000
0030
2000
,
0000
3000
0302
0000
0200
0000
0003
0020
,
0000
0030
0002
0000
0003
2000
0000
3000
,
0020
0000
0000
0000
0330
0000
0000
0000
1001
0000
0000
0100
0000
0000
0010
0000
,
2002
0000
3003
0000
0000
0000
0000
0000
0000
0000
0000
0000
;

//---------------dance-double - ----------------
#NOTES:
     dance-double:
     :
     Medium:
     12:
     0.388395,0.479598,0.345685,0.289628,0.023357,291.000000,254.000000,37.000000,31.000000,0.000000,0.000000,0.388395,0.479598,0.345685,0.289628,0.023357,291.000000,254.000000,37.000000,31.000000,0.000000,0.000000:
00000000
00000000
00000000
00000000
,
00000000
00000000
00000000
00000000
,
00010000
00000000
00001000
00000000
00010000
00000000
00000010
00000100
,
00000001
00000100
00001001
00001000
,
00000100
00010000
00000100
00000000
00010000
00001000
01000000
00000000
,
00100000
10000000
01000000
00000000
00100000
00000000
10000000
00000000
,
01000000
00010000
00100000
00001000
,
00010000
00000010
00001000
00000001
,
00000100
00000010
00001000
00000100
,
00010000
00001000
01000000
00100000
,
10000000
00000000
00010000
10000000
00000000
01000000
10000000
00000000
,
00010000
10000000
00000000
01000000
10000000
00000000
00010000
00000000
,
00100000
00000000
00001000
00000100
00000010
00000001
00000100
00000010
,
00001000
00000001
00000010
00000100
,
00000110
00000000
00000001
00001000
00000000
00000001
00000100
00000000
,
00001000
00000100
00000000
00001000
00000100
00000000
00010000
00001000
,
00100000
00000000
00010000
00100000
00010000
01000000
00100000
10000000
,
00100000
00000000
10000000
00000000
00010000
01000000
00100000
00000000
,
10000000
20020000
00000000
00000000
,
30030000
00022000
00000000
00000000
,
00033000
00002020
00000000
00000000
,
00003030
00000202
00000000
00000303
,
00000010
00000000
00001001
00000000
00000100
00001000
00001100
00000000
,
00001000
00000000
00010000
00000000
00100000
01000000
01100000
00000000
,
10000000
00000000
00100000
00000000
01000000
00100000
00110000
00000000
,
00010000
00000000
00000100
00000000
00001000
00000010
00001010
00000000
,
00000110
00000000
00000000
00000000
00001001
00000000
00000000
00000000
00000010
00000000
00000000
00010000
00000000
00000000
00001000
00000000
,
01000000
00000000
00000000
00100000
00000000
00000000
10000000
00000000
00000000
00000000
00010000
00000000
01010000
00000000
00000000
00000000
,
10000000
00000000
00000000
00000000
00100000
00000000
00000000
00000000
01000000
00000000
00000000
00001000
00000000
00000000
00010000
00000000
,
00000010
00000000
00000000
00000100
00000000
00000000
00000001
00000000
00000000
00000000
00001000
00000000
00001200
00000000
00000000
00000000
,
00010000
00000001
00010000
00000001
,
00020300
00000100
01000000
00000100
,
02030000
00001000
10000000
00001000
,
23000000
00010000
00100000
31000000
,
10100000
10100000
10100000
00010000
,
01010000
01010000
01010000
00001000
,
00011000
00011000
00011000
00010000
,
00010010
00010010
00010010
00000010
,
00000110
00001001
00000110
00001001
,
00001000
00001100
00010000
00011000
,
01000000
01010000
10000000
11000000
,
02200000
03300000
10000000
00010000
,
00100000
00001000
00010000
00000000
00001000
00000000
00010000
00000000
,
00000100
00001000
00000010
00000000
00000200
00000000
00000000
00000302
,
00000000
00002003
00000000
00000010
,
00003200
00000000
00000310
00000010
,
00001000
00000100
00010000
00000000
00001000
00000000
00100000
00000000
,
00010000
01000000
00100000
00000000
20000000
00000000
00000000
30020000
,
00000000
02030000
00000000
03200000
,
20000000
00000000
00000000
00000000
30300000
00000000
00010000
01000000
,
00010000
01000000
00010000
00000000
00100000
00000000
00001000
00000000
,
00010000
00000100
00010000
00000000
00000100
00001000
00000000
00001000
,
00000010
00000000
00000010
00000100
00000000
00000100
00000001
00000000
,
00002002
00000000
00003003
00000000
00000001
00000000
00001000
00000100
,
00001000
00000100
00001000
00000000
00000100
00010000
00001000
00000000
,
00001000
00100000
00010000
00000000
00010000
01000000
00000000
01000000
,
00100000
00000000
00100000
10000000
01000000
00000000
01000000
00010000
,
00000000
00010000
00200000
00000000
00002000
00000000
00000000
00000000
,
00000000
00000000
00000000
00000000
,
00300000
00000000
00000000
00000000
00010000
00000000
00000000
00000100
,
00000000
00000000
00023000
00000000
00030020
00000000
00000000
00001000
,
00000000
00000100
00000002
00000000
,
00000000
00000000
00000000
00000000
,
00000033
00000000
00000000
00000000
00000000
00000000
00000000
00000000
00000100
00000000
00000000
00010000
00000000
00000000
00001000
00000000
,
02000000
00000000
03000000
00000000
00000000
00000000
00000000
00000000
00000000
00000000
00000000
00000000
;

//---------------dance-double - ----------------
#NOTES:
     dance-double:
     :
     Hard:
     14:
     0.516525,0.599498,0.504513,0.457798,0.088757,387.000000,333.000000,54.000000,49.000000,0.000000,0.000000,0.516525,0.599498,0.504513,0.457798,0.088757,387.000000,333.000000,54.000000,49.000000,0.000000,0.000000:
00000000
00000000
00000000
00000000
,
00000000
00000000
00000000
00000000
,
10010000
00000000
11000000
00000000
01010000
00000000
01000000
00100000
,
10000000
00010000
01000000
00000000
01010000
00000000
00010000
00001000
,
00000100
00000010
00000001
00000000
00001100
00000000
00000001
00000100
,
00000010
00001000
00000100
00000000
00000101
00000000
00001000
00000010
,
00000100
00000000
00000101
00000000
00001100
00000000
00000001
00000100
,
00000010
00001000
00000001
00000000
00000110
00000000
00000100
00010000
,
00001000
01000000
00010000
00000000
10010000
00000000
01000000
00100000
,
10000000
00010000
01000000
00000000
11000000
00000000
00010000
00100000
,
01000000
00000000
10010000
00000000
00100000
01100000
00000000
00000000
,
00101000
00000000
00000000
00001100
00000000
00000000
00001000
00000100
,
00000001
00000010
00000100
00000000
00000001
00001000
00000000
00000100
,
00000010
00000000
00001000
00000100
00000000
00000001
00000100
00000000
,
00001001
00000110
00001000
00100000
,
01000000
00000000
00010000
00100000
01000000
10000000
00100000
00000000
,
01000000
00000000
00010000
10000000
01000000
00000000
10000000
00010000
,
10000000
00000000
10000000
01000000
00100000
00000000
00001000
00000000
,
00010000
00022000
00000000
00000000
,
00033000
01000000
00000000
00000000
02200000
00000000
00000000
00000000
00000000
00000000
00000000
00000000
00000000
00000000
00000000
00000000
,
00300000
03010000
00000000
00000000
00022000
00000000
00000000
00000000
00000000
00000000
00000000
00000000
00000000
00000000
00000000
00000000
,
00003000
00000000
00030100
00000000
00000000
00000000
00000000
00000000
00000220
00000000
00000000
00000000
00000000
00000000
00000000
00000000
00000000
00000000
00000000
00000000
00000000
00000000
00000000
00000000
00000000
00000000
00000000
00000000
00000300
00001030
00000000
00000000
,
00001000
00000000
00000000
00000000
00000000
00000000
00010000
00000000
00000000
00000000
00100000
00000000
01000000
00000000
00000000
00000000
10000000
00000000
00000000
00000000
00000000
00000000
00000000
00000000
00200000
00000000
00000000
00300000
00000000
00000000
02000000
00000000
00000000
03000000
00000000
00000000
00020000
00000000
00000000
00030000
00000000
00000000
20000000
00000000
00000000
30000000
00000000
00000000
,
00200000
00000000
00000000
02300000
00000000
00000000
03200000
00000000
00000000
00000000
10300000
00000000
02020000
00000000
00000000
00000000
,
03030000
00000000
00000000
00100000
00000000
00001000
00010000
00000000
00000100
00000000
00000000
00000000
00001000
00000000
00000000
00000100
00000000
00000000
00000001
00000000
00000000
00000010
00000000
00000000
,
00001000
00000000
00000000
00001001
00000000
00000000
00000220
00000000
00000000
00000300
00001030
00000000
00000202
00000000
00000000
00000300
,
00001003
00000000
00000000
00000000
00000000
00000000
00000010
00000000
00000000
00000000
00000100
00000000
00000010
00000000
00000000
00000000
00000000
00000000
00001000
00000000
00000000
00000000
00000000
00000000
00100000
00000000
00000000
00000000
00000000
00000000
00100000
00000000
00000000
01000000
00000000
00000000
00000000
00000000
00000000
10000000
00000000
00000000
01000000
00000000
00000000
00000000
00000000
00000000
,
00010000
00000000
00000000
10000000
00000000
00000000
02200000
00000000
00000000
03300000
10000000
00000000
20020000
00000000
00000000
30030000
,
00100000
00000000
00000000
01000000
00000000
00010000
01000000
00000000
00100000
10000000
00000000
00010000
01000000
00000000
00000000
00100000
00000000
00000000
10000000
00000000
00000000
01000000
00000000
00000000
,
00010000
00000000
00000000
00000100
00000000
00000000
00001001
00000000
00000000
00000000
00000010
00000000
00001100
00000000
00000000
00000000
,
00012000
00000000
00000100
00000000
00010000
00000010
00010000
00000010
,
00023000
00000000
00000100
00000000
01000000
00001000
00030200
00000000
,
00002300
00000000
00000100
00000000
01000000
00010000
00003200
00000000
,
00020300
00001000
01000000
00130000
,
01010000
00000000
01010000
00000000
01010000
00000000
00100000
01000000
,
11000000
00000000
11000000
00000000
11000000
00000000
00100000
01000000
,
01010000
01010000
00011000
00011000
,
00001100
00001100
00000101
00000101
,
00000011
00000000
00001010
00000000
00000001
00000100
00001000
00000000
,
00011000
00000000
00110000
00000000
00010000
00100000
10000000
00000000
,
01000000
01000000
01000000
00000000
00100000
00100000
00100000
00000000
,
10000000
00010000
01000000
00100000
00000010
00000001
00000010
00000100
,
00001000
00000100
00010000
00001000
00100000
00010000
01000000
00100000
,
10000000
01000000
00100000
00010000
00001000
00000000
00010000
00000100
,
00000000
00001000
00000010
00000000
00000100
00000001
00001000
00000000
,
00000010
00001000
00000100
00000000
00000001
00001000
00000010
00001000
,
00000100
00001000
00000100
00010000
00001000
01000000
00010000
01000000
,
00100000
01000000
00010000
10000000
01000000
00000000
00010000
00100000
,
00000000
10000000
01000000
00000000
00110000
00000000
11000000
00000000
,
20020000
00000000
30030000
00000000
01000000
10000000
01000000
00100000
,
00010000
00100000
00001000
00010000
00000100
00001000
00000010
00000100
,
00000001
00000010
00000100
00001000
00010000
00000000
00001000
00100000
,
00000000
00010000
01000000
00000000
00100000
10000000
00010000
00000000
,
01000000
00010000
00100000
00000000
10000000
00010000
01000000
00010000
,
00100000
00010000
00100000
00001000
00010000
00000010
00001000
00000010
,
00000100
00000010
00001000
00000001
00000010
00000000
00001000
00000100
,
00000000
00000001
00000010
00000000
00001100
00000000
00000000
00000011
,
00000000
00000000
00002000
00000000
00000200
00003000
00000000
00020000
,
00000000
00030000
00000002
00000000
00000003
00020000
00000000
00030000
,
00000002
00000000
00000303
00000000
00002000
00000000
00000000
00000100
,
00000000
00000000
00013000
00000000
00002000
00000000
00000000
01003000
,
00000000
00000000
00020000
00000000
00200000
00030000
00000000
00002000
,
00003000
00000000
20000000
30000000
00000000
00002000
00003000
00000000
,
20000000
00000000
00000000
00000000
30300000
00000000
00000000
00000000
01000000
00000000
00000000
00010000
00000000
00000000
00001000
00000000
,
00022000
00000000
00033000
00000000
00000000
00000000
00000000
00000000
00000000
00000000
00000000
00000000
;

//---------------dance-double - ----------------
#NOTES:
     dance-double:
     :
     Easy:
     7:
     0.272277,0.389674,0.121457,0.177514,0.004671,204.000000,191.000000,13.000000,19.000000,0.000000,0.000000,0.272277,0.389674,0.121457,0.177514,0.004671,204.000000,191.000000,13.000000,19.000000,0.000000,0.000000:
00000000
00000000
00000000
00000000
,
00000000
00000000
00000000
00000000
,
00100000
10000000
10000000
10000000
,
01000000
00010000
00010000
00010000
,
00100000
01000000
01000000
01000000
,
00010000
00001000
00001000
00001000
,
00000010
00000001
00000001
00000001
,
00000010
00001000
00001000
00001000
,
00000100
00001000
00010000
00100000
,
01000000
10000000
01000000
00100000
,
00010000
00000000
00001000
00000000
00000000
00010000
00000000
00000000
,
00001000
00000000
00000000
00010000
00000000
00000000
00000100
00000000
,
00000000
00000000
00000001
00000000
00000000
00001000
00000000
00000000
,
00000001
00000000
00000000
00001000
00000000
00000000
00000010
00000000
,
00000010
00000000
00001000
00000000
00000000
00000001
00000000
00000000
,
00001000
00000000
00000000
00000001
00000000
00000000
00000100
00000000
,
00010000
00000000
00001000
00000000
00000000
00010000
00000000
00000000
,
00001000
00000000
00000000
01000000
00000000
00000000
00100000
00000000
,
10000000
02000000
00000000
03000000
,
00000000
00002000
00000000
00003000
,
00000000
00020000
00000000
00030000
,
00000000
00000020
00000000
00000030
,
00000100
00001001
00000010
00001001
,
00000100
00010000
00001000
01000000
,
00100000
10010000
01000000
10010000
,
00001000
00010000
00000010
00000100
,
00000001
00000100
00001000
00000000
00000001
00000100
00001000
00000000
,
00000100
00000000
00001000
00000000
00100000
00010000
01000000
00000000
,
10000000
01000000
00010000
00000000
10000000
01000000
00010000
00000000
,
00100000
00000000
00001000
00000000
00010000
00000100
00000010
00000000
,
00001001
00000000
00000100
00000000
,
00000100
00000000
00000100
00000000
,
00010000
00000000
01000000
00000000
,
10000000
00000000
00100000
00000000
,
00010000
00000000
00010000
00000000
,
00000100
00000000
00000100
00000000
,
00000001
00000000
00000001
00000000
,
00000100
00000000
00000100
00000000
,
00010000
00100000
01000000
10000000
,
10000000
01000000
00100000
00010000
,
00001000
00000100
00000010
00000001
,
00002002
00003003
00000010
00001000
,
00001100
00000000
00010000
00001000
,
00010000
00000000
00001000
00000000
00010000
00000000
00000000
00001000
,
00000000
00000000
01000000
00000000
00000000
00100000
10000000
00000000
,
20020000
30030000
10000000
01000000
,
01100000
00000000
10000000
01000000
,
00010000
00000000
00001000
00000000
00000100
00000000
00000000
00000001
,
00000000
00000000
00001000
00000000
00000000
00000010
00000100
00000000
,
00002002
00003003
00000001
00000100
,
00001000
00000000
00000010
00010000
,
00001000
00000000
00010000
00000000
00001000
00000000
00000000
01000000
,
00000000
00000000
00100000
00000000
00000000
10000000
00010000
00000000
,
02200000
03300000
10000000
00010000
,
00110000
00000000
00100000
00001000
,
00010000
00000000
00000010
00000000
00000100
00000000
00000001
00001000
,
00000000
00000000
00001001
00000000
00000010
00000000
00001000
00000100
,
00000000
00010000
00000200
00000000
00020000
00000000
00000000
00000000
,
00000000
00000000
00000000
00000000
,
00000000
00000000
00030300
00000000
,
00000000
00000000
00000000
00000000
00002000
00000000
00000000
00203000
,
00000000
00000000
00020000
00300000
20000000
00000000
00000000
00000000
,
00000000
00000000
00000000
00000000
,
00000000
00000000
00000000
00000000
30030000
00000000
00000000
00000000
00100000
00000000
00000000
00100000
00000000
00000000
00100000
00000000
,
00200000
00000000
00300000
00000000
00000000
00000000
00000000
00000000
00000000
00000000
00000000
00000000
;

//---------------dance-single - ----------------
#NOTES:
     dance-single:
     :
     Easy:
     7:
     0.272277,0.389674,0.121457,0.177514,0.004671,204.000000,191.000000,13.000000,19.000000,0.000000,0.000000,0.272277,0.389674,0.121457,0.177514,0.004671,204.000000,191.000000,13.000000,19.000000,0.000000,0.000000:
0000
0000
0000
0000
,
0000
0000
0000
0000
,
0010
1000
1000
1000
,
0100
0001
0001
0001
,
0010
0100
0100
0100
,
0001
1000
1000
1000
,
0010
0001
0001
0001
,
0010
1000
1000
1000
,
0100
1000
0001
0010
,
0100
1000
0100
0010
,
0001
0000
1000
0000
0000
0001
0000
0000
,
1000
0000
0000
0001
0000
0000
0100
0000
,
0000
0000
0001
0000
0000
1000
0000
0000
,
0001
0000
0000
1000
0000
0000
0010
0000
,
0010
0000
1000
0000
0000
0001
0000
0000
,
1000
0000
0000
0001
0000
0000
0100
0000
,
0001
0000
1000
0000
0000
0001
0000
0000
,
1000
0000
0000
0100
0000
0000
0010
0000
,
1000
0200
0000
0300
,
0000
2000
0000
3000
,
0000
0002
0000
0003
,
0000
0020
0000
0030
,
0100
1001
0010
1001
,
0100
0001
1000
0100
,
0010
1001
0100
1001
,
1000
0001
0010
0100
,
0001
0100
1000
0000
0001
0100
1000
0000
,
0100
0000
1000
0000
0010
0001
0100
0000
,
1000
0100
0001
0000
1000
0100
0001
0000
,
0010
0000
1000
0000
0001
0100
0010
0000
,
1001
0000
0100
0000
,
0100
0000
0100
0000
,
0001
0000
0100
0000
,
1000
0000
0010
0000
,
0001
0000
0001
0000
,
0100
0000
0100
0000
,
1000
0000
1000
0000
,
0100
0000
0100
0000
,
0001
0010
0100
1000
,
1000
0100
0010
0001
,
0001
0010
0100
1000
,
2002
3003
0010
0001
,
0101
0000
0001
1000
,
0001
0000
1000
0000
0001
0000
0000
1000
,
0000
0000
0100
0000
0000
0010
1000
0000
,
2002
3003
1000
0100
,
0110
0000
1000
0100
,
0001
0000
0100
0000
1000
0000
0000
0001
,
0000
0000
1000
0000
0000
0010
0100
0000
,
2002
3003
1000
0100
,
0001
0000
1000
0001
,
1000
0000
0001
0000
1000
0000
0000
0100
,
0000
0000
0010
0000
0000
1000
0001
0000
,
0220
0330
1000
0001
,
0011
0000
0010
1000
,
0001
0000
0100
0000
0010
0000
1000
0001
,
0000
0000
1001
0000
0010
0000
0001
0100
,
0000
0001
2000
0000
0002
0000
0000
0000
,
0000
0000
0000
0000
,
0000
0000
3003
0000
,
0000
0000
0000
0000
0200
0000
0000
0320
,
0000
0000
0002
0030
2000
0000
0000
0000
,
0000
0000
0000
0000
,
0000
0000
0000
0000
3003
0000
0000
0000
0010
0000
0000
0010
0000
0000
0010
0000
,
0020
0000
0030
0000
0000
0000
0000
0000
0000
0000
0000
0000
;

//---------------dance-single - ----------------
#NOTES:
     dance-single:
     :
     Beginner:
     3:
     0.136138,0.209824,0.037371,0.065400,0.000000,102.000000,98.000000,4.000000,7.000000,0.000000,0.000000,0.136138,0.209824,0.037371,0.065400,0.000000,102.000000,98.000000,4.000000,7.000000,0.000000,0.000000:
// measure 0
0000
0000
0000
0000
,  // measure 1
0000
0000
0000
0000
,  // measure 2
0000
0000
0000
0000
,  // measure 3
0000
1000
0000
0000
,  // measure 4
0000
0010
0000
0000
,  // measure 5
0000
0100
0000
0000
,  // measure 6
0000
0001
0000
0000
,  // measure 7
0000
0100
0000
0000
,  // measure 8
0000
0010
0000
0000
,  // measure 9
0000
1000
0000
0000
,  // measure 10
0000
0010
0000
0010
,  // measure 11
0000
0010
0000
0000
,  // measure 12
0000
0100
0000
0100
,  // measure 13
0000
0100
0000
0000
,  // measure 14
0000
0001
0000
0001
,  // measure 15
0000
1000
0000
1000
,  // measure 16
0000
0001
0000
0001
,  // measure 17
0000
1000
0000
0000
,  // measure 18
0000
0020
0000
0030
,  // measure 19
0000
0200
0000
0300
,  // measure 20
0000
0020
0000
0030
,  // measure 21
0000
0200
0000
0300
,  // measure 22
0000
0100
0000
0100
,  // measure 23
0000
0001
0000
0001
,  // measure 24
0000
1000
0000
1000
,  // measure 25
0000
0001
0000
0001
,  // measure 26
0000
0010
0000
0010
,  // measure 27
0000
1000
0000
1000
,  // measure 28
0000
0001
0000
0001
,  // measure 29
0000
1000
0000
1000
,  // measure 30
1000
0000
0001
0000
,  // measure 31
1000
0000
0001
0000
,  // measure 32
0100
0000
0010
0000
,  // measure 33
0100
0000
0010
0000
,  // measure 34
1001
0000
0000
0000
,  // measure 35
1001
0000
0000
0000
,  // measure 36
1001
0000
0000
0000
,  // measure 37
1001
0000
0000
0000
,  // measure 38
0010
0000
0010
0000
,  // measure 39
0010
0000
0010
0000
,  // measure 40
0010
0010
0010
0010
,  // measure 41
0010
0000
0100
0000
,  // measure 42
0000
0000
0100
0000
,  // measure 43
0010
0000
1000
0000
,  // measure 44
0000
0001
0000
1000
,  // measure 45
1000
0000
0010
0000
,  // measure 46
0000
0000
0100
0000
,  // measure 47
0010
0000
1000
0000
,  // measure 48
0000
0001
0000
1000
,  // measure 49
1000
0000
0010
0000
,  // measure 50
1000
0000
0001
0001
,  // measure 51
0001
0000
0100
0000
,  // measure 52
0000
0010
0000
1000
,  // measure 53
1000
0000
0001
0000
,  // measure 54
0100
0000
0010
0010
,  // measure 55
0010
0000
1000
0000
,  // measure 56
0001
0000
1000
0000
,  // measure 57
0000
0001
0002
0000
,  // measure 58
0000
0000
0000
0000
,  // measure 59
0000
0000
0003
0000
,  // measure 60
0000
0000
0010
0000
,  // measure 61
0000
0100
0200
0000
,  // measure 62
0000
0000
0000
0000
,  // measure 63
0300
0000
0000
0000
,  // measure 64
0200
0000
0300
0000
0000
0000
0000
0000
0000
0000
0000
0000
;
