#TITLE:NO LIMIT -オレ達に限界はない-;
#SUBTITLE:;
#ARTIST:SUPER STAR 満-MITSURU- vs. 伝説のダンサー マイク;
#TITLETRANSLIT:NO LIMIT -oretachi ni genkai wanai-;
#SUBTITLETRANSLIT:;
#ARTISTTRANSLIT:SUPER STAR MITSURU vs. LEGEND DANCER MIKE;
#GENRE:;
#CREDIT:;
#MENUCOLOR:;
#METERTYPE:DDR;
#BANNER:NO LIMIT -oretachi ni genkai wanai-.png;
#BACKGROUND:NO LIMIT -oretachi ni genkai wanai--jacket.png;
#LYRICSPATH:;
#CDTITLE:;
#MUSIC:NO LIMIT -oretachi ni genkai wanai-.ogg;
#OFFSET:-0.162;
#SAMPLESTART:64.180;
#SAMPLELENGTH:12.960;
#SELECTABLE:YES;
#LISTSORT:;
#BPMS:0.000=150.000;
#STOPS:;
#BGCHANGES:0.000=NO LIMIT -oretachi ni genkai wanai-.avi=1.000=1=0=1,
294.000=black.png=1.000=0=0=1,
99999=-nosongbg-=1.000=0=0=0 // don't automatically add -songbackground-
;
#ATTACKS:;

//---------------dance-double - ----------------
#NOTES:
     dance-double:
     :
     Hard:
     13:
     0.692,0.755,1.000,0.344,0.243:
00000000
00000000
00000000
00000000
,
00000000
00000000
00000000
00000000
,
00000000
00000000
00000000
00000000
,
00000000
00000000
00000000
00000000
,
00101000
00101000
00010100
00010100
,
00011000
00011000
00001010
00001010
,
00000001
00001000
00000001
00001000
00000001
00001000
00000001
00001000
,
00000020
00000100
00000100
00000130
,
00001000
00000000
00001010
00000000
00000000
00000000
00000100
00000000
00001100
00000000
00000000
00001100
00000000
00000000
00000100
00000000
,
00000001
00000000
00000000
00000101
00000000
00000000
00000101
00000000
00000000
00000000
00000100
00000000
00000010
00000000
00001000
00000000
,
00000000
00000000
00011000
00000000
00000000
00000000
00010000
00000000
00110000
00000000
00000000
00110000
00000000
00000000
01000000
00000000
,
00100000
00000000
00000000
10100000
00000000
00000000
10100000
00000000
00000000
00000000
01000000
00000000
00010000
00000000
10000000
00000000
,
00000000
00000000
01100000
00000000
00000000
00000000
10000000
00000000
10010000
00000000
00000000
10010000
00000000
00000000
00100000
00000000
,
00001000
00000000
00000000
00011000
00000000
00000000
00011000
00000000
00000000
00000000
00010000
00000000
00000100
00000000
00001000
00000000
,
00000000
00000000
00001100
00000000
00000000
00000000
00000010
00000000
00000011
00000000
00000000
00000011
00000000
00000000
00000100
00000000
,
00001000
00000000
00000000
00001100
00000000
00000000
00001100
00000000
00000000
00000000
00000100
00000000
00010000
00000000
00011000
00000000
,
00001000
00000000
00100000
00000000
00010000
00000000
00100000
00000000
00101000
00000000
00000000
00110000
00000000
00000000
00100000
00000000
,
00001000
00000000
00000000
00011000
00000000
00000000
00011000
00000000
00000000
00000000
00000100
00000000
00010000
00000000
00001000
00000000
,
00010000
00000000
00000010
00000000
00001000
00000000
00000010
00000000
00001010
00000000
00000000
00001010
00000000
00000000
00000100
00000000
,
00000010
00000000
00000000
00000101
00000000
00000000
00000101
00000000
00000000
00000000
00000001
00000000
00000100
00000000
00001000
00000000
,
00000100
00000000
00010000
00000000
00000100
00000000
00010000
00000000
00011000
00000000
00000000
00011000
00000000
00000000
00100000
00000000
,
00010000
00000000
00000000
01010000
00000000
00000000
01010000
00000000
00000000
00000000
00100000
00000000
00010000
00000000
01000000
00000000
,
00100000
00000000
10000000
00000000
00100000
00000000
10000000
00000000
00100000
00000000
00000000
01100000
00000000
00000000
01000000
00000000
,
00010000
00100000
00001000
00100000
00001000
00010000
00001000
00010000
,
00000100
00001000
00000100
00001000
00000200
00000000
00010300
00000000
,
00002000
00000000
00000000
00100000
00203000
00000000
00310000
00000000
,
00001000
00100000
00010000
00100000
00002000
00000000
02003000
00000000
,
03200000
00000000
00000000
10300000
20000000
00000000
30020000
00000000
,
00130000
00001000
00010000
00001000
00200000
00000000
00301000
00000000
,
00020000
00000000
00000000
00000100
00030200
00000000
00001300
00000000
,
00000010
00000100
00000001
00000100
00000010
00000000
00001000
00000000
,
00000200
00010000
00000000
00010000
00020300
00000000
00031000
00000000
,
00001100
00011000
00001100
00011000
,
00110000
00011000
00110000
00011000
,
01100000
10010000
01100000
10010000
,
01010000
00010100
01010000
00010100
,
00010000
00001000
00010000
00001000
00010000
00000100
00010000
00000100
,
00001000
00000010
00001000
00000010
00001000
00000001
00001000
00000001
,
00001000
00000010
00001000
00000000
00000010
00001000
00000010
00000000
00001000
00000010
00001000
00000000
00000010
00001000
00000010
00000000
,
00000200
00000000
00000000
00010300
,
00011000
00000000
00000000
00000000
00011000
00000000
00011000
00000000
00011000
00000000
00000000
00011000
00000000
00000000
00011000
00000000
,
00000000
00000000
00101000
00000000
00100000
00010000
00100000
00000000
01100000
00000000
00000000
20020000
00000000
00000000
30030000
00000000
,
11000000
00000000
00000000
00000000
01100000
00000000
01100000
00000000
01100000
00000000
00000000
01100000
00000000
00000000
01100000
00000000
,
00000000
00000000
10010000
00000000
10000000
00010000
10000000
00000000
01000000
00000000
00000000
00110000
00000000
00000000
00100000
00000000
,
00110000
00000000
00000000
00000000
00011000
00000000
00011000
00000000
00011000
00000000
00000000
00010100
00000000
00000000
00010100
00000000
,
00000000
00000000
00001100
00000000
00000100
00001000
00000100
00000000
00001000
00000000
00000000
00002020
00000000
00000000
00003030
00000000
,
00000101
00000000
00000000
00000000
00000110
00000000
00000110
00000000
00000110
00000000
00000000
00001010
00000000
00000000
00001010
00000000
,
00000000
00000000
00010100
00000000
00000100
00010000
00000100
00000000
00020000
00000000
00002000
00000000
00033000
00000000
00000000
00000000
,
00110000
00000000
00000000
00000000
01010000
00000000
01010000
00000000
02010000
00000000
00000000
00100000
00000000
00000000
03010000
00000000
,
00000000
00000000
10100000
00000000
00010000
01000000
00010000
00000000
01100000
00000000
00000000
01010000
00000000
00000000
00100000
00001000
,
00100000
00000000
00000000
00000000
00101000
00000000
00101000
00000000
00201000
00000000
00000000
00010000
00000000
00000000
00301000
00000000
,
00000000
00000000
00010100
00000000
00001000
00000010
00001000
00000000
00001001
00000000
00000000
00000110
00000000
00000000
00001000
00000010
,
00001000
00000000
00000000
00000000
00010100
00000000
00010100
00000000
00010200
00000000
00000000
00010000
00000000
00000000
00001300
00000000
,
00000000
00000000
00101000
00000000
00100000
00001000
00100000
00000000
00110000
00000000
00000000
00110000
00000000
00000000
00100000
00001000
,
00010000
00000000
00000000
00000000
00011000
00000000
00010100
00000000
00010100
00000000
00000000
00001100
00000000
00000000
00000110
00000000
,
00000000
00000000
00000000
00000000
00000000
00000000
00000001
00000000
00000000
00001000
00000000
00000000
00000010
00000000
00000000
00000000
00000100
00000000
00000000
00000000
00000001
00000000
00000000
00000000
00001000
00000000
00000000
00000000
00000100
00000000
00000000
00000000
00000010
00000000
00000000
00000000
00010000
00000000
00000000
00000000
00000100
00000000
00000000
00000000
00100000
00000000
00000000
00000000
,
00001000
00010000
00001000
00010000
00002000
00000000
00103000
00000000
,
00020000
00000000
00000000
01000000
02030000
00000000
03100000
00000000
,
10000000
01000000
00100000
00010000
02000000
00000000
03200000
00000000
,
20300000
00000000
00000000
01000000
32000000
00000000
03002000
00000000
,
00013000
00000100
00010000
00001000
00020000
00000000
00031000
00000000
,
00000020
00000000
00000000
00001000
00002030
00000000
00003100
00000000
,
00000100
00010000
00000100
00010000
00000200
00000000
00020300
00000000
,
00032000
00100000
00000000
00100000
00203000
00000000
00310000
00000000
,
00011000
00000000
00000000
00000000
00101000
00000000
00000000
00000000
00011000
00000000
00000000
00100000
00001000
00000000
00100000
00000000
,
00001000
00000000
00000000
00000000
01001000
00000000
00000000
00000000
01010000
00000000
00000000
00010000
01000000
00000000
00010000
00000000
,
01010000
00000000
00000000
00000000
01100000
00000000
00000000
00000000
10100000
00000000
00000000
00100000
10000000
00000000
01000000
00000000
,
01100000
00000000
00000000
00000000
01010000
00000000
00000000
00000000
00101000
00000000
00000000
00010000
00001000
00000000
00010000
00000000
,
00000100
00001000
00000100
00001000
00000010
00001000
00000010
00001000
,
00000001
00001000
00000001
00001000
00000001
00000100
00000001
00000100
,
00000010
00000100
00000010
00000000
00000100
00000010
00000100
00000000
00000010
00000100
00000010
00000000
00000100
00000010
00000100
00000000
,
00022000
00000000
00000000
00033000
,
00011000
00000000
00000000
00000000
;

//---------------dance-single - ----------------
#NOTES:
     dance-single:
     :
     Hard:
     13:
     0.697,0.755,1.000,0.344,0.243: // measure 1
0000
0000
0000
0000
,  // measure 2
0000
0000
0000
0000
,  // measure 3
0000
0000
0000
0000
,  // measure 4
0000
0000
0000
0000
,  // measure 5
0110
0110
1001
1001
,  // measure 6
1010
1010
0101
0101
,  // measure 7
0001
1000
0001
1000
0001
1000
0001
1000
,  // measure 8
0020
0100
0100
0130
,  // measure 9
1000
0000
1001
0000
0000
0000
0010
0000
0110
0000
0000
0110
0000
0000
0110
0000
,  // measure 10
0010
0000
0000
0011
0000
0000
0011
0000
0000
0000
0001
0000
1000
0000
0100
0000
,  // measure 11
0000
0000
0110
0000
0000
0000
0010
0000
1010
0000
0000
1010
0000
0000
1010
0000
,  // measure 12
1000
0000
0000
1100
0000
0000
1100
0000
0000
0000
0001
0000
0010
0000
0100
0000
,  // measure 13
0000
0000
1001
0000
0000
0000
0100
0000
0110
0000
0000
0110
0000
0000
0100
0000
,  // measure 14
0100
0000
0000
1100
0000
0000
1100
0000
0000
0000
0010
0000
0001
0000
0100
0000
,  // measure 15
0000
0000
0101
0000
0000
0000
1000
0000
1010
0000
0000
1010
0000
0000
1010
0000
,  // measure 16
0010
0000
0000
0011
0000
0000
0011
0000
0000
0000
0100
0000
0010
0000
0110
0000
,  // measure 17
0100
0000
1000
0000
0010
0000
1000
0000
1100
0000
0000
1010
0000
0000
1000
0000
,  // measure 18
0100
0000
0000
0110
0000
0000
0110
0000
0000
0000
0001
0000
0010
0000
0100
0000
,  // measure 19
0010
0000
1000
0000
0100
0000
1000
0000
1100
0000
0000
1100
0000
0000
0001
0000
,  // measure 20
1000
0000
0000
0011
0000
0000
0011
0000
0000
0000
0010
0000
0001
0000
0100
0000
,  // measure 21
0001
0000
0010
0000
0001
0000
0010
0000
0110
0000
0000
0110
0000
0000
1000
0000
,  // measure 22
0010
0000
0000
0011
0000
0000
0011
0000
0000
0000
1000
0000
0010
0000
0001
0000
,  // measure 23
1000
0000
0100
0000
1000
0000
0100
0000
1000
0000
0000
1001
0000
0000
0001
0000
,  // measure 24
0010
1000
0100
1000
0100
0010
0100
0010
,  // measure 25
0001
0100
0001
0100
0002
0000
0013
0000
,  // measure 26
0200
0000
0000
1000
2300
0000
3010
0000
,  // measure 27
0001
0100
1000
0100
0002
0000
0023
0000
,  // measure 28
0230
0000
0000
0301
0002
0000
2003
0000
,  // measure 29
3100
0001
1000
0001
0200
0000
0301
0000
,  // measure 30
2000
0000
0000
0010
3020
0000
0031
0000
,  // measure 31
0100
0010
1000
0010
0100
0000
0001
0000
,  // measure 32
0020
1000
0000
1000
2030
0000
3001
0000
,  // measure 33
0001
1000
1001
0000
0001
1000
1001
0000
,  // measure 34
1000
0001
1001
0000
1000
0001
1001
0000
,  // measure 35
0100
0010
0110
0000
0100
0010
0110
0000
,  // measure 36
0010
0100
0110
0000
0010
0100
0110
0000
,  // measure 37
1000
0001
1000
0001
0100
0010
0100
0010
,  // measure 38
0001
1000
0001
1000
0010
0100
0010
0100
,  // measure 39
0010
0100
0010
0000
0100
0010
0100
0000
0001
1000
0001
0000
1000
0001
1000
0000
,  // measure 40
0020
0000
0000
1030
,  // measure 41
1001
0000
0000
0000
1001
0000
1001
0000
1001
0000
0000
1001
0000
0000
1001
0000
,  // measure 42
0000
0000
0101
0000
0100
0001
0100
0000
0101
0000
0000
2002
0000
0000
3003
0000
,  // measure 43
1001
0000
0000
0000
0110
0000
0110
0000
0110
0000
0000
0110
0000
0000
0110
0000
,  // measure 44
0000
0000
1001
0000
0001
1000
0001
0000
1000
0000
0000
1100
0000
0000
0100
0000
,  // measure 45
1100
0000
0000
0000
1001
0000
1001
0000
1001
0000
0000
0110
0000
0000
0110
0000
,  // measure 46
0000
0000
0011
0000
0010
0001
0010
0000
0001
0000
0000
0202
0000
0000
0303
0000
,  // measure 47
1010
0000
0000
0000
0110
0000
0110
0000
0110
0000
0000
0101
0000
0000
0101
0000
,  // measure 48
0000
0000
1010
0000
0010
1000
0010
0000
2000
0000
0002
0000
3003
0000
0000
0000
,  // measure 49
1100
0000
0000
0000
1010
0000
1010
0000
1020
0000
0000
0100
0000
0000
1030
0000
,  // measure 50
0000
0000
0101
0000
1000
0010
1000
0000
0110
0000
0000
1010
0000
0000
0100
0001
,  // measure 51
0100
0000
0000
0000
0101
0000
0101
0000
0201
0000
0000
1000
0000
0000
0301
0000
,  // measure 52
0000
0000
1010
0000
0001
0100
0001
0000
1001
0000
0010
0000
0100
0001
0100
0001
,  // measure 53
0100
0000
0000
0000
1010
0000
1010
0000
1020
0000
0000
1000
0000
0000
0031
0000
,  // measure 54
0000
0000
0101
0000
0100
0001
0100
0000
1100
0000
0000
1100
0000
0000
0100
0001
,  // measure 55
1000
0000
0000
0000
1001
0000
1010
0000
1010
0000
0000
0011
0000
0000
0110
0000
,  // measure 56
0000
0000
0000
0000
0000
0000
1000
0000
0000
0001
0000
0000
0100
0000
0000
0000
0010
0000
0000
0000
1000
0000
0000
0000
0001
0000
0000
0000
0010
0000
0000
0000
0100
0000
0000
0000
1000
0000
0000
0000
0010
0000
0000
0000
0100
0000
0000
0000
,  // measure 57
0001
1000
0001
1000
0002
0000
0103
0000
,  // measure 58
2000
0000
0000
0010
3020
0000
0130
0000
,  // measure 59
0001
0010
0100
1000
0020
0000
0230
0000
,  // measure 60
0302
0000
0000
0010
0023
0000
0032
0000
,  // measure 61
1003
0010
1000
0001
2000
0000
3001
0000
,  // measure 62
0200
0000
0000
0001
0302
0000
0013
0000
,  // measure 63
0010
1000
0010
1000
0020
0000
2030
0000
,  // measure 64
3002
0100
0000
0100
0203
0000
1300
0000
,  // measure 65
1001
0000
0000
0000
0101
0000
0000
0000
1001
0000
0000
0100
0001
0000
0100
0000
,  // measure 66
0001
0000
0000
0000
0011
0000
0000
0000
1010
0000
0000
1000
0010
0000
1000
0000
,  // measure 67
1010
0000
0000
0000
0110
0000
0000
0000
0101
0000
0000
0100
0001
0000
0010
0000
,  // measure 68
0110
0000
0000
0000
1010
0000
0000
0000
0101
0000
0000
1000
0001
0000
1000
0000
,  // measure 69
0010
0001
0010
0001
0100
0001
0100
0001
,  // measure 70
1000
0001
1000
0001
1000
0010
1000
0010
,  // measure 71
0100
0010
0100
0000
0010
0100
0010
0000
0100
0010
0100
0000
0010
0100
0010
0000
,  // measure 72
2002
0000
0000
3003
,  // measure 73
1001
0000
0000
0000
;

//---------------dance-double - ----------------
#NOTES:
     dance-double:
     :
     Medium:
     10:
     0.416,0.453,0.117,0.269,0.113:
00000000
00000000
00000000
00000000
,
00000000
00000000
00000000
00000000
,
00000000
00000000
00000000
00000000
,
00000000
00000000
00000000
00000000
,
00100000
00100000
00010000
00010000
,
01000000
01000000
10000000
10000000
,
00100000
00100000
00001000
00001000
,
00022000
00000000
00000000
00033000
,
00000000
00000000
00001001
00000000
00000000
00000000
00000001
00000000
00001000
00000000
00000000
00000001
00000000
00000000
00001000
00000000
,
00000001
00000000
00000000
00001000
00000000
00000000
00000001
00000000
00000000
00000000
00000100
00000000
00000010
00000000
00000100
00000000
,
00000000
00000000
00000110
00000000
00000000
00000000
00000010
00000000
00001000
00000000
00000000
00000010
00000000
00000000
00001000
00000000
,
00000100
00000000
00000000
00010000
00000000
00000000
00000100
00000000
00000000
00000000
00010000
00000000
00001000
00000000
00010000
00000000
,
00000000
00000000
00001000
00000000
00000000
00000000
00100000
00000000
00010000
00000000
00000000
00100000
00000000
00000000
00010000
00000000
,
01000000
00000000
00000000
00010000
00000000
00000000
01000000
00000000
00000000
00000000
00100000
00000000
01000000
00000000
00100000
00000000
,
00000000
00000000
10010000
00000000
00000000
00000000
00010000
00000000
10000000
00000000
00000000
00010000
00000000
00000000
10000000
00000000
,
00100000
00000000
00000000
01000000
00000000
00000000
00100000
00000000
00000000
00000000
01000000
00000000
00010000
00000000
01000000
00000000
,
00100000
00000000
01000000
00000000
00000000
00000000
00001000
00000000
00100000
00000000
00000000
00001000
00000000
00000000
00100000
00000000
,
00001000
00000000
00000000
00010000
00000000
00000000
00001000
00000000
00000000
00000000
00010000
00000000
00010000
00000000
00010000
00000000
,
00000000
00000000
00000010
00000000
00000000
00000000
00001000
00000000
00000010
00000000
00000000
00001000
00000000
00000000
00000010
00000000
,
00000100
00000000
00000000
00000001
00000000
00000000
00000100
00000000
00000000
00000000
00000010
00000000
00000010
00000000
00000010
00000000
,
00000000
00000000
00001000
00000000
00000000
00000000
00000100
00000000
00010000
00000000
00000000
00000100
00000000
00000000
00010000
00000000
,
00001000
00000000
00000000
00010000
00000000
00000000
00001000
00000000
00000000
00000000
00100000
00000000
00100000
00000000
00100000
00000000
,
00000000
01000000
00000000
00010000
00000000
01000000
00000000
00020000
,
00200000
00000000
00000000
00330000
,
00001000
00010000
00002000
00003000
,
00020000
00000000
00000000
00000100
00030200
00000000
00000300
00000000
,
00001000
00000010
00001000
00000010
,
00000200
00000000
00000000
00000010
00000020
00000000
00000330
00000000
,
00000001
00000100
00000002
00000003
,
00002000
00000000
00000000
00000100
00000200
00000000
00003300
00000000
,
00000100
00010000
00001000
00010000
,
00002000
00000000
00000000
00100000
00200000
00000000
00303000
00000000
,
00010000
00100000
00010000
00100000
,
00001000
00010000
00001000
00010000
,
00000100
00001000
00100000
00010000
,
00000100
00000010
00000001
00000100
,
00001000
00001000
00010000
00010000
,
01000000
01000000
10000000
10000000
,
00100000
00010000
00100000
00000000
00010000
00100000
00010000
00000000
,
20020000
00000000
00000000
30030000
,
01100000
00000000
00000000
00000000
01100000
00000000
00000000
00000000
01000000
00000000
00000000
01000000
00000000
00000000
01000000
00000000
,
00000000
00000000
00100000
00000000
10000000
00000000
00000000
00000000
00100000
00000000
00000000
00100000
00000000
00000000
00100000
00000000
,
00010000
00000000
00000000
00000000
00100000
00000000
00000000
00000000
00001000
00000000
00000000
00001000
00000000
00000000
00001000
00000000
,
00000000
00000000
00010000
00000000
00001000
00000000
00010000
00000000
00001000
00000000
00000000
00001000
00000000
00000000
00010000
00000000
,
00000100
00000000
00000000
00000000
00001000
00000000
00000000
00000000
00000010
00000000
00000000
00000010
00000000
00000000
00000010
00000000
,
00000000
00000000
00000100
00000000
00000010
00000000
00000100
00000000
00000010
00000000
00000000
00000010
00000000
00000000
00000010
00000000
,
00000100
00000000
00000000
00000000
00001001
00000000
00000000
00000000
00001000
00000000
00000000
00001000
00000000
00000000
00001000
00000000
,
00000000
00000100
00010000
00000100
00020000
00000000
00030000
00000000
,
00011000
00000000
00000000
00000000
00010000
00000000
00001000
00000000
00010000
00000000
00000000
00010000
00000000
00000000
00011000
00000000
,
00000000
00000000
00001000
00000000
00100000
00000000
00001000
00000000
00100000
00000000
00000000
00100000
00000000
00000000
00100000
00000000
,
00010000
00000000
00000000
00000000
01000000
00000000
00100000
00000000
01000000
00000000
00000000
01000000
00000000
00000000
01000000
00000000
,
00000000
00100000
10000000
00100000
10000000
00100000
01000000
01000000
,
01000000
00000000
00000000
00000000
00010000
00000000
00010000
00000000
00010000
00000000
00000000
00010000
00000000
00000000
00010000
00000000
,
00000000
00000000
00001000
00000000
00010000
00000000
00001000
00000000
00010000
00000000
00000000
00010000
00000000
00000000
00001000
00000000
,
00010000
00000000
00000000
00000000
00000100
00000000
00000010
00000000
00000100
00000000
00000000
00000010
00000000
00000000
00000100
00000000
,
00000000
00000010
00002000
00000000
00003020
00000000
00000230
00000000
,
00000301
00000010
00002000
00003000
,
00000200
00000000
00000000
00010000
00020300
00000000
00030000
00000000
,
00001000
00100000
00010000
01000000
,
00200000
00000000
00000000
10000000
20300000
00000000
30000000
00000000
,
01000000
00010000
00200000
00300000
,
00002000
00000000
00000000
00010000
00020000
00000000
00033000
00000000
,
00000100
00001000
00000010
00000001
,
00000200
00000010
00000000
00000000
00000020
00000000
00000330
00000000
,
00000010
00000001
00000100
00001001
,
00000010
00010000
00000100
00011000
,
00100000
00001000
00100000
00010000
,
01000000
10000000
00100000
10010000
,
01000000
01000000
00010000
00010000
,
00100000
00100000
00001000
00001000
,
00010000
00001000
00010000
00001000
00010000
00001000
00010000
00002000
,
00020000
00000000
00000000
00033000
,
00011000
00000000
00000000
00000000
;

//---------------dance-double - ----------------
#NOTES:
     dance-double:
     :
     Easy:
     7:
     0.340,0.423,0.134,0.252,0.122:
00000000
00000000
00000000
00000000
,
00000000
00000000
00000000
00000000
,
00000000
00000000
00000000
00000000
,
00000000
00000000
00000000
00000000
,
00100000
00100000
00100000
00100000
,
00001000
00001000
00001000
00001000
,
00010000
00001000
00010000
00001000
,
00022000
00000000
00000000
00033000
,
00001000
00000000
00000000
00000000
00001000
00000000
00000000
00000000
00001000
00000000
00000000
00001000
00000000
00000000
00000000
00000000
,
00010000
00000000
00000000
00010000
00000000
00000000
00010000
00000000
00000000
00000000
00000000
00000000
00011000
00000000
00000000
00000000
,
00000000
00000000
00000000
00000000
00100000
00000000
00000000
00000000
00100000
00000000
00000000
00100000
00000000
00000000
00000000
00000000
,
01000000
00000000
00000000
01000000
00000000
00000000
01000000
00000000
00000000
00000000
00000000
00000000
10010000
00000000
00000000
00000000
,
00000000
00000000
00000000
00000000
00100000
00000000
00000000
00000000
00001000
00000000
00000000
00001000
00000000
00000000
00000000
00000000
,
00010000
00000000
00000000
00010000
00000000
00000000
00010000
00000000
00000000
00000000
00000000
00000000
00011000
00000000
00000000
00000000
,
00000000
00000000
00000000
00000000
00001100
00000000
00000000
00000000
00001000
00000000
00000000
00001000
00000000
00000000
00000000
00000000
,
00001000
00010000
00001000
00010000
,
00001000
00000000
00000000
00000000
00001000
00000000
00000000
00000000
00000100
00000000
00000000
00000100
00000000
00000000
00000000
00000000
,
00000010
00000000
00000000
00000010
00000000
00000000
00000010
00000000
00000000
00000000
00000000
00000000
00000001
00000000
00000000
00000000
,
00000000
00000000
00001000
00000000
00000000
00000000
00000000
00000000
00000001
00000000
00000000
00000001
00000000
00000000
00000000
00000000
,
00000100
00000000
00000000
00000100
00000000
00000000
00000100
00000000
00000000
00000000
00000000
00000000
00001000
00000000
00000000
00000000
,
00000000
00000000
00010000
00000000
00000000
00000000
00000000
00000000
01000000
00000000
00000000
01000000
00000000
00000000
00000000
00000000
,
00100000
00000000
00000000
00100000
00000000
00000000
00100000
00000000
00000000
00000000
00000000
00000000
01000000
00000000
00000000
00000000
,
00000000
00000000
00010000
00000000
00000000
00000000
00000000
00000000
00001000
00000000
00000000
00001000
00000000
00000000
00000000
00000000
,
00010000
00010000
00010000
00010000
,
00000100
00001000
00000020
00000030
,
00000002
00000003
00002000
00003000
,
00000010
00001000
00000100
00000000
,
00020000
00030000
00002000
00003000
,
00100000
00010000
01000000
00000000
,
20000000
30000000
00200000
00300000
,
00010000
01000000
00100000
00000000
,
00020000
00030000
00002000
00003000
,
00010000
00010000
00010000
00010000
,
00000100
00000100
00000100
00000100
,
00001000
00001000
00001000
00001000
,
00000010
00000010
00000010
00000010
,
00000001
00000100
00000001
00000100
,
00010000
00000100
00010000
00000100
,
00100000
00010000
00100000
00010000
,
20020000
00000000
00000000
30030000
,
01000000
00000000
00000000
00000000
01000000
00000000
00000000
00000000
01000000
00000000
00000000
01000000
00000000
00000000
01000000
00000000
,
00000000
00000000
00100000
00000000
00000000
00000000
00000000
00000000
00100000
00000000
00000000
00100000
00000000
00000000
00000000
00000000
,
00001000
00000000
00000000
00000000
00001000
00000000
00000000
00000000
00001000
00000000
00000000
00001000
00000000
00000000
00001000
00000000
,
00000000
00000000
00010000
00000000
00000000
00000000
00000000
00000000
00010000
00000000
00000000
00010000
00000000
00000000
00000000
00000000
,
00000010
00000000
00000000
00000000
00000010
00000000
00000000
00000000
00000001
00000000
00000000
00000001
00000000
00000000
00000001
00000000
,
00000000
00000000
00000100
00000000
00000000
00000000
00000000
00000000
00000100
00000000
00000000
00000100
00000000
00000000
00000000
00000000
,
00001000
00000000
00000000
00000000
00001000
00000000
00000000
00000000
00010000
00000000
00000000
00010000
00000000
00000000
00010000
00000000
,
00000000
00000000
00001000
00000000
00000000
00000000
00000000
00000000
00100000
00000000
00000000
00100000
00000000
00000000
00000000
00000000
,
10010000
00000000
00000000
00000000
01000000
00000000
00000000
00000000
00100000
00000000
00000000
00100000
00000000
00000000
00100000
00000000
,
00000000
00000000
01000000
00000000
00000000
00000000
00010000
00000000
00010000
00000000
00000000
00010000
00000000
00000000
00000000
00000000
,
00001000
00000000
00000000
00000000
00011000
00000000
00000000
00000000
00000100
00000000
00000000
00000100
00000000
00000000
00000100
00000000
,
00000000
00000000
00010000
00000000
00000000
00000000
00001000
00000000
00010000
00000000
00000000
00010000
00000000
00000000
00000000
00000000
,
00000100
00000000
00000000
00000000
00001001
00000000
00000000
00000000
00000010
00000000
00000000
00000010
00000000
00000000
00000010
00000000
,
00000000
00000000
00000100
00000000
00000000
00000000
00000010
00000000
00000100
00000000
00000000
00000100
00000000
00000000
00000000
00000000
,
00000001
00000000
00000000
00000000
00001001
00000000
00000000
00000000
00001000
00000000
00000000
00001000
00000000
00000000
00001000
00000000
,
00000000
00000100
00000020
00000000
00002030
00000000
00003200
00000000
,
00010300
00010000
00020000
00030000
,
00002000
00003000
00200000
00300000
,
00010000
01000000
20000000
30000000
,
02000000
03000000
00020000
00030000
,
00001000
00000100
00000002
00000003
,
00000200
00000300
00002000
00003000
,
00100000
00010000
02000000
03000000
,
00002000
00003000
00020000
00030000
,
00001000
00001000
00001000
00011000
,
00010000
00010000
00010000
00011000
,
00000100
00000100
00000100
00001001
,
00000010
00000010
00000010
00001001
,
00000010
00001000
00000010
00001000
,
00000100
00010000
00000100
00010000
,
00001000
01000000
00001000
01000000
,
00022000
00000000
00000000
00033000
,
00011000
00000000
00000000
00000000
;

//---------------dance-single - ----------------
#NOTES:
     dance-single:
     :
     Beginner:
     2:
     0.125,0.211,0.050,0.008,0.000:
0000
0000
0000
0000
,
0000
0000
0000
0000
,
0000
0000
0000
0000
,
0000
0000
0000
0000
,
0010
0000
0000
0000
,
0100
0000
0000
0000
,
0010
0000
0010
0000
,
0010
0000
0000
0000
,
0001
0000
0000
0000
,
1000
0000
1000
0000
,
1000
0000
0000
0000
,
0100
0000
0100
0000
,
0100
0000
0000
0000
,
0010
0000
0010
0000
,
0010
0000
0000
0000
,
0001
0000
0000
0000
,
1000
0000
1000
0000
,
1001
0000
0000
0000
,
0001
0000
0001
0000
,
1001
0000
0000
0000
,
0010
0000
0010
0000
,
1001
0000
0000
0000
,
0100
0000
0100
0000
,
1001
0000
0000
0000
,
0010
0000
0000
0000
,
0001
0000
0000
0000
,
0100
0000
0000
0000
,
1000
0000
0000
0000
,
0010
0000
0000
0000
,
1000
0000
0000
0000
,
0100
0000
0000
0000
,
0001
0000
0000
0000
,
0010
0000
0010
0000
,
0100
0000
0100
0000
,
0001
0000
0001
0000
,
1000
0000
1000
0000
,
0020
0000
0000
0000
,
0030
0000
0000
0000
,
0100
0000
0100
0000
,
1001
0000
0000
0000
,
1000
0000
0000
1000
,
0000
0000
0000
0000
,
0001
0000
0000
0001
,
0000
0000
0000
0000
,
0010
0000
0000
0010
,
0000
0000
0000
0000
,
0100
0000
0000
0100
,
0000
0000
0000
0000
,
0010
0000
0010
0010
,
0000
0000
0100
0000
,
0100
0000
0100
0100
,
0000
0000
0001
0000
,
1000
0000
1000
1000
,
0000
0000
1000
0000
,
0001
0000
0001
0000
,
0010
0000
0000
0000
,
0100
0000
0000
0000
,
0010
0000
0000
0000
,
0100
0000
0000
0000
,
0010
0000
0000
0000
,
1000
0000
0000
0000
,
0001
0000
0000
0000
,
1000
0000
0000
0000
,
0001
0000
0000
0000
,
0010
0000
0010
0000
,
0001
0000
0001
0000
,
0100
0000
0100
0000
,
1000
0000
1000
0000
,
0010
0000
0010
0000
,
0100
0000
0100
0000
,
0010
0010
0010
0010
,
0010
0000
0000
0000
,
1001
0000
0000
0000
;

//---------------dance-single - Copied from----------------
#NOTES:
     dance-single:
     Copied from:
     Easy:
     6:
     0.346,0.423,0.143,0.243,0.126:
0000
0000
0000
0000
,
0000
0000
0000
0000
,
0000
0000
0000
0000
,
0000
0000
0000
0000
,
0010
0010
0001
0001
,
0100
0100
1000
1000
,
0010
0001
0100
1000
,
2002
0000
0000
3003
,
0100
0000
0000
0000
0100
0000
0000
0000
0100
0000
0000
0100
0000
0000
0000
0000
,
0010
0000
0000
0010
0000
0000
0010
0000
0000
0000
0000
0000
1001
0000
0000
0000
,
0000
0000
0100
0000
0000
0000
0000
0000
0010
0000
0000
0010
0000
0000
0000
0000
,
0100
0000
0000
0100
0000
0000
0100
0000
0000
0000
0000
0000
1001
0000
0000
0000
,
0000
0000
1001
0000
0000
0000
0000
0000
1000
0000
0000
1000
0000
0000
0000
0000
,
0001
0000
0000
0001
0000
0000
0001
0000
0000
0000
0000
0000
1001
0000
0000
0000
,
0000
0000
0010
0000
0000
0000
0000
0000
0001
0000
0000
0001
0000
0000
0000
0000
,
1000
0000
0000
1000
0000
0000
1000
0000
0000
0000
0001
0000
1000
0000
0001
0000
,
0000
0000
0110
0000
0000
0000
0000
0000
1000
0000
0000
1000
0000
0000
0000
0000
,
0001
0000
0000
0001
0000
0000
0001
0000
0000
0000
0100
0000
0000
0000
1000
0000
,
0000
0000
0100
0000
0000
0000
0000
0000
0001
0000
0000
0001
0000
0000
0000
0000
,
1000
0000
0000
1000
0000
0000
1000
0000
0000
0000
0100
0000
0000
0000
0001
0000
,
0000
0000
0100
0000
0000
0000
0000
0000
0010
0000
0000
0010
0000
0000
0000
0000
,
0100
0000
0000
0100
0000
0000
0100
0000
0000
0000
1000
0000
0000
0000
0010
0000
,
0000
0000
0001
0000
0000
0000
0000
0000
0010
0000
0000
0010
0000
0000
0000
0000
,
0010
0001
0100
1000
,
0020
0030
0200
0300
,
0002
0003
2000
3000
,
0010
0010
0010
1000
,
0002
0003
2000
3000
,
0100
0100
0100
0000
,
0002
0003
2000
3000
,
0010
0010
0010
1000
,
0002
0003
2000
3000
,
0010
0010
0010
0010
,
1000
1000
1000
1000
,
0100
0100
0001
0001
,
0010
1000
0100
0001
,
0010
0010
0001
0001
,
0100
0100
1000
1000
,
0010
0001
0100
1000
,
2002
0000
0000
3003
,
0110
0000
0000
0000
0000
0000
0000
0000
0010
0000
0000
0010
0000
0000
0010
0000
,
0000
0000
0010
0000
0000
0000
0100
0000
0100
0000
0000
0100
0000
0000
0000
0000
,
1001
0000
0000
0000
0000
0000
0000
0000
1000
0000
0000
1000
0000
0000
1000
0000
,
0000
0000
1000
0000
0000
0000
0001
0000
0001
0000
0000
0001
0000
0000
0000
0000
,
0110
0000
0000
0000
0000
0000
0000
0000
0100
0000
0000
0100
0000
0000
0100
0000
,
0000
0000
0100
0000
0000
0000
0010
0000
0010
0000
0000
0010
0000
0000
0000
0000
,
1001
0000
0000
0000
0000
0000
0000
0000
0001
0000
0000
0001
0000
0000
0001
0000
,
0000
0000
0001
0000
0000
0000
1000
0000
1000
0000
0000
1000
0000
0000
0000
0000
,
0101
0000
0000
0000
0000
0000
0000
0000
1000
0000
0000
1000
0000
0000
1000
0000
,
0000
0000
0010
0000
0000
0000
0001
0000
0001
0000
0000
0001
0000
0000
0000
0000
,
0011
0000
0000
0000
0000
0000
0000
0000
0001
0000
0000
0001
0000
0000
0001
0000
,
0000
0000
0100
0000
0000
0000
1000
0000
1000
0000
0000
1000
0000
0000
0000
0000
,
1100
0000
0000
0000
0100
0000
0000
0000
0100
0000
0000
0100
0000
0000
0100
0000
,
0000
0000
0001
0000
0000
0000
0010
0000
0010
0000
0000
0010
0000
0000
0000
0000
,
1010
0000
0000
0000
0010
0000
0000
0000
0001
0000
0000
0001
0000
0000
0001
0000
,
0000
0100
0020
0000
2030
0000
3002
0000
,
0103
0100
0200
0300
,
0002
0003
2000
3000
,
0010
0010
0010
0010
,
2000
3000
0002
0003
,
0100
0100
0200
0300
,
0002
0003
2000
3000
,
0010
0010
0010
0010
,
0002
0003
2000
3000
,
0100
0100
0100
0100
,
0001
0001
0001
0001
,
0010
0010
1000
1000
,
0100
0001
0010
1000
,
0100
0100
0100
0100
,
1000
1000
1000
1000
,
0010
0001
0100
1000
,
2002
0000
0000
3003
,
1001
0000
0000
0000
;

//---------------dance-single - ----------------
#NOTES:
     dance-single:
     :
     Medium:
     10:
     0.424,0.453,0.159,0.269,0.113:
0000
0000
0000
0000
,
0000
0000
0000
0000
,
0000
0000
0000
0000
,
0000
0000
0000
0000
,
0010
0010
0001
0001
,
0100
0100
1000
1000
,
0010
0001
0010
0000
0001
1000
0001
0000
,
2002
0000
0000
3003
,
0000
0000
1001
0000
0000
0000
0001
0000
1000
0000
0000
0001
0000
0000
1000
0000
,
0001
0000
0000
1000
0000
0000
0001
0000
0000
0000
0100
0000
0010
0000
0100
0000
,
0000
0000
0110
0000
0000
0000
0001
0000
1000
0000
0000
0001
0000
0000
1000
0000
,
0100
0000
0000
0010
0000
0000
0100
0000
0000
0000
0001
0000
1000
0000
0001
0000
,
0000
0000
1000
0000
0000
0000
0001
0000
1000
0000
0000
0001
0000
0000
1000
0000
,
0100
0000
0000
0010
0000
0000
0100
0000
0000
0000
0010
0000
0100
0000
0010
0000
,
0000
0000
1001
0000
0000
0000
0001
0000
1000
0000
0000
0001
0000
0000
1000
0000
,
0010
0000
0000
0100
0000
0000
0010
0000
0000
0000
0100
0000
0010
0000
0100
0000
,
0000
0000
0110
0000
0000
0000
1000
0000
0010
0000
0000
1000
0000
0000
0010
0000
,
1000
0000
0000
0001
0000
0000
1000
0000
0000
0000
0001
0000
0001
0000
0001
0000
,
0000
0000
0010
0000
0000
0000
1000
0000
0010
0000
0000
1000
0000
0000
0010
0000
,
0100
0000
0000
0001
0000
0000
0100
0000
0000
0000
0010
0000
0010
0000
0010
0000
,
0000
0000
1000
0000
0000
0000
0100
0000
0001
0000
0000
0100
0000
0000
0001
0000
,
1000
0000
0000
0001
0000
0000
1000
0000
0000
0000
0010
0000
0010
0000
0010
0000
,
0000
0100
0000
0001
0000
0100
0000
0002
,
2000
0000
0000
3003
,
1000
0001
2000
3000
,
0002
0000
0000
0100
0203
0000
0300
0000
,
1000
0010
1000
0010
,
0200
0000
0000
0010
0020
0000
0330
0000
,
0001
0100
0002
0003
,
2000
0000
0000
0100
0200
0000
3300
0000
,
0100
0001
1000
0001
,
2000
0000
0000
0010
0020
0000
3030
0000
,
0001
0010
0001
0010
,
1000
0100
1000
0100
,
0010
0001
0100
1000
,
0010
0001
0100
1000
,
0010
0011
0100
1100
,
0010
1010
0100
0101
,
0010
0001
0010
0001
1000
0001
1000
0000
,
2002
0000
0000
3003
,
0110
0000
0000
0000
0110
0000
0000
0000
0100
0000
0000
0100
0000
0000
0100
0000
,
0000
0000
0010
0000
1000
0000
0000
0000
0010
0000
0000
0010
0000
0000
0010
0000
,
0001
0000
0000
0000
0010
0000
0000
0000
1000
0000
0000
1000
0000
0000
1000
0000
,
0000
0000
0001
0000
1000
0000
0001
0000
1000
0000
0000
1000
0000
0000
0001
0000
,
0100
0000
0000
0000
1000
0000
0000
0000
0010
0000
0000
0010
0000
0000
0010
0000
,
0000
0000
0100
0000
0010
0000
0100
0000
0010
0000
0000
0010
0000
0000
0010
0000
,
0100
0000
0000
0000
1001
0000
0000
0000
1000
0000
0000
1000
0000
0000
1000
0000
,
0000
0100
0001
0100
0002
0000
0003
0000
,
1001
0000
0000
0000
0001
0000
1000
0000
0001
0000
0000
0001
0000
0000
1001
0000
,
0000
0000
1000
0000
0010
0000
1000
0000
0010
0000
0000
0010
0000
0000
0010
0000
,
0001
0000
0000
0000
0100
0000
0010
0000
0100
0000
0000
0100
0000
0000
0100
0000
,
0000
0010
1000
0010
1000
0010
0100
0100
,
0100
0000
0000
0000
0001
0000
0001
0000
0001
0000
0000
0001
0000
0000
0001
0000
,
0000
0000
1000
0000
0001
0000
1000
0000
0001
0000
0000
0001
0000
0000
1000
0000
,
0001
0000
0000
0000
0100
0000
0010
0000
0100
0000
0000
0010
0000
0000
0100
0000
,
0000
0010
2000
0000
3020
0000
0230
0000
,
0301
0010
2000
3000
,
0200
0000
0000
0001
0302
0000
0003
0000
,
1000
0010
0001
0100
,
0020
0000
0000
1000
2030
0000
3000
0000
,
0100
0001
0020
0030
,
2000
0000
0000
0001
0002
0000
3003
0000
,
0100
1000
0010
0001
,
0200
0010
0000
0000
0020
0000
0330
0000
,
0010
0001
0100
1001
,
0010
0001
0100
1001
,
0010
1000
0010
0001
,
0100
1000
0010
1001
,
0100
0100
0001
0001
,
0010
0010
1000
1000
,
0001
1000
0001
1000
0001
1000
0001
2000
,
0002
0000
0000
3003
,
1001
0000
0000
0000
;
