#TITLE:Moonquest (UK HARDCORE MIX);
#SUBTITLE:;
#ARTIST:Area11 remixed by Team TSF;
#TITLETRANSLIT:;
#SUBTITLETRANSLIT:;
#ARTISTTRANSLIT:;
#GENRE:;
#CREDIT:;
#MENUCOLOR:;
#METERTYPE:DDR;
#BANNER:Moonquest (UK HARDCORE MIX).png;
#BACKGROUND:Moonquest (UK HARDCORE MIX)-jacket.png;
#LYRICSPATH:;
#CDTITLE:;
#MUSIC:Moonquest (UK HARDCORE MIX).ogg;
#OFFSET:-1.199;
#SAMPLESTART:67.880;
#SAMPLELENGTH:15.000;
#SELECTABLE:YES;
#LISTSORT:;
#DISPLAYBPM:172.000;
#BPMS:0.000=172.000;
#STOPS:;
#BGCHANGES:0.000=Moonquest (UK HARDCORE MIX).avi=1.086=1=1=0,
305.000=Moonquest (UK HARDCORE MIX)-jacket.png=1.000=0=0=1,
99999=-nosongbg-=1.000=0=0=0 // don't automatically add -songbackground-
;
#ATTACKS:;

//---------------dance-double - ----------------
#NOTES:
     dance-double:
     :
     Hard:
     13:
     0.583,0.656,0.127,0.355,0.196:
00000000
00000000
00000000
00000000
,
00000000
00000000
00000000
00000000
,
00000000
00000000
00000000
00000000
,
00000000
00000000
00000000
00000000
,
00100000
00100000
00100000
00100000
,
00001000
00001000
00001000
00001000
,
00010000
00001000
00010000
00001000
00010000
00001000
00010000
00001000
,
00020000
00000000
00000000
00000000
00000000
00031000
00010000
00000100
,
00002000
00000000
00000000
00003020
00000000
00000000
00000030
00000100
,
00000001
00000000
00000000
00000001
00000000
00000000
00000001
00000000
00000000
00000000
00001000
00000000
00000010
00000000
00001000
00000000
,
00000200
00000000
00000000
00020300
00000000
00000000
00030000
00001000
,
00100000
00000000
00000000
00010000
00000000
00000000
01000000
00000000
00000000
00000000
00100000
00000000
10000000
00000000
00100000
00000000
,
02000000
00000000
00000000
03020000
00000000
00000000
00130000
00100000
,
00001000
00000000
00000000
00010000
00000000
00000000
00002000
00000000
00000000
00000000
00020000
00000000
00000000
00000000
00033000
00000000
,
00000000
00000100
00010000
00000100
00001000
00000100
00001000
00000000
,
00001100
00000000
00011000
00000000
00110000
00000000
00010000
01000000
,
10000000
00100000
10000000
00000000
00010000
01000000
00010000
00000000
,
00100000
00000000
00000000
00001000
00000000
00000000
00100000
00000000
00001000
00000000
00010000
00000000
00001000
00000000
00000000
00000000
,
00010000
00000100
00010000
00000000
00001000
00000100
00001000
00000000
,
00000100
00000000
00000000
00001000
00000000
00000000
00000010
00000000
00000100
00000000
00000001
00000000
00000100
00000000
00000000
00000000
,
00000010
00010000
00000010
00000000
00000100
00001000
00000100
00000000
,
00010000
00000000
00000000
00000100
00000000
00000000
00020000
00000000
00000000
00000000
00002000
00000000
00000000
00000000
00033000
00000000
,
00001000
00100000
00001000
00100000
00010000
00100000
00010000
00100000
,
01000000
00100000
00000000
20020000
00000000
30030000
00000000
00000000
,
02000000
00010000
00100000
03010000
,
20000000
30100000
02000000
03001000
,
00010000
00000000
00010000
00001000
00020000
00000000
00031000
00000000
,
00002000
00103000
00020000
00030100
,
00000020
00000130
00000002
00001003
,
00000010
00000010
00000200
00000000
00000301
00000001
00002000
00000020
,
00003030
00000000
00000010
00000100
00001000
00000100
00000010
00000000
,
00001100
00010100
00011000
00000000
,
00100000
00000000
00010000
01000000
10000000
01000000
00010000
00000000
,
00100000
10000000
00100000
00000000
01000000
00010000
02000000
00000000
,
00000000
03000000
00010000
00000000
00100000
00001000
00010000
00000000
,
00001000
00000000
00000000
00010000
00000000
00000000
00000100
00000000
00001000
00000000
00000000
00000000
00010100
00000000
00000000
00000000
,
00001000
00000000
00001000
00000010
00001000
00000010
00001000
00000000
,
00000100
00010000
00002000
00000000
00013000
00000100
00001000
00000200
,
00000000
00010300
00001000
00010000
00001000
00010000
00000100
00000000
,
00001000
00000100
00000010
00000100
00001000
00000010
00000000
00000200
,
00020000
00000000
00000000
00030300
00000000
00000000
00000000
00000000
,
00010000
00000000
00000000
00001000
00000000
00000000
00010000
00000000
00000000
00000000
00000000
00000000
00010000
00100000
00010000
00000000
,
00100000
00000000
00000000
00001000
00000000
00000000
00000000
00010000
,
00001000
00000000
00000000
00100000
00000000
00000000
01000000
00000000
00000000
00000000
00000000
00000000
10010000
00000000
00000000
00000000
,
01100000
00100000
00100000
00100000
,
00001000
00001000
00010000
00010000
,
00000100
00001000
00000100
00001000
00000100
00010000
00000100
00010000
,
00000000
00000000
00001000
00010000
00001000
00000000
00010000
00000000
00002000
00000000
00000000
00000000
00103000
00000000
00001000
00000000
,
00010000
00000000
00000000
00010000
00000000
00000000
00001000
00000000
00000000
00010000
00001000
00000000
00100000
00000000
00010000
00000000
,
01000000
00000000
00000000
00100000
00000000
00000000
01000000
00000000
00000000
00000000
00100000
01000000
00100000
01000000
00100000
00000000
,
01000000
00000000
00000000
00100000
00000000
00000000
01000000
00000000
00000000
01000000
00010000
00000000
01000000
00000000
00100000
00000000
,
01000000
00000000
00000000
00010000
00000000
00000000
00010000
00000000
00000000
00000000
00100000
00001000
00100000
00000000
00001000
00000000
,
00010000
00000000
00000000
00001000
00000000
00010000
00001000
00000000
00000000
00001000
00000100
00000000
00010000
00000000
00000100
00000000
,
00001000
00000000
00000000
00000010
00000000
00000000
00000100
00000000
00000000
00000000
00001000
00000001
00001000
00000001
00001000
00000000
,
00000010
00000000
00000000
00000100
00000000
00000010
00001000
00000000
00000000
00000010
00001000
00000000
00000100
00000000
00001000
00000000
,
00000100
00000000
00010000
00000000
00001000
00000000
00010000
00000000
00000100
00001000
00000100
00000000
00010000
00000100
00010000
00000000
,
00002000
00000000
00103000
00010000
00000000
00100000
00010000
00100000
,
00010000
00000000
00001000
00010000
00000000
00000000
00001000
00000000
00000000
00000000
00010000
00000000
00001000
00000000
00100000
00000000
,
00010000
00000000
00000000
01000000
00000000
00100000
01000000
00000000
00000000
00000000
10000000
00000000
01000000
00000000
00010000
00000000
,
00100000
00000000
00000000
00010000
00000000
00000000
01000000
00000000
00000000
00000000
01000000
00000000
10000000
00010000
10000000
00010000
,
10000000
00000000
01000000
00010000
00000000
00100000
00001000
00010000
,
00000100
00000000
00000000
00001000
00000000
00000000
00000010
00000000
00000000
00000000
00000001
00000000
00000100
00000001
00000100
00000000
,
00000010
00000000
00000000
00001000
00000000
00000000
00000100
00000000
00000000
00000000
00010000
00000000
00001000
00000000
00010000
00000000
,
00001000
00000000
00010000
00001000
00000000
00000000
00100000
00010000
00000000
00000000
01000000
00100000
01000000
00000000
00100000
00000000
,
11000000
01000000
01000000
01000000
,
01010000
00010000
00010000
00010000
,
00010010
00000010
00000010
00000010
,
00001010
00001000
00001000
00001000
,
00000001
00001000
00000001
00001000
00000010
00001000
00000010
00001000
,
00000100
00001000
00000100
00001000
00000100
00010000
00000100
00010000
,
00001000
00010000
00001000
00010000
00001000
01000000
00001000
01000000
,
00010000
01000000
00100000
01000000
00010000
00100000
01000000
20000000
,
00020000
00000000
00000000
30030000
,
00200000
00000000
00000000
00002000
00000000
00000000
00303000
00000000
,
00020000
00000000
00000000
00000200
00000000
00000000
00030300
00000000
,
00002000
00000000
00000000
00020000
00000000
00000000
00000000
00033000
;

//---------------dance-single - ----------------
#NOTES:
     dance-single:
     :
     Hard:
     13:
     0.572,0.759,0.264,0.464,0.114: // measure 1
0000
0000
0000
0000
,  // measure 2
0000
0000
0000
0000
,  // measure 3
0000
0000
0000
0000
,  // measure 4
0000
0000
0000
0000
,  // measure 5
0010
0010
0010
0010
,  // measure 6
0001
0001
0001
0001
,  // measure 7
0100
0010
0100
0010
0100
0010
0100
0010
,  // measure 8
0200
0000
0000
0000
0000
0310
0100
1000
,  // measure 9
0200
0000
0000
0320
0000
0000
0000
1030
,  // measure 10
0100
0000
0000
0100
0000
0000
0100
0000
0000
0000
0001
0000
0010
0000
0100
0000
,  // measure 11
2000
0000
0000
3002
0000
0000
0000
0013
,  // measure 12
0100
0000
0000
0010
0000
0000
0100
0000
0000
0000
0001
0000
0100
0000
0001
0000
,  // measure 13
0200
0000
0000
0320
0000
0000
1030
1000
,  // measure 14
0100
0000
0000
1000
0000
0000
0200
0000
0000
0000
0020
0000
0000
0000
0330
0000
,  // measure 15
0000
0001
0100
0001
0100
0010
0100
0010
,  // measure 16
0100
0000
0001
0100
1000
0100
0001
0100
,  // measure 17
0020
0000
0000
0130
0000
0000
0000
0001
,  // measure 18
1000
0000
0000
0001
0000
0000
1000
0000
0000
0000
0010
0000
0100
0000
0010
0000
,  // measure 19
0200
0000
0000
0320
0000
0000
0000
1030
,  // measure 20
0001
0000
0000
1000
0000
0000
0001
0000
0000
0000
0100
0000
0010
0000
0001
0000
,  // measure 21
2000
0000
0000
3010
0000
0000
0100
0010
,  // measure 22
1000
0000
0000
0010
0000
0000
2000
0000
0000
0000
0020
0000
0000
0000
3030
0000
,  // measure 23
0001
0100
0001
0100
0010
0100
0010
0100
,  // measure 24
1100
0110
0101
1001
,  // measure 25
2002
0000
0000
3003
,  // measure 26
0010
0100
0010
0000
0100
0010
0200
0000
,  // measure 27
0300
0000
0001
1000
0000
1000
0001
0000
,  // measure 28
0020
0230
0302
1003
,  // measure 29
0000
0000
1000
0001
1000
0000
0001
0000
,  // measure 30
0100
0010
0100
0000
0010
0100
0010
0100
,  // measure 31
0000
0001
0100
0001
0100
0000
0000
0010
,  // measure 32
0000
1000
1000
0000
2020
0000
3030
0000
,  // measure 33
1001
0000
0010
0001
0010
0001
0010
0000
,  // measure 34
1000
0100
1000
0000
0100
0010
0100
0020
,  // measure 35
0000
0000
0130
0001
0000
0001
0100
0000
,  // measure 36
0010
1000
0100
0000
0002
0200
0303
0000
,  // measure 37
1100
1100
0101
0101
,  // measure 38
0001
0010
0100
0000
1000
0100
0010
0000
,  // measure 39
1010
1010
0101
0101
,  // measure 40
0210
0000
0010
0010
0010
0010
0000
0310
,  // measure 41
0110
0000
0000
0010
0000
0000
0000
0000
,  // measure 42
2000
0000
0000
0002
0000
0000
3003
0000
,  // measure 43
0020
0000
0000
0200
0000
0000
0330
0000
,  // measure 44
2000
0000
0000
0020
0000
0000
3030
0000
,  // measure 45
0101
0101
0110
0110
,  // measure 46
1010
1010
1100
1100
,  // measure 47
0001
0100
0001
0100
1000
0100
1000
0100
,  // measure 48
0000
0000
0001
0100
0001
0000
0010
0000
0200
0000
0000
0000
0310
0000
0010
0000
,  // measure 49
1001
0000
0000
0001
0000
0100
0010
0000
0000
0000
1000
0000
0010
0000
1000
0000
,  // measure 50
0010
0000
0000
0100
0000
0000
0001
0000
0000
0000
0010
0000
0100
0000
0010
0000
,  // measure 51
0100
0000
0000
0001
0000
1000
0001
0000
0000
0000
0010
0000
0100
0000
0010
0000
,  // measure 52
1000
0000
0000
0001
0000
0000
0100
0000
0000
0000
0010
0000
1000
0000
0010
0000
,  // measure 53
0100
0000
0000
0010
0000
1000
0010
0000
0000
0000
0100
0000
0001
0000
0100
0000
,  // measure 54
0010
0000
0000
1000
0000
0000
0010
0000
0000
0000
0100
0000
0001
0000
0100
0000
,  // measure 55
0010
0000
0000
1000
0000
1000
0100
0000
0000
0000
0010
0000
0001
0000
0010
0000
,  // measure 56
0100
0000
0001
0010
0100
0000
1000
0100
,  // measure 57
0020
0000
0000
2030
0000
0000
3100
0010
,  // measure 58
0001
0000
0000
1000
0000
0000
1001
0000
0000
0000
0000
0000
0100
0000
0001
0000
,  // measure 59
2000
0000
0000
3020
0000
0000
0130
0001
,  // measure 60
0100
0000
0000
0010
0000
0000
1010
0000
0000
0000
1000
0000
0100
0000
0010
0000
,  // measure 61
0002
0000
0000
0203
0000
0000
0310
1000
,  // measure 62
0001
0000
0000
0100
0000
0000
0010
0000
0000
0000
1000
0000
0100
0000
1000
0000
,  // measure 63
0020
0000
0000
0032
0000
0000
0103
0010
,  // measure 64
0100
0010
0000
0000
1001
0000
1000
0100
,  // measure 65
0001
0000
0001
0000
0001
0000
0001
0010
,  // measure 66
1000
0000
1000
0000
1000
0000
1000
0100
,  // measure 67
0001
0000
0001
0000
0001
0100
1000
0100
,  // measure 68
0001
0000
0001
0000
0001
0010
1000
0010
,  // measure 69
0001
0010
0001
0010
0001
0010
0001
0010
,  // measure 70
1000
0010
1000
0010
1000
0010
1000
0100
,  // measure 71
0001
0001
0100
0100
0010
0010
1000
1000
,  // measure 72
0001
1000
0001
0000
1000
0001
1000
0000
0001
1000
0001
2000
3001
0000
0020
0000
,  // measure 73
0200
0000
0000
0330
,  // measure 74
2000
0000
0000
0020
0000
0000
3030
0000
,  // measure 75
0002
0000
0000
0200
0000
0000
0303
0000
,  // measure 76
2000
0000
0000
0002
0000
0000
0000
3003
;

//---------------dance-double - ----------------
#NOTES:
     dance-double:
     :
     Medium:
     8:
     0.405,0.449,0.155,0.373,0.000:
00000000
00000000
00000000
00000000
,
00000000
00000000
00000000
00000000
,
00000000
00000000
00000000
00000000
,
00000000
00000000
00000000
00000000
,
00100000
00100000
00100000
00100000
,
00001000
00001000
00001000
00001000
,
00010000
00001000
00010000
00000000
00001000
00010000
00001000
00000000
,
00022000
00000000
00000000
00033000
,
00000200
00000000
00002300
00000000
,
00003010
00000100
00000001
00000100
,
00000020
00000000
00020030
00000000
,
00031000
00010000
00001000
00100000
,
00020000
00000000
01030000
00100000
,
01000000
00100000
01000000
00200000
00000000
01300000
00000000
00000000
,
10000000
01000000
00100000
00010000
,
01100000
10010000
01100000
00000000
,
20000000
00000000
00000000
30010000
00000000
00000000
00000000
00000000
,
00200000
00000000
00000000
00301000
00000000
00000000
00000000
00000000
,
00020000
00000000
00000000
00031000
00000000
00000000
00000000
00000000
,
00000100
00001000
00000010
00000100
,
00000002
00000000
00000000
00000103
00000000
00000000
00000000
00000000
,
00000020
00000000
00000000
00001000
00000000
00001030
00000000
00000000
,
00001000
00010000
00001000
00010000
,
00001000
00100000
00000000
00002000
00000000
00000000
00013000
00000000
,
00022000
00000000
00000000
00033000
,
00000200
00000300
00020000
00032000
,
00003000
00000000
00010000
00010000
00000000
00001000
00001000
00000000
,
00010000
00001000
00100000
00000000
,
00000000
01000000
10000000
00100000
,
00010000
00100000
00001000
00100000
,
00000000
00000000
00010000
00000000
00001000
00010000
00000000
00001000
,
00000000
00010000
00000100
00000000
00001000
00000000
00001000
00000000
,
00001001
00000000
00000010
00000000
00001000
00000010
00001000
00000000
,
00000100
00000000
00001001
00000000
00000010
00000001
00000010
00000000
,
00000100
00000000
00010100
00000000
00001000
00010000
00001000
00000000
,
00010000
00011000
00020000
00030000
,
01000000
01000000
01000000
01000000
,
00010000
00010000
00100000
00100000
,
00001000
00100000
00001000
00000000
00100000
00001000
00100000
00000000
,
00010000
00000000
00001000
00010000
00001000
00010000
00000000
00002000
,
00020000
00000000
00000000
00033000
,
00000200
00000000
00000300
00000000
,
00020000
00000000
00030000
00000000
,
00002000
00000000
00003000
00000000
,
00100000
00100000
00100000
00001000
,
00010000
00010000
00010000
00001000
,
00000100
00000010
00000100
00000010
,
00002002
00000000
00003003
00000110
,
00000010
00000000
00001000
00000010
00001000
00000000
00000100
00000000
,
00010000
00000000
00001000
00010000
00001000
00000000
00010000
00000000
,
00001000
00000000
01000000
00010000
01000000
00000000
00010000
00000000
,
00100000
00000000
00010000
10000000
00010000
00000000
01000000
00000000
,
10000000
00000000
00100000
10000000
00000000
00100000
10000000
00100000
,
01000000
00000000
01000000
00010000
00000000
01000000
00100000
00000000
,
01000000
00000000
00010000
01000000
00000000
00001000
00100000
00001000
,
00100000
00011000
00010000
00011000
,
00002000
00000000
00000000
00013000
,
00001000
00000000
00000100
00001000
00000000
00000000
00000100
00000000
,
00000020
00000000
00000000
00001030
,
00000100
00000000
00010000
00002000
00000000
00000000
00013000
00000000
,
00200000
00000000
00000000
00301000
,
00010000
00000000
00001000
02000000
00000000
00000000
03010000
00000000
,
00100000
00010000
01000000
10000000
,
00200000
00020000
00000000
00000000
00330000
00000000
00010000
00000100
,
00020000
00000000
00000000
00001000
00000000
00000000
00031000
00000000
,
00001000
00001100
00001000
00001100
,
00000020
00000000
00000000
00000100
00000000
00000000
00000130
00000000
,
00000010
00001010
00000010
00001010
,
00000100
00000001
00000100
00000000
00000100
00000001
00000100
00000000
,
00000010
00001000
00000010
00000000
00000010
00001000
00000010
00000000
,
00000100
00010000
00000100
00010000
00000100
00010000
00000100
00010000
,
00000200
00000000
00000000
00000000
00000000
00000000
00010000
00020300
,
00000000
00000000
00000000
00000000
00000000
00030000
00000000
00000000
,
00002000
00000000
00003000
00000000
,
00200000
00000000
00300000
00000000
,
00002000
00000000
00000000
00000000
00000000
00000000
00000000
00003000
;

//---------------dance-single - ----------------
#NOTES:
     dance-single:
     :
     Medium:
     8:
     0.398,0.449,0.109,0.373,0.000:
0000
0000
0000
0000
,
0000
0000
0000
0000
,
0000
0000
0000
0000
,
0000
0000
0000
0000
,
0010
0010
0010
0010
,
0100
0100
0100
0100
,
1000
0100
1000
0000
0100
1000
0100
0000
,
0002
0000
0000
0003
,
0020
0000
0230
0000
,
0310
0001
1000
0001
,
0020
0000
2030
0000
,
3100
1000
0100
0010
,
2000
0000
3001
0010
,
0001
0010
0001
0020
0000
0031
0000
0000
,
0001
1000
0010
0100
,
1000
0100
1001
0000
,
0002
0000
0000
0103
0000
0000
0000
0000
,
0020
0000
0000
1030
0000
0000
0000
0000
,
0200
0000
0000
0301
0000
0000
0000
0000
,
1000
0001
0010
1000
,
0200
0000
0000
1300
0000
0000
0000
0000
,
0020
0000
0000
0001
0000
0031
0000
0000
,
0001
0100
0001
0100
,
0001
0010
0000
0002
0000
0000
0103
0000
,
2002
0000
0000
3003
,
0020
0030
0200
0302
,
0003
0000
0100
0100
0000
0001
0001
0000
,
0001
1000
0010
0000
,
0000
0100
1000
0010
,
0001
0010
1000
0010
,
0000
0000
1000
0000
0100
1000
0000
0100
,
0000
1000
0001
0000
0100
0000
0100
0000
,
1001
0000
0010
0000
0100
0010
0100
0000
,
0001
0000
1000
0000
0010
1000
0010
0000
,
0001
0000
1001
0000
0100
1000
0100
0000
,
1000
1100
2000
3000
,
0001
0001
0001
0001
,
0100
0100
0010
0010
,
1000
0010
1000
0000
0001
0100
0001
0000
,
0100
0000
0001
0100
0001
0100
0000
0002
,
2000
0000
0000
3003
,
2000
0000
3000
0000
,
0200
0000
0300
0000
,
0002
0000
0003
0000
,
0010
0010
0010
0001
,
0100
0100
0100
0001
,
1000
0010
1000
0010
,
2002
0000
3003
1001
,
1000
0001
0100
1000
,
0100
0000
0001
0100
0001
0000
0100
0000
,
0001
0000
1000
0100
1000
0000
0100
0000
,
0010
0000
0100
0001
0100
0000
1000
0000
,
0001
0000
0010
0001
0000
0010
0001
0010
,
1000
0000
1000
0100
0000
1000
0010
0000
,
1000
0000
0100
1000
0000
0001
0010
0001
,
0010
1001
0100
1001
,
0002
0000
0000
0103
,
0001
0000
1000
0001
0000
0000
1000
0000
,
0020
0000
0000
0031
,
1000
0000
0100
0002
0000
0000
0103
0000
,
0020
0000
0000
0031
,
0100
0000
0001
2000
0000
0000
3100
0000
,
0010
0100
1000
0001
,
0020
0200
0000
0000
0330
0000
0100
1000
,
0200
0000
0000
0001
0000
0000
0301
0000
,
0001
1001
0001
1001
,
0020
0000
0000
1000
0000
0000
1030
0000
,
0010
0001
0010
0001
,
1000
0100
1000
0000
1000
0100
1000
0000
,
0010
0001
0010
0000
0010
0001
0010
0000
,
1000
0100
1000
0100
1000
0100
1000
0100
,
2000
0000
0000
0000
0000
0000
0100
3200
,
0000
0000
0000
0000
0000
0300
0000
0000
,
0002
0000
0003
0000
,
0020
0000
0030
0000
,
2002
0000
0000
0000
0000
0000
0000
3003
;

//---------------dance-single - ----------------
#NOTES:
     dance-single:
     :
     Beginner:
     3:
     0.096,0.196,0.018,0.000,0.000:
0000
0000
0000
0000
,
0000
0000
0000
0000
,
0000
0000
0000
0000
,
0000
0000
0000
0000
,
0010
0000
0000
0000
,
0001
0000
0000
0000
,
0100
0000
0000
0000
,
1000
0000
0000
0000
,
0010
0000
0000
0000
,
0000
0000
0000
0000
,
0100
0000
0000
0000
,
0000
0000
0000
0000
,
0001
0000
0000
0000
,
1000
0000
0000
0000
,
0001
0000
0000
0000
,
1000
0000
0000
0000
,
0010
0000
0000
0000
,
0100
0000
0000
0000
,
0010
0000
0000
0000
,
0100
0000
0000
0000
,
0001
0000
0000
0000
,
1000
0000
0000
0000
,
0001
0000
0000
0000
,
1000
0000
0000
0000
,
0010
0000
0000
0000
,
0000
0000
0000
0000
,
0100
0000
0000
0000
,
0000
0000
0000
0000
,
0001
0000
0000
0000
,
0000
0000
0000
0000
,
1000
0000
0000
0000
,
0000
0000
0000
0000
,
0010
0000
0000
0000
,
0010
0000
0000
0000
,
0100
0000
0000
0000
,
0100
0000
0000
0000
,
0001
0000
0000
0000
,
1000
0000
0000
0000
,
0001
0000
0001
0000
,
1000
0000
1000
0000
,
1001
0000
0000
0000
,
0000
0000
0000
0000
,
0000
0000
0000
0000
,
0000
0000
0000
0000
,
0010
0000
0000
0000
,
0100
0000
0000
0000
,
0010
0000
0100
0000
,
0010
0000
1001
0000
,
0010
0000
0000
0000
,
0100
0000
0000
0000
,
0010
0000
0000
0000
,
0100
0000
0000
0000
,
0001
0000
0000
0000
,
1000
0000
0000
0000
,
0001
0000
0000
0000
,
1000
0000
0001
0000
,
1000
0000
0000
0000
,
0010
0000
0000
0000
,
0100
0000
0000
0000
,
0001
0000
0000
0000
,
0010
0000
0010
0000
,
0001
0000
0001
0000
,
1000
0000
1000
0000
,
0100
0000
0000
0000
,
0010
0000
0000
0000
,
0001
0000
0000
0000
,
0100
0000
0000
0000
,
1000
0000
0000
0000
,
0010
0000
0010
0000
,
0001
0000
0001
0000
,
0100
0000
0100
0000
,
1000
0000
1000
0000
,
0010
0000
0000
0000
;

//---------------dance-double - ----------------
#NOTES:
     dance-double:
     :
     Easy:
     4:
     0.242,0.341,0.027,0.109,0.000:
00000000
00000000
00000000
00000000
,
00000000
00000000
00000000
00000000
,
00000000
00000000
00000000
00000000
,
00000000
00000000
00000000
00000000
,
00010000
00000000
00010000
00000000
,
00001000
00000000
00001000
00000000
,
00010000
00010000
00010000
00010000
,
00002000
00000000
00000000
00000000
,
00013000
00000000
00000000
00000000
,
00001000
00000000
00000000
00010000
00000000
00000000
00000000
00000000
,
00000100
00000000
00000000
00000000
,
00000010
00000000
00000000
00000100
00000000
00000000
00000000
00000000
,
00000010
00000000
00000000
00000000
,
00010000
00000000
00000000
00001000
00000000
00000000
00000000
00000000
,
00100000
00000000
00000000
00000000
,
00010000
01000000
10000000
00000000
,
02000000
00000000
03000000
00000000
,
00020000
01000000
01030000
00000000
,
00002000
00000000
00003000
00000000
,
00000200
00000001
00000301
00000000
,
00000020
00000000
00000030
00000000
,
00000200
00010000
00010300
00000000
,
00001000
00000000
00010000
00000000
,
00001000
00010000
00001000
00010000
,
00011000
00000000
00000000
00000000
,
00001000
00100000
00001000
00100000
,
00010000
00000000
00000000
00000000
,
00010000
00000100
00010000
00000100
,
00001000
00000000
00000000
00000000
,
00010000
00100000
00010000
00100000
,
01000000
00000000
00100000
00000000
,
00001000
00100000
00001000
00100000
,
00001000
00010000
00000000
00010000
,
00100000
00001000
00100000
00001000
,
01000000
00010000
00000000
00010000
,
01000000
00100000
01000000
00100000
,
10000000
10000000
10000000
10000000
,
00010000
00010000
00010000
00010000
,
00100000
00100000
00001000
00001000
,
00010000
00010000
00000010
00000010
,
00002002
00000000
00000000
00000000
,
00000000
00000000
00000000
00000000
,
00003003
00000000
00000000
00000000
,
00000000
00000000
00000000
00000000
,
00001000
00010000
00001000
00010000
,
00001000
00000010
00001000
00000010
,
00001000
00010000
00001000
00010000
,
00022000
00000000
00000000
00033000
,
00001000
00000000
00000100
00000000
,
00001000
00000000
00010000
00000000
,
00001000
00000000
00000010
00000000
,
00000100
00000000
00000001
00000000
,
00000010
00000000
00000100
00000000
,
00000010
00000000
00001000
00000000
,
00000010
00000000
00001000
00000000
,
00010000
00000000
00001000
00000000
,
00100000
00000000
00010000
00000000
,
00001000
00000000
00100000
00000000
,
00010000
00000000
00001000
00000000
,
00100000
00000000
00010000
00000000
,
10000000
00000000
00100000
00000000
,
00001000
00000000
00010000
00000000
,
01000000
00000000
00001000
00000000
,
00100000
00000000
00001000
00010000
,
00001000
00010000
00010000
00010000
,
00001000
00000100
00000100
00000100
,
00001000
00100000
00100000
00100000
,
00010000
01000000
01000000
01000000
,
00001000
00100000
00001000
00100000
,
00001000
00010000
00001000
00010000
,
00000100
00010000
00000100
00010000
,
00002000
00000000
00000000
00000000
,
00013000
00000000
00000000
00000000
,
00100000
00000000
00000000
00000000
,
00000100
00000000
00000000
00000000
,
00010000
00000000
00000000
00000000
;

//---------------dance-single - ----------------
#NOTES:
     dance-single:
     :
     Easy:
     4:
     0.242,0.341,0.027,0.109,0.000:
0000
0000
0000
0000
,
0000
0000
0000
0000
,
0000
0000
0000
0000
,
0000
0000
0000
0000
,
0001
0000
0001
0000
,
1000
0000
1000
0000
,
0001
0001
0001
0001
,
2000
0000
0000
0000
,
3001
0000
0000
0000
,
0100
0000
0000
0010
0000
0000
0000
0000
,
0100
0000
0000
0000
,
0010
0000
0000
0100
0000
0000
0000
0000
,
0010
0000
0000
0000
,
0001
0000
0000
1000
0000
0000
0000
0000
,
0001
0000
0000
0000
,
0001
0100
1000
0000
,
0200
0000
0300
0000
,
0002
0100
0103
0000
,
2000
0000
3000
0000
,
0200
0001
0301
0000
,
0020
0000
0030
0000
,
0200
0001
0301
0000
,
1000
0000
0001
0000
,
1000
0001
1000
0001
,
1001
0000
0000
0000
,
1000
0010
1000
0010
,
0001
0000
0000
0000
,
0001
0100
0001
0100
,
1000
0000
0000
0000
,
0001
0010
0001
0010
,
0100
0000
0010
0000
,
1000
0010
1000
0010
,
1000
0001
0000
0001
,
0010
1000
0010
1000
,
0100
0001
0000
0001
,
0100
0010
0100
0010
,
1000
1000
1000
1000
,
0001
0001
0001
0001
,
0010
0010
1000
1000
,
0001
0001
0010
0010
,
2002
0000
0000
0000
,
0000
0000
0000
0000
,
3003
0000
0000
0000
,
0000
0000
0000
0000
,
1000
0001
1000
0001
,
1000
0010
1000
0010
,
1000
0001
1000
0001
,
2002
0000
0000
3003
,
1000
0000
0100
0000
,
1000
0000
0001
0000
,
1000
0000
0010
0000
,
0100
0000
0001
0000
,
0010
0000
0100
0000
,
0010
0000
1000
0000
,
0010
0000
1000
0000
,
0001
0000
1000
0000
,
0010
0000
0001
0000
,
1000
0000
0010
0000
,
0001
0000
1000
0000
,
0010
0000
0001
0000
,
1000
0000
0010
0000
,
1000
0000
0001
0000
,
0100
0000
1000
0000
,
0010
0000
1000
0001
,
1000
0001
0001
0001
,
1000
0100
0100
0100
,
1000
0010
0010
0010
,
0001
0100
0100
0100
,
1000
0010
1000
0010
,
1000
0001
1000
0001
,
0100
0001
0100
0001
,
2000
0000
0000
0000
,
3001
0000
0000
0000
,
0010
0000
0000
0000
,
0100
0000
0000
0000
,
0001
0000
0000
0000
;
