#TITLE:McGarfieldEVOLVED -Independent Side-;
#SUBTITLE:;
#ARTIST:Raikunderground;
#TITLETRANSLIT:;
#SUBTITLETRANSLIT:;
#ARTISTTRANSLIT:;
#CREDIT:;
#BANNER:McGarfieldEVOLVED -Independent Side-.png;
#BACKGROUND:McGarfieldEVOLVED -Independent Side--jacket.png;
#LYRICSPATH:;
#CDTITLE:;
#MUSIC:McGarfieldEVOLVED -Independent Side-.mp3;
#OFFSET:-2.571;
#SAMPLESTART:36.456;
#SAMPLELENGTH:10.941;
#SELECTABLE:YES;
#DISPLAYBPM:85.000:170.000;
#BPMS:0.000=170.000,62.000=164.000,64.000=170.010,65.000=171.000,76.000=170.000,128.000=85.000,142.000=88.000,143.000=85.700,144.000=170.000,176.000=340.000,178.000=360.000,182.000=340.000,189.000=344.000,205.000=339.940,240.000=170.000,270.000=340.000,272.000=170.000,302.000=340.000,303.000=367.000,304.000=399.000,305.000=355.000,307.000=340.000,422.000=170.000,426.000=150.000;
#STOPS:270.000=0.165
,271.000=0.168
,301.833=0.706
;
#BGCHANGES:;

//---------------dance-single - ----------------
#NOTES:
     dance-single:
     :
     Hard:
     15:
     0.794,1.000,0.572,0.316,0.169:
0000
0000
0000
0000
,
0000
0000
0000
0000
,
0000
0000
0000
0000
,
0000
0000
0000
0000
,
0001
1000
0001
1000
,
0010
0100
0010
0100
,
1000
0100
1000
0100
0001
0100
0001
0100
,
0020
0100
0100
0130
,
1001
1000
0100
0010
0001
0010
0100
0001
,
1001
0001
0010
0100
1000
0100
0010
0001
,
1001
1000
0010
0100
0001
0100
0010
1000
,
1001
0010
0100
1000
0001
0100
0010
0100
,
1001
1000
0100
0010
0011
0001
0100
0010
,
0110
0010
1000
0100
1100
1000
0010
0100
,
0101
0001
0010
1000
1100
1000
0001
0100
,
0020
0000
0000
0000
0000
0000
0000
0000
0000
0000
0000
0000
0000
0100
0000
0000
0000
0200
0000
0000
0000
0000
0000
0000
0000
0000
0000
0000
0330
0000
0000
0000
,
2000
3100
0002
0103
,
2000
3010
0002
0013
,
2000
3001
0002
1003
,
0200
0310
0020
0130
,
2000
0000
0000
0001
0000
0000
3001
0000
0200
0000
0000
0010
0000
0000
0310
0000
,
0002
0000
0000
1000
0000
0000
1003
0000
0020
0000
0000
0100
0000
0000
0130
0000
,
2000
0000
0000
0100
0000
0000
3100
0000
0002
0000
0000
0010
0000
0000
0013
0000
,
2000
0000
0000
0100
0200
0000
0000
3300
,
0011
0000
0100
0010
0001
0000
1000
0000
1100
0000
0001
0100
0010
0000
1000
0000
,
0101
0000
1000
0010
0100
0000
0101
0000
1000
0001
0100
0000
0001
1000
0100
0000
,
1100
0000
0001
0100
0010
0000
1000
0000
0101
0000
1000
0010
0100
0000
0001
0000
,
1100
0000
0001
0100
0010
0000
1100
0000
0001
0100
0010
0000
1000
0010
0100
0000
,
1001
0000
1000
0100
1000
0000
0001
0000
0110
0000
0001
0100
0001
0000
0100
0000
,
1100
0000
0010
0100
0010
0000
1000
0000
0101
0000
1100
0000
0101
0000
0100
0000
,
1100
0101
1100
0101
,
0101
0000
0000
1010
0000
0000
0101
0000
0000
1100
0000
0000
0101
0000
0010
0000
,
0220
0000
0000
0030
,
2000
0000
0000
3000
,
0001
1000
0001
1000
,
0320
1000
0100
0001
,
0130
0000
0000
1000
0000
0000
1001
0000
0010
0000
0100
0000
1000
0000
1001
0000
,
0010
0000
0000
0001
0000
0000
1001
0000
1000
0000
0010
0000
0100
0000
0001
0000
,
0100
0000
0000
0110
0000
0000
0001
0000
1000
0000
0010
0000
0100
0000
0001
0000
,
1000
0010
1000
0010
1000
0000
0001
0100
0001
0000
0100
0000
1001
0000
0000
0000
,
1010
0000
0000
0110
0000
0000
0001
0000
0101
0000
0101
0000
1000
0000
0010
0000
,
1010
0000
0000
1100
0000
0000
0010
0000
0110
0000
0110
0000
0001
0000
0100
0000
,
0101
0000
0000
0110
0000
0000
0001
0000
1001
0000
1001
0000
0100
0000
0110
0000
,
1000
0100
1000
0100
1000
0000
0001
0100
0010
0000
0100
0000
0002
0000
0000
0000
,
0103
0000
0010
0000
0100
0000
0001
0100
,
0001
1000
0100
1000
,
0010
0000
0100
0000
0001
0000
1000
0001
,
1000
0010
0100
1000
,
0001
0000
0010
0000
0100
0000
0001
0100
,
0001
0100
0010
1000
,
0001
0100
0001
0100
1000
0100
1000
0100
,
0001
0100
2002
3003
,
1000
0000
0010
0000
0100
0000
0001
0100
,
0001
0100
0010
1000
,
0001
0000
0100
0000
0010
0000
1000
0100
,
1000
0010
0100
0001
,
1010
0000
0001
0000
0100
0000
0010
0100
,
0001
1000
0010
0101
,
0100
0010
0100
0010
1000
0001
1000
0001
,
0100
0010
2002
3003
,
2000
0000
3100
0000
0001
0010
0100
1000
,
0002
0000
0103
0000
1000
0100
0010
0001
,
0200
0000
0310
0000
0001
0100
0010
1000
,
0020
0000
0130
0000
0001
0001
1001
0000
,
2000
0000
3100
0000
0001
0010
1000
0100
,
0002
0000
0103
0000
1000
0100
0001
0010
,
0200
0000
0310
0000
1000
0001
0100
0010
,
2000
0000
0000
3000
2002
3003
2002
3003
,
0110
0000
0001
0100
0010
0000
1000
0010
,
0100
0000
0001
0100
0010
1000
0100
0010
,
0001
0000
1000
0100
0010
0000
0001
0100
,
0010
0000
1000
1001
1001
0000
0110
0000
,
0001
0100
0001
0100
1000
0100
1000
0100
,
0010
0100
0010
0100
0001
0010
0100
1000
,
0001
0000
0001
0000
1000
0010
0000
1000
0010
0000
0010
0000
0100
1000
0000
0100
,
1000
0001
0100
0001
0100
1000
0100
1000
0100
0000
0000
0000
0010
0000
0000
0000
,
1000
0001
0000
0001
1000
0000
0010
0000
,
0100
0001
0000
0001
0100
0010
0100
0000
,
0001
0000
1000
0000
0100
0010
0100
0000
,
0001
1000
0100
1000
,
0010
0000
0001
0000
0100
0010
0100
0010
,
0100
0001
0100
0010
,
1000
0000
0100
0000
0001
1000
0001
1000
,
0001
0000
0100
0000
0010
1000
0010
0000
,
0100
0001
0000
0001
0100
0010
0100
0000
,
0010
1000
0000
1000
0100
0000
1000
0000
,
0010
0100
0010
0100
0010
0000
0001
0000
,
0100
0010
0100
0010
0100
0000
0010
0000
,
1000
0000
0100
0000
0001
1000
0001
1000
,
0001
0010
1000
0100
,
0010
0000
0001
0000
0101
0000
0000
0001
,
0010
0100
1000
0000
0001
0100
0001
0100
,
0001
0100
0000
0010
1000
0100
1000
0100
,
1000
0100
0000
0001
0100
0000
0010
1000
,
0010
0000
1000
0000
1001
0000
0001
0100
,
0001
0000
0100
0000
0010
1000
0010
1000
,
0100
0010
0100
0010
0001
0100
0001
0100
,
0010
0100
0010
0100
1000
0100
1000
0100
,
0001
0100
0001
0100
0010
0100
0010
0100
,
0010
1001
1100
1100
,
0001
0010
0000
0100
0001
0000
0101
0000
,
0001
0100
0000
1000
0100
0000
1100
0000
,
0010
0100
0000
1000
0001
0100
0010
1000
,
0001
0100
0010
1000
0100
1000
0100
1000
,
0001
0100
0001
0100
0010
0100
0010
0100
,
1000
0000
0100
0000
0010
0000
0000
0000
1001
0000
0000
0101
0000
0000
0100
0000
,
1100
0000
0000
1001
0000
0000
0010
0000
0110
0000
0000
0000
2002
0000
0000
0000
,
0000
0000
0000
0000
,
0000
0000
0000
0000
,
0000
0000
3003
0000
;

//---------------dance-single - ----------------
#NOTES:
     dance-single:
     :
     Medium:
     13:
     0.613,0.735,0.271,0.211,0.117: // measure 1
0000
0000
0000
0000
,  // measure 2
0000
0000
0000
0000
,  // measure 3
0000
0000
0000
0000
,  // measure 4
0000
0000
0000
0000
,  // measure 5
0010
0010
0010
0010
,  // measure 6
0100
0100
0100
0100
,  // measure 7
0001
0100
0001
0100
0001
0100
0001
0100
,  // measure 8
0002
0000
2000
3000
,  // measure 9
1003
0000
0010
0100
0010
0000
0001
0100
,  // measure 10
0001
0000
1000
0100
1000
0000
0001
0000
,  // measure 11
0100
0000
0010
1000
0010
0000
0100
0010
,  // measure 12
0100
0000
0001
0100
0001
0000
1100
0000
,  // measure 13
0101
0000
1000
0100
0001
0000
0001
0100
,  // measure 14
1000
0000
0010
0100
0001
1000
0010
0000
,  // measure 15
1100
0000
0001
0100
0010
0000
1000
0100
,  // measure 16
0010
0000
0000
0000
0000
0000
0000
0000
0000
0000
0000
0000
0000
1000
0000
0000
0000
1001
0000
0000
0000
0000
0000
0000
0000
0000
0000
0000
0000
0000
0000
0000
,  // measure 17
0020
0130
2000
3001
,  // measure 18
0020
0000
0000
0200
0000
0330
1001
0000
,  // measure 19
2000
3001
0002
0103
,  // measure 20
0020
0000
0000
0200
0000
0330
1001
0000
,  // measure 21
1000
0000
0000
0001
0100
0000
0000
0000
0001
0000
0000
1000
0100
0000
0000
0000
,  // measure 22
1000
0000
0000
0001
0100
0000
0000
0000
0001
0000
0000
1000
0100
0000
0000
0000
,  // measure 23
0010
0000
0000
1000
0001
0000
0000
0000
0010
0000
0000
0001
1000
0000
0000
0000
,  // measure 24
0200
0000
0000
0020
0000
0000
0330
0000
,  // measure 25
1100
0000
0000
0001
0100
0000
0000
1000
0100
0000
0000
0001
0100
0000
0010
0000
,  // measure 26
1000
0000
0000
0100
0010
0000
0000
0100
0010
0000
1000
0000
0001
0000
0000
0000
,  // measure 27
1100
0000
0000
0010
0100
0000
0000
0001
0100
0000
0000
0010
0100
0000
0001
0000
,  // measure 28
1000
0000
0000
0010
0100
0000
0000
0001
0100
0000
0010
0000
1000
0000
0001
0000
,  // measure 29
0100
0000
0000
0010
0100
0000
0001
0000
1000
0000
0100
0000
0001
0000
0000
0000
,  // measure 30
0010
0000
0000
0100
0010
0000
0001
0000
1000
0000
0100
0000
0001
0000
0100
0000
,  // measure 31
1001
1001
1001
1001
,  // measure 32
0010
0000
0000
0010
0000
0000
0010
0000
0000
0010
0000
0000
1000
0000
0100
0000
,  // measure 33
0020
0000
0000
0000
,  // measure 34
0230
0000
0000
0000
,  // measure 35
0302
0100
0000
0103
,  // measure 36
2000
0100
0000
3100
,  // measure 37
0010
0000
0000
0010
0000
0000
1000
0000
0100
0000
0010
0000
0001
0000
0100
0000
,  // measure 38
0010
0000
0000
0010
0000
0000
0001
0000
0010
0000
0100
0000
2000
0000
0000
0000
,  // measure 39
3010
0000
0000
0010
0000
0000
1000
0000
0100
0000
0010
0000
0001
0000
0100
0000
,  // measure 40
0010
0010
1001
0000
0100
0100
1001
0000
,  // measure 41
0010
0000
0000
1001
0000
0000
0001
0000
0010
0000
0100
0000
0010
0000
0001
0000
,  // measure 42
0100
0000
0000
1001
0000
0000
1000
0000
0100
0000
0010
0000
0100
0000
1000
0000
,  // measure 43
0001
0000
0000
1001
0000
0000
0010
0000
0100
0000
0010
0000
1000
0000
0001
0000
,  // measure 44
1000
0000
0000
0001
0000
0000
1000
0000
0010
0000
0010
0000
0020
0000
0000
0000
,  // measure 45
0130
0000
0000
0000
1001
0000
0000
0001
,  // measure 46
0100
0100
1001
0100
,  // measure 47
1000
0000
0000
0000
1001
0000
0000
1000
,  // measure 48
0100
0100
1001
0100
,  // measure 49
0010
0000
0000
0000
1001
0000
0000
0010
,  // measure 50
0100
0010
1001
0010
,  // measure 51
0100
0010
0000
0100
0010
0000
1000
0000
,  // measure 52
0001
0100
0000
0001
0100
0000
0001
0000
,  // measure 53
1000
0000
0000
0000
1100
0000
0000
1000
,  // measure 54
0100
1000
0010
0100
,  // measure 55
0001
0000
0000
0000
1001
0000
0000
0001
,  // measure 56
0100
0010
1000
0100
,  // measure 57
1000
0000
0000
0000
1001
0000
0000
1000
,  // measure 58
0010
0100
0010
1001
,  // measure 59
1000
0000
0001
0000
0100
0000
0010
1000
,  // measure 60
0010
0000
0100
0000
0001
1000
0001
1000
,  // measure 61
0002
0000
0003
0000
1000
0100
0010
0001
,  // measure 62
2000
0000
3000
0000
0001
0100
0010
1000
,  // measure 63
0002
0000
0003
0000
1000
0100
0010
0001
,  // measure 64
0100
0100
0100
0000
0010
0010
0010
0000
,  // measure 65
0001
0000
1001
0000
0010
0100
1000
0001
,  // measure 66
1000
0000
1001
0000
1000
0100
0010
0001
,  // measure 67
0100
0000
1001
0000
0010
0100
1000
0000
,  // measure 68
0001
0100
0010
0000
1001
0000
1001
0000
,  // measure 69
2000
3100
0002
0103
,  // measure 70
0020
0100
1000
0130
,  // measure 71
2000
0100
0010
3100
,  // measure 72
0002
0010
0100
0013
,  // measure 73
1000
0100
0001
0000
1000
0100
0001
0000
,  // measure 74
0001
1000
0010
0000
0001
1000
0010
0000
,  // measure 75
1000
0010
0001
0000
1000
0010
0001
0000
,  // measure 76
0100
0100
0100
0100
0010
0000
1000
0000
,  // measure 77
0001
1000
0000
0000
0010
0000
1000
0000
,  // measure 78
0001
1000
0000
0000
1000
0000
0100
0000
,  // measure 79
0010
0001
0100
0010
,  // measure 80
1000
0001
1000
0001
1000
0000
0010
0000
,  // measure 81
0100
0000
0001
0000
1000
0100
1000
0100
,  // measure 82
1000
0001
0100
0010
,  // measure 83
1000
0000
0001
0100
0001
0100
0001
0000
,  // measure 84
1000
0100
0010
0001
,  // measure 85
0100
0010
0000
0000
0010
0000
1000
0000
,  // measure 86
0100
0010
0000
0000
0001
0000
0100
0000
,  // measure 87
0010
1000
0100
0100
,  // measure 88
0001
0001
1000
0100
,  // measure 89
0010
0000
0001
0000
0100
0010
0100
0010
,  // measure 90
0100
0001
0010
0100
,  // measure 91
1000
0000
0001
1000
0001
1000
0001
0000
,  // measure 92
0100
0110
1000
0100
,  // measure 93
0001
0100
0000
0000
0001
0000
0010
0000
,  // measure 94
1000
0010
0000
0000
0100
0000
0100
0000
,  // measure 95
0001
1000
0001
1000
0001
0000
0010
0000
,  // measure 96
1000
0001
1000
0001
1000
0000
0010
0000
,  // measure 97
0100
0000
0001
0000
1000
0100
1000
0100
,  // measure 98
1000
0010
0100
0001
,  // measure 99
1000
0000
0010
0000
0100
0001
0100
0001
,  // measure 100
0100
0010
1000
1000
,  // measure 101
1000
0001
0000
0001
0100
0000
0100
0000
,  // measure 102
0100
0001
0000
0001
0010
0000
0010
0000
,  // measure 103
0010
0001
0000
0001
0100
0000
0100
0000
,  // measure 104
0100
0001
0000
0001
1000
0000
0100
0000
,  // measure 105
0010
0001
0010
0100
,  // measure 106
1000
0000
0000
0000
0001
0000
0000
0000
1000
0000
0000
1001
0000
0000
0010
0000
,  // measure 107
0010
0000
0000
1001
0000
0000
0100
0000
0100
0000
0000
0000
2002
0000
0000
0000
,  // measure 108
0000
0000
0000
0000
,  // measure 109
0000
0000
3003
0000
;

//---------------dance-single - ----------------
#NOTES:
     dance-single:
     :
     Easy:
     8:
     0.426,0.742,0.504,0.248,0.008:
0000
0000
0000
0000
,
0000
0000
0000
0000
,
0000
0000
0000
0000
,
0000
0000
0000
0000
,
1000
1000
1000
1000
,
0001
0001
0001
0001
,
0010
0010
0010
0010
,
0200
0000
0000
0300
,
0001
1001
1000
1001
,
0100
0110
0010
0110
,
1000
1100
0100
1100
,
0001
0101
0100
0101
,
1100
0101
1100
0101
,
1001
0110
1001
0110
,
1010
0101
1010
0101
,
0220
0000
0000
0330
,
2000
3000
0002
0003
,
0200
0000
0310
0000
,
0002
0003
2000
3000
,
0020
0000
0130
0000
,
2000
0100
3100
0000
,
0002
0100
0103
0000
,
0020
0100
0130
0000
,
2200
3300
0202
0303
,
1100
0101
1000
0100
,
0101
1100
0001
0100
,
0110
1001
0100
0010
,
1001
0110
1000
0001
,
1100
0000
0001
0010
0001
0000
1000
0100
,
1000
0000
0010
0100
0010
0000
1000
0001
,
1000
1001
1001
1001
,
0010
0000
0000
0100
0000
0000
0010
0000
0000
0100
0000
0000
0010
0000
0010
0000
,
0200
0000
0000
0000
,
0320
0000
0000
0000
,
0230
0000
0000
0000
,
0320
0000
0000
0000
,
1030
1000
1001
1000
,
0001
0001
1001
0001
,
0010
0010
0110
0010
,
0100
0100
0110
0100
,
0001
0001
0101
0001
,
1000
1000
1100
1000
,
0001
0001
0011
0001
,
1000
1000
1010
0000
,
0001
0000
0100
0000
,
0001
0100
0001
0000
,
1000
0000
0100
0000
,
1000
0100
1000
0000
,
0001
0000
0100
0000
,
0001
0100
0001
0000
,
1000
0010
1000
0000
,
0010
0010
0010
0000
,
0100
0000
0010
0000
,
1000
0001
1000
0000
,
0010
0000
0100
0000
,
0001
1000
0001
0000
,
0100
0000
0010
0000
,
1000
0001
1000
0000
,
0010
0000
0010
0000
,
0100
0100
0100
0000
,
0001
0000
0100
0000
,
1000
0000
1000
0000
,
1000
0000
0100
0000
,
0001
0000
0001
0000
,
0020
0130
1000
0001
,
0200
0310
1000
0001
,
0200
0310
1000
0100
,
0010
0000
1001
1001
,
0200
0300
0020
0030
,
1000
0100
0010
0001
,
0200
0300
0020
0030
,
0001
0010
0100
1000
,
0002
0003
2000
3000
,
0010
0100
0010
0100
,
0010
0010
0010
0010
,
0010
0010
0010
0010
1000
0000
0000
0000
,
1001
0000
0001
0000
,
1001
0000
1000
0000
,
1100
0000
0001
0000
,
0101
0000
1000
0000
,
1010
0000
0001
0000
,
0011
0000
0100
0000
,
0110
0000
1001
0000
,
1001
0000
0001
0000
,
0011
0000
1000
0000
,
1010
0000
0001
0000
,
0101
0000
1000
0000
,
1100
0000
1000
0000
,
1010
0000
0001
0000
,
0011
0000
0110
0000
,
0110
0000
2002
0000
,
3003
0000
0010
0000
,
0010
0000
1000
0001
,
1000
0000
0100
0000
,
0100
0000
0001
1000
,
0001
0000
0010
0000
,
0010
0000
1000
0000
,
1000
0000
0001
0000
,
0001
0000
0100
0100
,
0100
0000
0001
0100
,
0001
0000
1000
0100
,
1000
0000
0001
0100
,
0001
0000
1000
0100
,
1000
0000
0010
0010
,
0010
0000
0100
0100
,
0100
0000
1001
0000
,
0110
0000
1001
2002
,
0000
0000
0000
0000
,
0000
0000
0000
0000
,
0000
0000
3003
0000
;

//---------------dance-single - ----------------
#NOTES:
     dance-single:
     :
     Beginner:
     4:
     0.217,0.289,0.060,0.233,0.000:
0000
0000
0000
0000
,
0000
0000
0000
0000
,
0000
0000
0000
0000
,
0000
0000
0000
0000
,
0001
0000
0000
0000
,
1000
0000
0000
0000
,
0001
0000
0000
0000
,
1000
0000
0000
0000
,
0010
0000
0010
0000
,
0100
0000
0100
0000
,
1000
0000
0001
0000
,
1000
0000
0001
0000
,
0100
0000
0100
0000
,
0010
0000
0010
0000
,
1000
0000
0100
0000
,
0002
0000
0003
0000
,
0100
0000
0000
0000
,
0100
0000
0000
0000
,
0010
0000
0000
0000
,
0010
0000
0000
0000
,
1000
0000
1000
0000
,
0001
0000
0001
0000
,
1000
0000
1000
0000
,
0002
0000
0003
0000
,
0100
0000
0100
0000
,
0010
0000
0010
0000
,
1000
0000
1000
0000
,
0001
0000
0001
0000
,
1001
0000
0000
0000
,
1001
0000
0000
0000
,
1001
0000
1001
0000
,
1001
0000
0000
0000
,
0020
0000
0030
0000
,
0200
0000
0300
0000
,
0020
0000
0030
0000
,
0200
0000
0300
0000
,
0001
0000
0001
0000
,
1000
0000
1000
0000
,
0001
0000
0001
0000
,
0010
0010
0010
0000
,
1000
0000
1000
0000
,
0001
0000
0001
0000
,
1000
0000
1000
0000
,
0100
0100
0100
0000
,
0020
0000
0030
0000
,
0100
0000
0100
0000
,
0020
0000
0030
0000
,
1000
0000
1000
0000
,
0020
0000
0030
0000
,
0001
0000
0001
0000
,
0100
0000
0100
0000
,
1000
0000
1000
0000
,
0020
0000
0030
0000
,
0100
0000
0100
0000
,
0020
0000
0030
0000
,
1000
0000
1000
0000
,
0020
0000
0030
0000
,
0001
0000
0001
0000
,
0100
0000
0100
0000
,
1000
0000
1000
0000
,
0020
0000
0030
0000
,
0200
0000
0300
0000
,
0002
0000
0003
0000
,
2000
0000
3000
0000
,
0200
0000
0300
0000
,
0020
0000
0030
0000
,
0002
0000
0003
0000
,
2000
0000
3000
0000
,
0010
0000
0010
0000
,
1000
0000
1000
0000
,
0001
0000
0001
0000
,
0100
0000
0100
0000
,
0010
0000
1000
0000
,
0010
0000
0001
0000
,
0100
0000
0100
0000
,
0200
0000
0300
0000
,
0100
0000
0001
0000
,
0001
0000
1000
0000
,
1000
0000
0001
0000
,
0001
0000
1000
0000
,
0001
0000
1000
0000
,
0001
0000
1000
0000
,
1000
0000
0001
0000
,
0001
0000
2000
0000
,
3000
0000
0002
0000
,
0003
0000
0200
0000
,
0300
0000
0020
0000
,
0030
0000
0100
0000
,
0100
0000
0010
0000
,
0010
0000
0100
0000
,
0100
0000
0100
0000
,
0000
0000
0002
0000
,
0003
0000
0002
0000
,
0003
0000
1000
0000
,
1000
0000
1000
0000
,
0000
0000
2000
0000
,
3000
0000
2000
0000
,
3000
0000
0001
0000
,
0001
0000
0001
0000
,
0000
0000
0010
0000
,
0010
0000
0010
0000
,
0000
0000
0100
0000
,
0100
0000
0100
0000
,
0000
0000
0010
0000
,
0010
0000
0100
0000
,
0100
0000
1001
0000
,
1001
0000
0000
2002
,
0000
0000
0000
0000
,
0000
0000
0000
0000
,
0000
0000
3003
0000
;

//---------------dance-double - ----------------
#NOTES:
     dance-double:
     :
     Hard:
     16:
     0.777,0.989,0.512,0.309,0.147:
00000000
00000000
00000000
00000000
,
00000000
00000000
00000000
00000000
,
00000000
00000000
00000000
00000000
,
00000000
00000000
00000000
00000000
,
00010000
00001000
00010000
00001000
,
00000010
00000100
00000010
00000100
,
00001000
00000100
00001000
00000100
00000001
00000100
00000001
00000100
,
00002000
00010000
00010000
00013000
,
10010000
10000000
01000000
00100000
00010000
00100000
01000000
00010000
,
00110000
00010000
00001000
00010000
00000100
00001000
00000010
00000001
,
00001001
00001000
00000010
00000100
00000001
00000100
00000010
00001000
,
00001100
00001000
00100000
00010000
01000000
00100000
10000000
01000000
,
10010000
10000000
01000000
00100000
00110000
00010000
00100000
00001000
,
00010000
00011000
00010000
00000010
00000100
00000001
00000010
00000100
,
00000010
00000100
00010000
00001000
00100000
00010000
10000000
01000000
,
00200000
00000000
00000000
00000000
00000000
00000000
00000000
00000000
00000000
00000000
00000000
00000000
00000000
01000000
00000000
00000000
00000000
02000000
00000000
00000000
00000000
00000000
00000000
00000000
00000000
00000000
00000000
00000000
03300000
00000000
00000000
00000000
,
20000000
31000000
00020000
00130000
,
00002000
00013000
00000020
00000130
,
00000002
00001003
00000200
00010300
,
00002000
01003000
20000000
30010000
,
20000000
00000000
00000000
00010000
00000000
00000000
30010000
00000000
02000000
00000000
00000000
00100000
00000000
00000000
03100000
00000000
,
00020000
00000000
00000000
10000000
00000000
00000000
10030000
00000000
00200000
00000000
00000000
01000000
00000000
00000000
01300000
00000000
,
20000000
00000000
00000000
01000000
00000000
00000000
31000000
00000000
00020000
00000000
00000000
00100000
00000000
00000000
00130000
00000000
,
20000000
00000000
00000000
01000000
02000000
00000000
00000000
33000000
,
00110000
00000000
00000000
01000000
00010000
00000000
00000000
00010000
00001000
00000000
00000000
00001000
00000100
00000000
00000000
00000100
,
00000010
00000000
00000100
00000010
00001000
00000000
00000001
00000000
00001100
00000000
00000110
00000000
00001001
00000000
00000000
00000000
,
00001100
00000000
00000000
00000010
00001000
00000000
00000000
00001000
00010000
00000000
00000000
00010000
00100000
00000000
00000000
00100000
,
01000000
00000000
00100000
01000000
00010000
00000000
10000000
00000000
00110000
00000000
01100000
00000000
10000000
00100000
01000000
00000000
,
10010000
00000000
10000000
01000000
10000000
00000000
00010000
00000000
01100000
00000000
00010000
00000000
00100000
00000000
00001000
00000000
,
00011000
00000000
00000100
00001000
00000100
00000000
00000010
00000000
00001000
00000000
00000010
00000000
00001010
00000000
00000100
00000000
,
00001100
01010000
00110000
00001100
,
00011000
00000000
00000000
00010000
00000000
00000000
01010000
00000000
00000000
01000000
00000000
00000000
00010000
00000000
00001000
00000000
,
00020000
00000000
00000000
00000000
,
00030200
00000000
00000320
00000000
,
00000032
00001003
00002000
00013000
,
00020000
10030000
20000000
30010000
,
00001000
00000000
00000000
00011000
00000000
00000000
00010000
00000000
00000010
00000000
00000100
00000000
00001001
00000000
00001001
00000000
,
00000010
00000000
00000000
00010000
00000000
00000000
00001000
00000000
01000000
00000000
00010000
00000000
10010000
00000000
10010000
00000000
,
10000000
00000000
00000000
00010000
00000000
00000000
00100000
00000000
00001000
00000000
00010000
00000000
00010100
00000000
00010100
00000000
,
00001000
00000010
00000100
00000001
00001000
00000010
00000100
00001000
00000100
00000000
00010000
00000000
00011000
00000000
00100000
00000000
,
10010000
00000000
00000000
00100000
00000000
00000000
01000000
00000000
00010000
00000000
00010000
00000000
00011000
00000000
00011000
00000000
,
00000010
00000000
00000000
00000100
00000000
00000000
00000001
00000000
00001000
00000000
00001000
00000000
00001100
00000000
00001100
00000000
,
00010000
00000000
00000000
00001000
00000000
00000000
01000000
00000000
00010000
00000000
10000000
00000000
10010000
00000000
10010000
00000000
,
10000000
00100000
01000000
00010000
01000000
00100000
10000000
01000000
00100000
00000000
01000000
00000000
00002000
00000000
00000000
00000000
,
00013000
00000000
00010000
00000100
00001000
00000000
00001000
00000010
,
00000100
00000001
00001001
00001001
,
00000010
00000000
00001000
00000100
00010000
00000000
00010000
00001000
,
01000000
00100000
10010000
10010000
,
10000000
00000000
00100000
01000000
00001000
00000000
00001000
00010000
,
00000010
00000100
00001001
00001001
,
00000100
00010000
00001000
00010000
00001000
01000000
00010000
01000000
,
00100000
10000000
01000000
00100000
00010000
00000000
10010000
00000000
,
10100000
00000000
00010000
01000000
00001000
00000000
00010000
00000010
,
00000100
00001001
00001100
00010100
,
00000100
00000000
00010000
00001000
01000000
00000000
01000000
00010000
,
10000000
10100000
01010000
10010000
,
10000000
00100000
01000000
00010000
01000000
00100000
10000000
01000000
,
00100000
00001000
00010000
00000010
,
00000100
00000001
00001000
00000010
00000100
00000001
00001000
00000010
,
00000100
00001001
00001100
00000101
,
00000200
00000000
00001300
00000000
00000100
00010000
00001000
00100000
,
00020000
00000000
01030000
00000000
10000000
00100000
01000000
00001000
,
00020000
00000000
00030100
00000000
00001000
00000010
00000100
00000001
,
00002000
00000000
00003100
00000000
00010000
00001000
00100000
00010000
,
20000000
00000000
30010000
00000000
01000000
00001000
00010000
00000100
,
00002000
00000000
00003001
00000000
00000001
00000100
00000010
00001000
,
00000200
00000000
00010300
00000000
00001000
00100000
00010000
01000000
,
20000000
00000000
00000000
00000000
00000000
00000000
30000000
00000000
20020000
30030000
00000000
00000000
20020000
30030000
00000000
00000000
,
01100000
00000000
10000000
01000000
00010000
00000000
00100000
00001000
,
00010000
00000000
00010000
00000010
00000100
00000000
00001001
00000000
,
00000001
00000000
00000100
00000010
00001000
00000000
00000100
00010000
,
00001000
00000000
00100000
00010000
01000000
00000000
10010000
00000000
,
10000000
01000000
00100000
00010000
00001000
00000010
00000100
00000001
,
00000001
00000010
00000100
00001000
00010000
01000000
00100000
10000000
,
00100000
00010000
00100000
00001000
00010000
00000100
00001000
00000010
,
00000001
00000010
00000100
00001000
00010000
00000000
00001000
00000000
,
00100000
00010000
00000000
01000000
00100000
00000000
10000000
00000000
,
00100000
01000000
00000000
00010000
01000000
00000000
00010000
00000000
,
00100000
00001000
00000000
00010000
00001000
00000000
00010000
00000000
,
00000100
00001000
00000000
00000100
00001000
00000000
00000010
00000000
,
00000100
00000001
00000000
00000100
00000001
00000000
00001000
00000000
,
00000010
00001000
00000000
00000100
00001000
00000000
00000100
00000000
,
00010000
00001000
00000000
00100000
00001000
00000000
00100000
00000000
,
00010000
01000000
00010000
00000000
10000000
00000000
00100000
00000000
,
01000000
00010000
00000000
01000000
00010000
00000000
00100000
00000000
,
00001000
00010000
00000000
00001000
00010000
00000000
00000100
00000000
,
00001000
00000010
00000000
00001000
00000010
00000000
00000100
00000000
,
00000001
00001000
00000001
00000100
00000001
00000000
00001000
00000000
,
00000100
00010000
00000000
00001000
00010000
00000000
00001000
00000000
,
00100000
00010000
00000000
01000000
00010000
00000000
10000000
00000000
,
00010000
01000000
00000000
00100000
10000000
00000000
01000000
00000000
,
10010000
00000000
00000000
00000000
10000000
00100000
01000000
00000000
,
01000000
00010000
00000000
00010000
00100000
00001000
00100000
00000000
,
00001000
00010000
00000000
00010000
00000100
00001000
00000010
00000000
,
00000100
00000001
00000100
00000000
00000001
00001000
00000010
00001000
,
00000100
00001000
00000010
00001000
00000001
00000000
00000100
00000010
,
00001000
00000000
00000100
00000000
00010000
00001000
00010000
00001000
,
00100000
00010000
00100000
00010000
01000000
00100000
10000000
00100000
,
01000000
00010000
00100000
00010000
00100000
00001000
00010000
00001000
,
00010000
00000100
00001000
00000010
,
00000100
00000001
00000000
00000001
00000100
00000000
00000010
00000000
,
00001000
00000100
00000000
00000100
00001000
00000100
00001000
00000000
,
00000100
00010000
00000100
00000000
00010000
00001000
00100000
00010000
,
01000000
00100000
10000000
01000000
00010000
00100000
00010000
00000000
,
00100000
00001000
00100000
00000000
00000100
00010000
00000100
00000000
,
00001000
00000000
00000010
00000000
00000100
00000000
00000000
00000000
00001001
00000000
00000000
00001001
00000000
00000000
00000100
00000000
,
00011000
00000000
00000000
00011000
00000000
00000000
00100000
00000000
10010000
00000000
00000000
00000000
02200000
00000000
00000000
00000000
,
00000000
00000000
00000000
00000000
,
00000000
00000000
00000000
00000000
,
00000000
00000000
03300000
00000000
;

//---------------dance-double - ----------------
#NOTES:
     dance-double:
     :
     Medium:
     13:
     0.601,0.776,0.188,0.218,0.109:
00000000
00000000
00000000
00000000
,
00000000
00000000
00000000
00000000
,
00000000
00000000
00000000
00000000
,
00000000
00000000
00000000
00000000
,
00001000
00001000
00001000
00001000
,
00010000
00010000
00010000
00010000
,
00001000
01000000
00001000
01000000
00001000
01000000
00001000
01000000
,
00020000
00000000
20000000
30000000
,
10030000
00000000
00100000
01000000
00100000
00000000
00010000
01000000
,
00010000
00000000
00100000
00001000
00100000
00000000
00010000
00000000
,
00000100
00000000
00000010
00001000
00000010
00000000
00000100
00000010
,
00000100
00000000
00000001
00000100
00000001
00000000
00001200
00000000
,
00010300
00000000
01000000
00001000
01000000
00000000
00010000
01000000
,
10000000
00000000
00100000
01000000
00010000
10000000
00100000
00000000
,
11000000
00000000
00010000
01000000
00100000
00000000
00001000
00010000
,
00000100
00000000
00000000
00000000
00000000
00000000
00000000
00000000
00000000
00000000
00000000
00000000
00000000
00000001
00000000
00000000
00000000
00001001
00000000
00000000
00000000
00000000
00000000
00000000
00000000
00000000
00000000
00000000
00000000
00000000
00000000
00000000
,
00000020
00001030
00000200
00010300
,
00002000
00010000
00000100
00013000
,
00020000
00031000
02000000
03010000
,
20000000
00100000
00001000
31000000
,
00200000
01300000
00002000
00013000
,
00020000
00000100
01000000
00030100
,
00001000
00010000
00000010
00000100
,
00002002
00000000
00003000
00000200
00000000
00000000
00000303
00000000
,
00000011
00000000
00000000
00000001
00000100
00000000
00000000
00000100
00001000
00000000
00000000
00001000
00000100
00000000
00000000
00000100
,
00010000
00000000
00000000
00010000
00001000
00000000
00000000
00001000
01000000
00000000
00100000
00000000
01000000
00000000
00000000
00000000
,
10000000
00000000
00000000
10000000
00100000
00000000
00000000
00100000
01000000
00000000
00000000
01000000
00001000
00000000
00000000
00001000
,
00010000
00000000
00000000
00010000
00000100
00000000
00000000
00000100
00001000
00000000
00000001
00000000
00001001
00000000
00000000
00000000
,
00000001
00000000
00000000
00000001
00001000
00000000
00000000
00001000
00000100
00000000
00010000
00000000
00001000
00000000
01000000
00000000
,
00100000
00000000
00000000
00100000
10000000
00000000
00000000
10000000
00010000
00000000
01000000
00000000
00001000
00000000
00010000
00000000
,
00011000
00011000
00011000
00011000
,
00000100
00000000
00000000
00001000
00000000
00000000
00100000
00000000
00000000
00010000
00000000
00000000
00001000
00000000
00010000
00000000
,
00002000
00000000
00000000
00000000
,
02003000
00000000
00000000
00000000
,
03002000
00010000
00000000
00013000
,
00200000
00010000
00000000
01300000
,
00100000
00000000
00000000
00100000
00000000
00000000
10000000
00000000
01000000
00000000
00100000
00000000
00010000
00000000
00001000
00000000
,
00010000
00000000
00000000
00000100
00000000
00000000
00001000
00000000
00000001
00000000
00000100
00000000
00000020
00000000
00000000
00000000
,
00000130
00000000
00000000
00000001
00000000
00000000
00000010
00000000
00001000
00000000
00000100
00000000
00010000
00000000
00001000
00000000
,
00100000
00000000
00010000
00000000
01000000
00000000
00100000
01000000
00100000
00000000
10000000
00000000
10010000
00000000
00000000
00000000
,
00100000
00000000
00000000
01100000
00000000
00000000
10000000
00000000
00100000
00000000
00010000
00000000
00100000
00000000
00001000
00000000
,
00010000
00000000
00000000
00011000
00000000
00000000
00010000
00000000
00000010
00000000
00000100
00000000
00002002
00000000
00003003
00000000
,
00000010
00000000
00000000
00000100
00000000
00000000
00000001
00000000
00001000
00000000
00000010
00000000
00000100
00000000
00010000
00000000
,
00000100
00010000
00001000
00100000
00010000
01000000
20000000
00000000
,
30010000
00000000
00000000
00000000
00100000
00000000
00000000
10000000
,
01000000
10000000
00100000
01000000
,
00001000
00000000
00000000
00000000
00010000
00000000
00000000
00001000
,
00010000
00000010
00001000
00000000
,
00000001
00000000
00000000
00000000
00001000
00000000
00000000
00000010
,
00000100
00001000
00000100
00001000
,
00000100
00000000
00010000
00000000
00001000
00100000
00001000
00100000
,
00001000
00100000
00010000
01000000
,
00100000
00000000
00000000
00000000
10000000
00000000
00000000
00010000
,
01000000
00100000
10000000
00100000
,
01000000
00000000
00000000
00000000
00001000
00000000
00000000
00010000
,
00000010
00000100
00000001
00001000
,
00000100
00000000
00000000
00000000
00010000
00000000
00000000
00001000
,
01000000
00100000
10000000
01000000
,
00010000
00000000
00100000
00000000
00001000
00000000
00010000
00000100
,
00010000
00001000
00000010
00000100
,
00001001
00000000
00000100
00000000
00000010
00001000
00000100
00000000
,
00010000
00000000
00001000
00000000
00100000
00010000
01000000
00000000
,
10000000
00000000
00010000
00000000
01000000
00001000
00010000
00000000
,
00010000
00000010
00000100
00000000
00000100
00000001
00001000
00000000
,
00000010
00000000
00001100
00000000
00000010
00001000
00000100
00000000
,
00010000
00000000
00011000
00000000
00001000
01000000
00100000
00000000
,
10000000
00000000
01010000
00000000
10000000
00100000
01000000
00000000
,
00001000
00010000
00001000
00000000
00022000
00033000
00022000
00033000
,
00010000
00000100
00001000
00000000
00000100
00001000
00000010
00000000
,
00000100
00000001
00000100
00000001
00001000
00000010
00001000
00000010
,
00001000
00000000
00000100
00000000
00010000
00010000
00010000
00000000
,
00001000
00001000
00001000
00000000
00010000
00010000
00010000
00000000
,
00001000
00000000
01000000
00000000
00100000
10000000
00100000
10000000
,
00010000
00000000
01000000
00000000
00001000
00010000
00001000
00010000
,
00000100
00000000
00001000
00000010
00000100
00000000
00000001
00001000
,
00000010
00001000
00000100
00000001
00001000
00000000
00000100
00000000
,
00001000
00000100
00000000
00000100
00001000
00000000
00000100
00000000
,
00010000
00001000
00100000
00010000
,
01000000
00100000
10000000
01000000
,
00010000
00100000
00001000
00010000
,
00000100
00001000
00000010
00000100
,
00000100
00000100
00000001
00001000
,
00000100
00010000
00001000
00100000
,
00100000
00100000
00010000
01000000
,
10000000
01000000
00010000
00100000
,
00001000
00010000
00000010
00000100
,
00000001
00001000
00000010
00000010
,
00000010
00001000
00000001
00000100
,
00001000
00000100
00010000
00010000
,
00001000
00001000
00100000
00010000
,
01000000
10000000
00100000
00100000
,
10010000
01000000
10000000
00100000
,
01000000
00010000
01000000
00010000
01000000
00000000
00100000
00000000
,
00001000
00010000
00000100
00001000
,
00000010
00000100
00000010
00000100
00000010
00000000
00001000
00000000
,
00000100
00010000
00001000
01000000
,
00010000
10000000
00010000
00100000
00010000
00000000
01000000
00000000
,
00100000
00010000
00100000
00010000
01000000
00000000
00100000
00000000
,
10000000
00010000
01000000
00010000
00100000
00000000
00001000
00000000
,
00010000
00000010
00001000
00000001
,
00001000
00000100
00001000
00000000
00000010
00000000
00001000
00000000
,
00000100
00010000
00000100
00000000
00010000
00000000
00001000
00000000
,
00100000
00010000
00100000
00000000
00010000
00000000
01000000
00000000
,
00100000
10000000
01000000
00000000
00100000
01000000
00100000
00000000
,
01000000
00001000
01000000
00000000
00001000
00010000
00001000
00000000
,
00010000
00000000
00000100
00000000
00010000
00000000
00000000
00000000
00000100
00000000
00000000
00010100
00000000
00000000
00010100
00000000
,
00010000
00000000
00000000
00011000
00000000
00000000
00001000
00000000
00100000
00000000
00000000
00000000
20020000
00000000
00000000
00000000
,
00000000
00000000
00000000
00000000
,
00000000
00000000
30030000
00000000
;

//---------------dance-double - ----------------
#NOTES:
     dance-double:
     :
     Easy:
     8:
     0.406,0.660,0.331,0.331,0.011:
00000000
00000000
00000000
00000000
,
00000000
00000000
00000000
00000000
,
00000000
00000000
00000000
00000000
,
00000000
00000000
00000000
00000000
,
00001000
00001000
00001000
00001000
,
00010000
00010000
00010000
00010000
,
00001000
00001000
00001000
00001000
,
00020000
00000000
00002000
00003000
,
00031000
00010000
01000000
00010000
,
01000000
00100000
00001000
00010000
,
00000100
00000010
00001000
00000100
,
00000010
00000001
00000100
00001000
,
00010000
01000000
00010000
00100000
,
01000000
00100000
00010000
00100000
,
10000000
00010000
00100000
00001000
,
00000100
00000000
00000000
00000000
00000000
00000000
00000000
00000000
00000000
00000000
00000000
00000000
00000000
00000000
00000000
00000000
00000000
00001001
00000000
00000000
00000000
00000000
00000000
00000000
00000000
00000000
00000000
00000000
00000000
00000000
00000000
00000000
,
00000020
00001030
00000200
00010300
,
00002000
00000000
00000100
00003000
,
00020000
00031000
02000000
03010000
,
20000000
00000000
00100000
30000000
,
00200000
01300000
00002000
00013000
,
00020000
00000000
00000100
00030000
,
00001000
00000100
00000010
00000100
,
00002002
00000000
00000000
00003003
,
00000011
00000001
00001100
00001000
,
00010100
00000000
00010000
00000000
00001000
00100000
00001000
00000000
,
10100000
00100000
01100000
01100000
,
00101000
00000000
00011000
00000000
00010000
00000100
00001000
00000000
,
00001001
00000000
00001001
00000000
00001000
00000100
00001000
00000000
,
00110000
00000000
00110000
00000000
01000000
00010000
01000000
00000000
,
00011000
00011000
00011000
00011000
,
00000100
00000000
00000000
00000100
00000000
00000000
00000100
00000000
00000000
00000100
00000000
00000000
00011000
00000000
00000000
00000000
,
00002000
00000000
00000000
00003000
,
00020000
00000000
00000000
00030000
,
00002000
00103000
00200000
00301000
,
20000000
30010000
00020000
10030000
,
20000000
30000000
01010000
01000000
,
00020000
00030000
00011000
00010000
,
00000200
00000300
00001100
00000100
,
00000010
00000010
00001001
00001001
,
00000200
00000300
00001100
00000100
,
00020000
00030000
00011000
00010000
,
02000000
03000000
01010000
01000000
,
00100000
00100000
20020000
30030000
,
20000000
00000000
30000000
00000000
,
00010000
00000000
00011000
00000000
,
00002000
00000000
00003000
00000000
,
00001000
00000000
00001001
00000000
,
00000002
00000000
00000003
00000000
,
00000001
00000000
00001001
00000000
,
00002000
00000000
00003100
00000000
,
00020000
00000000
00031000
00000000
,
00200000
00000000
00300000
00000000
,
01000000
00000000
01100000
00000000
,
00020000
00000000
00030000
00000000
,
00010000
00000000
00011000
00000000
,
00000020
00000000
00000030
00000000
,
00000010
00000000
00000110
00000000
,
00000001
00000000
00000100
00000000
,
00010000
00000000
01000000
00000000
,
10000000
00000000
01000000
00000000
,
00200000
00000000
00301000
00000000
,
00001000
00000000
00000010
00000000
,
00000002
00000000
00000103
00000000
,
00000010
00000000
00001000
00000000
,
00200000
00000000
10300000
00000000
,
10000000
00000000
00100000
00000000
,
00002000
00000000
00010000
00013000
,
00011000
00010000
00010000
00000100
,
00000010
00000010
00000010
00000100
,
00010000
00010000
00010000
00001000
,
01000000
00100000
10000000
00010000
,
01000000
01000000
00001000
00001000
,
00010000
00010000
00000100
00000100
,
00001000
00000001
00001000
00000100
,
00020000
00000000
00031000
00000000
,
00011000
00000000
00010000
00000000
,
00011000
00000000
00001000
00100000
,
00001000
00000000
01000000
00010000
,
01000000
00000000
10000000
00000000
,
10010000
00000000
10000000
00000000
,
10010000
00000000
10000000
00100000
,
10000000
00000000
00010000
01000000
,
00010000
00000000
01000000
00000000
,
01001000
00000000
01000000
00000000
,
01001000
00000000
00001000
00010000
,
00001000
00000000
00010000
00001000
,
00010000
00000000
00010000
00000000
,
00010010
00000000
00010000
00000000
,
00010010
00000000
00001000
00000100
,
00001000
00000000
00000001
00000100
,
00000001
00000000
00000010
00000000
,
00000010
00000000
00001000
00000000
,
00001000
00000000
00000100
00000000
,
00000100
00000000
00010000
00000000
,
00010000
00000000
00001000
00000000
,
00001000
00000000
01000000
00000000
,
01000000
00000000
00010000
00000000
,
00100000
00000000
01000000
00000000
,
10000000
00000000
10000000
00100000
,
10000000
00000000
00010000
01000000
,
00010000
00000000
01000000
00001000
,
01000000
00000000
00001000
00010000
,
00001000
00000000
00010000
00000010
,
00010000
00000000
00000001
00001000
,
00000001
00000000
00002000
00003000
,
00000200
00000300
00010000
00022000
,
00000000
00000000
00000000
00000000
,
00000000
00000000
00000000
00000000
,
00000000
00000000
00033000
00000000
;
