#TITLE:McGarfieldEVOLVED -Democratic Side-;
#SUBTITLE:;
#ARTIST:Raikunderground;
#TITLETRANSLIT:;
#SUBTITLETRANSLIT:;
#ARTISTTRANSLIT:;
#GENRE:;
#CREDIT:;
#BANNER:McGarfieldEVOLVED -Democratic Side-.png;
#BACKGROUND:McGarfieldEVOLVED -Democratic Side--jacket.png;
#LYRICSPATH:;
#CDTITLE:;
#MUSIC:McGarfieldEVOLVED -Democratic Side-.mp3;
#OFFSET:-2.571001;
#SAMPLESTART:36.456455;
#SAMPLELENGTH:10.941174;
#SELECTABLE:YES;
#DISPLAYBPM:85.000000:170.000000;
#BPMS:0.000000=170.000000
,62.000000=164.000000
,64.000000=170.009995
,65.000000=171.000000
,76.000000=170.000000
,128.000000=85.000000
,144.000000=170.000000
,160.000000=171.000000
,176.000000=170.100006
;
#STOPS:
;
#BGCHANGES:;
#KEYSOUNDS:;
#ATTACKS:;

//---------------dance-single - ----------------
#NOTES:
     dance-single:
     :
     Hard:
     15:
     0.751310,0.953919,0.474436,0.252360,0.646040,521.000000,474.000000,47.000000,25.000000,0.000000,0.000000,0.751310,0.953919,0.474436,0.252360,0.646040,521.000000,474.000000,47.000000,25.000000,0.000000,0.000000:
0000
0000
0000
0000
,
0000
0000
0000
0000
,
0000
0000
0000
0000
,
0000
0000
0000
0000
,
0001
1000
0001
1000
,
0010
0100
0010
0100
,
1000
0100
1000
0100
0001
0100
0001
0100
,
0020
0100
0100
0130
,
1001
1000
0100
0010
0001
0010
0100
0001
,
1001
0001
0010
0100
1000
0100
0010
0001
,
1001
1000
0010
0100
0001
0100
0010
1000
,
1001
0010
0100
1000
0001
0100
0010
0100
,
1001
1000
0100
0010
0011
0001
0100
0010
,
0110
0010
1000
0100
1100
1000
0010
0100
,
0101
0001
0010
1000
1100
1000
0001
0100
,
0020
0000
0000
0000
0000
0000
0000
0000
0000
0000
0000
0000
0000
0100
0000
0000
0000
0200
0000
0000
0000
0000
0000
0000
0000
0000
0000
0000
0330
0000
0000
0000
,
2000
3100
0002
0103
,
2000
3010
0002
0013
,
2000
3001
0002
1003
,
0200
0310
0020
0130
,
2000
0000
0000
0001
0000
0000
3001
0000
0200
0000
0000
0010
0000
0000
0310
0000
,
0002
0000
0000
1000
0000
0000
1003
0000
0020
0000
0000
0100
0000
0000
0130
0000
,
2000
0000
0000
0100
0000
0000
3100
0000
0002
0000
0000
0010
0000
0000
0013
0000
,
2000
0000
0000
0100
0200
0000
0000
3300
,
0011
0000
0100
0010
0001
0000
1000
0000
1100
0000
0001
0100
0010
0000
1000
0000
,
0101
0000
1000
0010
0100
0000
0101
0000
1000
0001
0100
0000
0001
1000
0100
0000
,
1100
0000
0001
0100
0010
0000
1000
0000
0101
0000
1000
0010
0100
0000
0001
0000
,
1100
0000
0001
0100
0010
0000
1100
0000
0001
0100
0010
0000
1000
0010
0100
0000
,
1001
0000
1000
0100
1000
0000
0001
0000
0110
0000
0001
0100
0001
0000
0100
0000
,
1100
0000
0010
0100
0010
0000
1000
0000
0101
0000
1100
0000
0101
0000
0100
0000
,
1100
0101
1100
0101
,
0101
0000
0000
1010
0000
0000
0101
0000
0000
1100
0000
0000
0101
0000
0010
0000
,
2000
0002
0000
0000
0000
0000
3003
0000
,
0001
0010
0100
0000
1000
0010
0100
0000
0001
1000
0001
0000
1000
0001
1000
0000
,
1000
0010
0100
0000
0001
0100
0010
0000
1000
0100
0010
0000
0001
0100
0010
0000
,
1000
0000
0000
0100
0000
0000
0010
0000
0000
0002
0000
0000
0103
0000
0000
0010
0000
0000
1000
0000
0000
0000
0000
0000
0001
0000
0000
0100
0000
0000
0010
0000
0000
1000
0000
0000
0100
0000
0010
0000
0001
0000
1000
0000
0100
0000
0010
0000
,
0001
0000
0000
1001
0000
0000
0010
0100
0010
0000
0000
1000
0000
0000
0001
0000
,
0100
0000
0000
0110
0000
0000
0010
0000
1100
0000
0000
0001
0100
0000
0010
0000
,
1000
0000
0000
0101
0000
0000
1000
0100
0010
0000
0000
0001
0100
0000
0010
0000
,
1100
0000
0000
0001
0100
0000
0010
0000
1000
0001
1000
0000
0010
0100
0010
0000
,
1000
0000
1000
0001
1000
0000
0010
0000
0100
0000
0010
0100
0010
0000
1000
0000
,
0001
0000
0100
0001
0100
0000
0001
0000
1000
0000
0010
1000
0010
0000
1000
0000
,
0001
0100
0001
0100
1000
0100
1000
0100
0001
0100
0001
0100
1000
0100
1000
0100
,
0001
0000
0000
0001
0010
0000
0000
0010
0200
0000
0000
0000
0300
0000
0000
0000
,
1001
0000
0000
0010
0100
0000
0001
0100
0001
0000
0000
0100
0010
0000
1000
0000
,
0001
0000
0000
1000
0100
0000
1000
0000
0001
0000
0000
1000
0001
0000
1000
0000
,
0010
0000
0000
0100
0010
0000
1000
0001
1000
0000
0000
0010
0100
0000
0001
0000
,
1000
0000
0000
0100
1000
0000
0010
0000
0100
0001
0100
0010
0100
1000
0100
0000
,
0001
0100
0000
0001
0100
0000
0010
1000
0010
0000
1000
0100
1000
0000
0001
0000
,
0100
0010
0000
1000
0010
0000
0100
0000
0001
1000
0000
0001
0100
0000
0010
0000
,
1000
0100
0000
1000
0100
0000
0001
0010
0001
0100
0000
0010
0100
0000
1000
0000
,
0101
0000
0000
0101
0000
0000
1000
0000
0110
0000
0000
0110
0000
0000
1000
0000
,
0101
0000
1000
0100
0000
0100
1000
0000
0010
0000
0100
0001
0000
0001
0100
0000
,
1000
0000
0010
0100
0000
0100
0010
0000
0001
0000
0100
0010
0000
0010
0100
0000
,
0001
1000
0100
1000
0001
0000
0100
0000
1000
0001
0100
0001
1000
0000
0010
0000
,
0001
0100
0010
0100
0001
0000
0100
0000
1000
0010
0100
0010
1000
0000
0100
0000
,
0001
0100
0001
0000
1000
0100
1000
0000
0010
0100
0010
0000
1000
0100
1000
0000
,
0001
0010
0100
0000
1000
0010
0100
0000
0100
0010
0001
0000
1000
0100
0010
0000
,
0001
0100
0001
0100
1000
0100
1000
0100
0010
0100
0010
0100
1000
0001
0100
0010
,
1000
0000
0001
0100
0000
0001
0100
0000
0101
0000
1000
0100
0000
1000
0100
0000
,
1100
2002
0000
0000
,
0000
0000
0000
0000
,
0000
0000
0000
0000
,
3003
0000
0000
0000
;

//---------------dance-single - ----------------
#NOTES:
     dance-single:
     :
     Medium:
     13:
     0.586916,0.858527,0.656135,0.201888,0.272548,407.000000,342.000000,65.000000,20.000000,0.000000,0.000000,0.586916,0.858527,0.656135,0.201888,0.272548,407.000000,342.000000,65.000000,20.000000,0.000000,0.000000:
// measure 0
0000
0000
0000
0000
,  // measure 1
0000
0000
0000
0000
,  // measure 2
0000
0000
0000
0000
,  // measure 3
0000
0000
0000
0000
,  // measure 4
0010
0010
0010
0010
,  // measure 5
0100
0100
0100
0100
,  // measure 6
0001
0100
0001
0100
0001
0100
0001
0100
,  // measure 7
0002
0000
2000
3000
,  // measure 8
1003
0000
0010
0100
0010
0000
0001
0100
,  // measure 9
0001
0000
1000
0100
1000
0000
0001
0000
,  // measure 10
0100
0000
0010
1000
0010
0000
0100
0010
,  // measure 11
0100
0000
0001
0100
0001
0000
1100
0000
,  // measure 12
0101
0000
1000
0100
0001
0000
0001
0100
,  // measure 13
1000
0000
0010
0100
0001
1000
0010
0000
,  // measure 14
1100
0000
0001
0100
0010
0000
1000
0100
,  // measure 15
0010
0000
0000
0000
0000
0000
0000
0000
0000
0000
0000
0000
0000
1000
0000
0000
0000
1001
0000
0000
0000
0000
0000
0000
0000
0000
0000
0000
0000
0000
0000
0000
,  // measure 16
0020
0130
2000
3001
,  // measure 17
0020
0000
0000
0200
0000
0330
1001
0000
,  // measure 18
2000
3001
0002
0103
,  // measure 19
0020
0000
0000
0200
0000
0330
1001
0000
,  // measure 20
1000
0000
0000
0001
0100
0000
0000
0000
0001
0000
0000
1000
0100
0000
0000
0000
,  // measure 21
1000
0000
0000
0001
0100
0000
0000
0000
0001
0000
0000
1000
0100
0000
0000
0000
,  // measure 22
0010
0000
0000
1000
0001
0000
0000
0000
0010
0000
0000
0001
1000
0000
0000
0000
,  // measure 23
0200
0000
0000
0020
0000
0000
0330
0000
,  // measure 24
1100
0000
0000
0001
0100
0000
0000
1000
0100
0000
0000
0001
0100
0000
0010
0000
,  // measure 25
1000
0000
0000
0100
0010
0000
0000
0100
0010
0000
1000
0000
0001
0000
0000
0000
,  // measure 26
1100
0000
0000
0010
0100
0000
0000
0001
0100
0000
0000
0010
0100
0000
0001
0000
,  // measure 27
1000
0000
0000
0010
0100
0000
0000
0001
0100
0000
0010
0000
1000
0000
0001
0000
,  // measure 28
0100
0000
0000
0010
0100
0000
0001
0000
1000
0000
0100
0000
0001
0000
0000
0000
,  // measure 29
0010
0000
0000
0100
0010
0000
0001
0000
1000
0000
0100
0000
0001
0000
0100
0000
,  // measure 30
1001
1001
1001
1001
,  // measure 31
0010
0000
0000
0010
0000
0000
0010
0000
0000
0010
0000
0000
1000
0000
0100
0000
,  // measure 32
0020
0200
0000
0000
0000
0000
0330
0000
,  // measure 33
0001
0100
0010
1000
0010
0100
0001
1000
,  // measure 34
1001
1001
1000
1100
0101
0101
0001
1001
,  // measure 35
0110
0110
1000
0001
0110
0110
0002
0000
,  // measure 36
1003
0000
0000
0001
0000
0000
0001
0000
0100
0000
0000
0001
0000
0000
0001
0000
,  // measure 37
1000
0000
0000
0001
0000
0000
0001
0000
1000
0000
0000
0010
0000
0000
0010
0000
,  // measure 38
0100
0000
0000
0010
0000
0000
0010
0000
0100
0000
0000
0001
0000
0000
0001
0000
,  // measure 39
1000
0000
0000
0001
0000
0000
0001
0000
1000
0000
0000
0100
0000
0000
0100
0000
,  // measure 40
1100
0000
0000
1000
0010
0000
0000
0010
0100
0000
0000
0100
0001
0000
0000
0001
,  // measure 41
1000
0000
0000
1000
0001
0000
0000
0001
1000
0000
0000
1000
0010
0000
0000
0010
,  // measure 42
0100
0100
0100
0100
0010
0010
0010
0010
,  // measure 43
2000
3002
0203
0300
,  // measure 44
1001
0000
1100
0001
0100
0000
0101
1000
,  // measure 45
0100
0000
0110
0001
1000
0001
0110
0000
,  // measure 46
1001
0000
1000
0001
0101
0000
0001
1000
,  // measure 47
1100
0000
0110
0001
1000
0100
0010
0001
,  // measure 48
1001
0000
0000
0010
0100
0000
0001
0000
1001
0000
0000
0100
0010
0000
1000
0000
,  // measure 49
1001
0000
0000
0001
0100
0000
0001
0000
0101
0000
1000
0000
1100
0000
0000
0000
,  // measure 50
0110
0000
0000
0001
1000
0000
0100
0010
0001
0000
0000
1000
0010
0000
0100
0000
,  // measure 51
1001
0000
0000
1001
0000
0000
0010
0000
0101
0000
0000
0101
0000
0000
0010
0000
,  // measure 52
1100
0000
0000
0100
0001
0000
1000
0000
0001
0000
0000
0100
1000
0000
0001
0000
,  // measure 53
0100
0000
0000
0001
1000
0000
0100
0000
0010
0000
1000
0000
0001
0000
0100
0000
,  // measure 54
0010
0000
0000
1000
0100
0000
0010
0000
1001
0000
0000
0001
0100
0000
0010
0000
,  // measure 55
1001
0000
0000
1000
0010
0000
0100
0000
1001
0000
0100
0000
0110
0000
0001
0000
,  // measure 56
1001
1000
1100
0000
1001
0001
0101
0000
,  // measure 57
0110
0001
0101
0000
0110
1000
1100
0000
,  // measure 58
0101
0100
0110
0010
1010
1000
1001
0001
,  // measure 59
0101
0000
0000
0110
0000
0000
1000
0000
1010
0000
0000
0110
0000
0000
1000
0000
,  // measure 60
1001
0220
0000
0000
,  // measure 61
0000
0000
0000
0000
,  // measure 62
0000
0000
0000
0000
,  // measure 63
0330
0000
0000
0000
;

//---------------dance-single - ----------------
#NOTES:
     dance-single:
     :
     Easy:
     8:
     0.399449,0.572352,0.736890,0.373492,0.010094,277.000000,204.000000,73.000000,37.000000,0.000000,0.000000,0.399449,0.572352,0.736890,0.373492,0.010094,277.000000,204.000000,73.000000,37.000000,0.000000,0.000000:
0000
0000
0000
0000
,
0000
0000
0000
0000
,
0000
0000
0000
0000
,
0000
0000
0000
0000
,
1000
1000
1000
1000
,
0001
0001
0001
0001
,
0010
0010
0010
0010
,
0200
0000
0000
0300
,
0001
1001
1000
1001
,
0100
0110
0010
0110
,
1000
1100
0100
1100
,
0001
0101
0100
0101
,
1100
0101
1100
0101
,
1001
0110
1001
0110
,
1010
0101
1010
0101
,
0220
0000
0000
0330
,
2000
3000
0002
0003
,
0200
0000
0310
0000
,
0002
0003
2000
3000
,
0020
0000
0130
0000
,
2000
0100
3100
0000
,
0002
0100
0103
0000
,
0020
0100
0130
0000
,
2200
3300
0202
0303
,
1100
0101
1000
0100
,
0101
1100
0001
0100
,
0110
1001
0100
0010
,
1001
0110
1000
0001
,
1100
0000
0001
0010
0001
0000
1000
0100
,
1000
0000
0010
0100
0010
0000
1000
0001
,
1000
1001
1001
1001
,
0010
0000
0000
0100
0000
0000
0010
0000
0000
0100
0000
0000
0010
0000
0010
0000
,
0020
0000
0000
0000
,
0030
0000
0000
0000
,
0200
0000
0000
0000
,
0300
0000
0000
0000
,
0001
0001
1001
1001
,
1000
1000
1001
1001
,
0100
0100
0110
0110
,
0010
0010
0110
0110
,
1100
1100
0101
0101
,
1100
1100
0101
0101
,
0011
0011
1010
1010
,
2002
0000
3003
0000
,
0020
1030
0002
0103
,
0020
0000
0130
0000
1000
0100
0001
0000
,
0200
0310
2000
3100
,
0002
0000
0103
0000
0001
0100
1000
0000
,
0020
1030
0002
0103
,
2000
0000
3100
0000
0001
0100
1000
0000
,
0020
1030
0200
0310
,
2002
3003
0220
0330
,
1100
0000
1100
0000
0001
0100
0001
0000
,
0101
0000
0101
0000
1000
0100
1000
0000
,
0011
0000
0011
0000
1000
0010
1000
0000
,
1010
0000
1010
0000
0001
0010
0001
0000
,
1100
0000
0101
0000
1000
0100
1000
0000
,
0101
0000
1100
0000
0001
0100
0001
0000
,
0110
0000
1001
0000
0100
0010
0100
0000
,
0001
0010
1000
0100
,
0001
2002
0000
0000
,
0000
0000
0000
0000
,
0000
0000
0000
0000
,
3003
0000
0000
0000
;

//---------------dance-single - ----------------
#NOTES:
     dance-single:
     :
     Beginner:
     4:
     0.168720,0.281633,0.111038,0.080755,0.000000,117.000000,106.000000,11.000000,8.000000,0.000000,0.000000,0.168720,0.281633,0.111038,0.080755,0.000000,117.000000,106.000000,11.000000,8.000000,0.000000,0.000000:
0000
0000
0000
0000
,
0000
0000
0000
0000
,
0000
0000
0000
0000
,
0000
0000
0000
0000
,
0001
0000
0000
0000
,
1000
0000
0000
0000
,
0001
0000
0000
0000
,
1000
0000
0000
0000
,
0010
0000
0010
0000
,
0100
0000
0100
0000
,
1000
0000
0001
0000
,
1000
0000
0001
0000
,
0100
0000
0100
0000
,
0010
0000
0010
0000
,
1000
0000
0100
0000
,
0002
0000
0003
0000
,
0100
0000
0000
0000
,
0100
0000
0000
0000
,
0010
0000
0000
0000
,
0010
0000
0000
0000
,
1000
0000
1000
0000
,
0001
0000
0001
0000
,
1000
0000
1000
0000
,
0002
0000
0003
0000
,
0100
0000
0100
0000
,
0010
0000
0010
0000
,
1000
0000
1000
0000
,
0001
0000
0001
0000
,
1001
0000
0000
0000
,
1001
0000
0000
0000
,
1001
0000
1001
0000
,
1001
0000
0000
0000
,
0020
0000
0000
0000
,
0030
0000
0000
0000
,
0200
0000
0000
0000
,
0300
0000
0000
0000
,
0001
0000
0001
0000
,
1000
0000
1000
0000
,
0001
0000
0001
0000
,
1000
0000
1000
0000
,
0010
0000
0010
0000
,
0100
0000
0100
0000
,
0010
0000
0010
0000
,
2002
0000
3003
0000
,
0001
0001
0001
0000
,
1000
1000
1000
0000
,
0010
0010
0010
0000
,
0100
0100
0100
0000
,
0001
0000
0010
0010
,
0010
0000
1000
1000
,
1000
0000
0100
0100
,
0100
0000
1001
0000
,
0010
0010
0010
0000
,
1000
1000
1000
0000
,
0001
0001
0001
0000
,
0100
0000
0010
0000
,
1000
0000
0001
0001
,
0001
0000
0100
0100
,
0100
0000
0010
0000
,
1001
0000
0110
0000
,
1001
2002
0000
0000
,
0000
0000
0000
0000
,
3003
0000
0000
0000
;

//---------------dance-double - ----------------
#NOTES:
     dance-double:
     :
     Hard:
     16:
     0.696512,0.886792,0.373492,0.242265,0.565285,483.000000,446.000000,37.000000,24.000000,0.000000,0.000000,0.696512,0.886792,0.373492,0.242265,0.565285,483.000000,446.000000,37.000000,24.000000,0.000000,0.000000:
00000000
00000000
00000000
00000000
,
00000000
00000000
00000000
00000000
,
00000000
00000000
00000000
00000000
,
00000000
00000000
00000000
00000000
,
00010000
00001000
00010000
00001000
,
00000010
00000100
00000010
00000100
,
00001000
00000100
00001000
00000100
00000001
00000100
00000001
00000100
,
00002000
00010000
00010000
00013000
,
10010000
10000000
01000000
00100000
00010000
00100000
01000000
00010000
,
00110000
00010000
00001000
00010000
00000100
00001000
00000010
00000001
,
00001001
00001000
00000010
00000100
00000001
00000100
00000010
00001000
,
00001100
00001000
00100000
00010000
01000000
00100000
10000000
01000000
,
10010000
10000000
01000000
00100000
00110000
00010000
00100000
00001000
,
00010000
00011000
00010000
00000010
00000100
00000001
00000010
00000100
,
00000010
00000100
00010000
00001000
00100000
00010000
10000000
01000000
,
00200000
00000000
00000000
00000000
00000000
00000000
00000000
00000000
00000000
00000000
00000000
00000000
00000000
01000000
00000000
00000000
00000000
02000000
00000000
00000000
00000000
00000000
00000000
00000000
00000000
00000000
00000000
00000000
03300000
00000000
00000000
00000000
,
20000000
31000000
00020000
00130000
,
00002000
00013000
00000020
00000130
,
00000002
00001003
00000200
00010300
,
00002000
01003000
20000000
30010000
,
20000000
00000000
00000000
00010000
00000000
00000000
30010000
00000000
02000000
00000000
00000000
00100000
00000000
00000000
03100000
00000000
,
00020000
00000000
00000000
10000000
00000000
00000000
10030000
00000000
00200000
00000000
00000000
01000000
00000000
00000000
01300000
00000000
,
20000000
00000000
00000000
01000000
00000000
00000000
31000000
00000000
00020000
00000000
00000000
00100000
00000000
00000000
00130000
00000000
,
20000000
00000000
00000000
01000000
02000000
00000000
00000000
33000000
,
00110000
00000000
00000000
01000000
00010000
00000000
00000000
00010000
00001000
00000000
00000000
00001000
00000100
00000000
00000000
00000100
,
00000010
00000000
00000100
00000010
00001000
00000000
00000001
00000000
00001100
00000000
00000110
00000000
00001001
00000000
00000000
00000000
,
00001100
00000000
00000000
00000010
00001000
00000000
00000000
00001000
00010000
00000000
00000000
00010000
00100000
00000000
00000000
00100000
,
01000000
00000000
00100000
01000000
00010000
00000000
10000000
00000000
00110000
00000000
01100000
00000000
10000000
00100000
01000000
00000000
,
10010000
00000000
10000000
01000000
10000000
00000000
00010000
00000000
01100000
00000000
00010000
00000000
00100000
00000000
00001000
00000000
,
00011000
00000000
00000100
00001000
00000100
00000000
00000010
00000000
00001000
00000000
00000010
00000000
00001010
00000000
00000100
00000000
,
00001100
01010000
00110000
00001100
,
00011000
00000000
00000000
00010000
00000000
00000000
01010000
00000000
00000000
01000000
00000000
00000000
00010000
00000000
00001000
00000000
,
00000200
00000020
00000000
00000000
00000000
00000000
00000000
00000330
,
00000001
00000100
00001000
00000100
00010000
00001000
01000000
00000000
00010000
10000000
01000000
00000000
00010000
10000000
01000000
00000000
,
10000000
00100000
01000000
00000000
00010000
00100000
00001000
00000000
00010000
00000010
00000100
00000000
00000001
00001000
00000100
00000000
,
00000001
00001000
00000100
00010000
00001000
01000000
00100000
00000000
10000000
01000000
00010000
00000000
00100000
00001000
00010000
00000000
,
00011000
00000000
00000000
00010000
00000100
00000000
00001000
00000010
00000100
00000000
00000000
00000001
00000100
00000000
00000010
00000000
,
00001000
00000000
00000000
00000100
00010000
00000000
00001000
00000000
00010000
00000000
00000000
00001000
01000000
00000000
00010000
10000000
,
00010000
00000000
00000000
10000000
01000000
00000000
10000000
00010000
10000000
00000000
00000000
00100000
01000000
00000000
00001000
00000000
,
00010000
00000000
00000000
00010000
00001000
00000000
00010000
00000000
00000010
00000000
00000000
00000100
00000010
00000000
00001000
00000000
,
00000001
00000001
00001000
00001000
00000010
00000010
00001000
00001000
,
00000100
00000100
00010000
00010000
00001000
00001000
01000000
01000000
,
00100000
10000000
00100000
10000000
00100000
01000000
00100000
01000000
00010000
01000000
00010000
01000000
00100000
01000000
00100000
01000000
,
00100000
00000000
00000000
10000000
00100000
00000000
00000000
01000000
00200000
00000000
00000000
00000000
00300000
00000000
00000000
00000000
,
10010000
00000000
00000000
01000000
00010000
00000000
00100000
00000000
00010000
00000000
00000000
00100000
00001000
00000000
00100000
00000000
,
00001000
00000000
00000000
00010000
00000100
00000000
00001000
00000000
00000010
00000100
00000000
00000010
00000100
00000000
00000001
00000000
,
00001000
00000000
00000000
00000100
00001000
00000000
00000100
00010000
00000100
00000000
00000000
00010000
00001000
00000000
00010000
00000000
,
00001000
00000000
00000000
01000000
00010000
00000000
01000000
00000000
00100000
00000000
10000000
01000000
10000000
00000000
00010000
00000000
,
01000000
00000000
00000000
00100000
01000000
00000000
10000000
00010000
10000000
00000000
00000000
00010000
01000000
00000000
00100000
00000000
,
10000000
00000000
00000000
01000000
10000000
00000000
00100000
00000000
01000000
00000000
00000000
00010000
01000000
00000000
00001000
00000000
,
00010000
00000000
00000000
00001000
00000000
00000000
00010000
00000100
00001000
00000000
00000000
00001000
00000010
00000000
00000100
00000000
,
00001001
00000000
00000000
00001001
00000000
00000000
00001000
00000000
00010100
00000000
00000000
00010100
00000000
00000000
00010000
00000000
,
00110000
00000000
00100000
00010000
00000000
00010000
01000000
00000000
00100000
00000000
00100000
10000000
00000000
10000000
01000000
00000000
,
00010000
00000000
00010000
01000000
00000000
01000000
00100000
00000000
10000000
00010000
01000000
00000000
00010000
00100000
00001000
00000000
,
00010000
00000000
00000100
00001000
00000000
00001000
00000010
00000100
00000001
00000000
00000001
00000100
00000000
00000010
00001000
00000100
,
00001000
00000000
00000100
00010000
00000000
00010000
00001000
00000000
00001000
01000000
00010000
00000000
00010000
10000000
01000000
00000000
,
10000000
00010000
10000000
00010000
01000000
00000000
00010000
10000000
00010000
00000000
01000000
00010000
01000000
00000000
00001000
00000000
,
00010000
00000100
00010000
00000100
00010000
00000000
00001000
00000010
00000100
00000000
00000001
00000100
00000010
00000000
00001000
00000000
,
00000100
00010000
00000100
00010000
00001000
00010000
00001000
00000000
00100000
00010000
00100000
00010000
01000000
00100000
01000000
00000000
,
10100000
00000000
00000000
00110000
00000000
00000000
00100000
00000000
00011000
00000000
00000000
00010100
00000000
00000000
00001000
00000000
,
00000101
00002002
00000000
00000000
,
00000000
00000000
00000000
00000000
,
00000000
00000000
00000000
00003003
;

//---------------dance-double - ----------------
#NOTES:
     dance-double:
     :
     Medium:
     13:
     0.523466,0.604149,0.423964,0.211982,0.277596,363.000000,321.000000,42.000000,21.000000,0.000000,0.000000,0.523466,0.604149,0.423964,0.211982,0.277596,363.000000,321.000000,42.000000,21.000000,0.000000,0.000000:
00000000
00000000
00000000
00000000
,
00000000
00000000
00000000
00000000
,
00000000
00000000
00000000
00000000
,
00000000
00000000
00000000
00000000
,
00001000
00001000
00001000
00001000
,
00010000
00010000
00010000
00010000
,
00001000
01000000
00001000
01000000
00001000
01000000
00001000
01000000
,
00020000
00000000
20000000
30000000
,
10030000
00000000
00100000
01000000
00100000
00000000
00010000
01000000
,
00010000
00000000
00100000
00001000
00100000
00000000
00010000
00000000
,
00000100
00000000
00000010
00001000
00000010
00000000
00000100
00000010
,
00000100
00000000
00000001
00000100
00000001
00000000
00001200
00000000
,
00010300
00000000
01000000
00001000
01000000
00000000
00010000
01000000
,
10000000
00000000
00100000
01000000
00010000
10000000
00100000
00000000
,
11000000
00000000
00010000
01000000
00100000
00000000
00001000
00010000
,
00000100
00000000
00000000
00000000
00000000
00000000
00000000
00000000
00000000
00000000
00000000
00000000
00000000
00000001
00000000
00000000
00000000
00001001
00000000
00000000
00000000
00000000
00000000
00000000
00000000
00000000
00000000
00000000
00000000
00000000
00000000
00000000
,
00000020
00001030
00000200
00010300
,
00002000
00010000
00000100
00013000
,
00020000
00031000
02000000
03010000
,
20000000
00100000
00001000
31000000
,
00200000
01300000
00002000
00013000
,
00020000
00000100
01000000
00030100
,
00001000
00010000
00000010
00000100
,
00002002
00000000
00003000
00000200
00000000
00000000
00000303
00000000
,
00000011
00000000
00000000
00000001
00000100
00000000
00000000
00000100
00001000
00000000
00000000
00001000
00000100
00000000
00000000
00000100
,
00010000
00000000
00000000
00010000
00001000
00000000
00000000
00001000
01000000
00000000
00100000
00000000
01000000
00000000
00000000
00000000
,
10000000
00000000
00000000
10000000
00100000
00000000
00000000
00100000
01000000
00000000
00000000
01000000
00001000
00000000
00000000
00001000
,
00010000
00000000
00000000
00010000
00000100
00000000
00000000
00000100
00001000
00000000
00000001
00000000
00001001
00000000
00000000
00000000
,
00000001
00000000
00000000
00000001
00001000
00000000
00000000
00001000
00000100
00000000
00010000
00000000
00001000
00000000
01000000
00000000
,
00100000
00000000
00000000
00100000
10000000
00000000
00000000
10000000
00010000
00000000
01000000
00000000
00001000
00000000
00010000
00000000
,
00011000
00011000
00011000
00011000
,
00000100
00000000
00000000
00001000
00000000
00000000
00100000
00000000
00000000
00010000
00000000
00000000
00001000
00000000
00010000
00000000
,
00002000
00020000
00000000
00000000
00000000
00000000
00033000
00000000
,
00001000
00000000
00100000
00000000
00010000
01000000
10000000
00000000
,
10000000
00100000
01000000
00010000
00001000
00000010
00000100
00000001
,
00000100
00000010
00001000
00000100
00010000
00001000
01000000
00100000
,
10010000
00000000
01100000
00000000
10010000
00000000
01000000
00010000
,
00110000
00000000
00011000
00000000
00110000
00000000
00001000
00010000
,
00001100
00000000
00001010
00000000
00001100
00000000
00000010
00001000
,
00000101
00000000
00001000
00000000
00000101
00000000
00000010
00001000
,
00001100
00000000
00011000
00000000
00110000
00000000
00010000
01000000
,
11000000
00000000
01010000
00000000
00011000
00000000
00010000
00000010
,
00000110
00000100
00000100
00010000
00001000
00001000
00001000
01000000
,
02020000
03030000
10010000
00000000
,
01100000
00000000
00000000
00100000
00000000
00000000
10000000
00000000
00010000
00000000
00000000
00010000
00000000
00000000
01000000
00000000
,
00001000
00000000
00000000
00001000
00000000
00000000
00010000
00000000
00000010
00000000
00000000
00001000
00000000
00000000
00000001
00000000
,
00000100
00000000
00000000
00000100
00000000
00000000
00000010
00000000
00010000
00000000
00000000
00010000
00000000
00000000
00001000
00000000
,
01000000
00000000
00000000
01000000
00000000
00000000
00100000
00000000
10000000
00000000
01000000
00000000
00100000
00000000
00010000
00000000
,
01000000
00000000
00000000
01000000
00000000
00000000
00010000
00000000
00100000
00000000
00000000
00100000
00000000
00000000
00001000
00000000
,
00010000
00000000
00000000
00010000
00000000
00000000
00000010
00000000
00000100
00000000
00000000
00000100
00000000
00000000
00000001
00000000
,
00001000
00000000
00000000
00001000
00000000
00000000
00000001
00001000
00000001
00000000
00000000
00000001
00000000
00000000
00001000
00000000
,
00001100
00000000
00000000
00001100
00000000
00000000
00010000
00000000
00011000
00000000
00000000
00011000
00000000
00000000
00001000
00000000
,
00010000
00000000
00000000
00001000
00010000
00000000
00001000
00000000
00100000
00000000
00000000
00010000
00100000
00000000
00010000
00000000
,
01000000
00000000
00000000
00100000
10000000
00000000
01000000
00000000
00010000
00000000
00000000
00100000
00001000
00000000
00010000
00000000
,
00000100
00000000
00000000
00001000
00000010
00000000
00000100
00000000
00000001
00000000
00000000
00001000
00000001
00000000
00001000
00000000
,
00000100
00000000
00000000
00010000
00000100
00000000
00010000
00000000
00001000
00000000
00000000
00100000
00001000
00000000
00100000
00000000
,
01010000
00000000
00000000
01010000
00000000
00000000
00010000
01000000
00100000
00000000
00000000
00100000
00000000
00000000
00100000
10000000
,
00100000
00000000
00000000
01000000
00000000
00000000
00100000
00000000
01000000
00000000
00000000
00001000
00000000
00000000
00010000
00000000
,
00000010
00000000
00000000
00000010
00000000
00000000
00001000
00000001
00000100
00000000
00000000
00000100
00000000
00000000
00000010
00000000
,
00001001
00000000
00000000
00001001
00000000
00000000
00000100
00000000
00001100
00000000
00000000
00001100
00000000
00000000
00010000
00000000
,
00001000
00022000
00000000
00000000
,
00000000
00000000
00000000
00000000
,
00000000
00000000
00000000
00000000
,
00033000
00000000
00000000
00000000
;

//---------------dance-double - ----------------
#NOTES:
     dance-double:
     :
     Easy:
     8:
     0.359072,0.572352,0.474436,0.191793,0.015142,249.000000,202.000000,47.000000,19.000000,0.000000,0.000000,0.359072,0.572352,0.474436,0.191793,0.015142,249.000000,202.000000,47.000000,19.000000,0.000000,0.000000:
00000000
00000000
00000000
00000000
,
00000000
00000000
00000000
00000000
,
00000000
00000000
00000000
00000000
,
00000000
00000000
00000000
00000000
,
00001000
00001000
00001000
00001000
,
00010000
00010000
00010000
00010000
,
00001000
00001000
00001000
00001000
,
00020000
00000000
00002000
00003000
,
00031000
00010000
01000000
00010000
,
01000000
00100000
00001000
00010000
,
00000100
00000010
00001000
00000100
,
00000010
00000001
00000100
00001000
,
00010000
01000000
00010000
00100000
,
01000000
00100000
00010000
00100000
,
10000000
00010000
00100000
00001000
,
00000100
00000000
00000000
00000000
00000000
00000000
00000000
00000000
00000000
00000000
00000000
00000000
00000000
00000000
00000000
00000000
00000000
00001001
00000000
00000000
00000000
00000000
00000000
00000000
00000000
00000000
00000000
00000000
00000000
00000000
00000000
00000000
,
00000020
00001030
00000200
00010300
,
00002000
00000000
00000100
00003000
,
00020000
00031000
02000000
03010000
,
20000000
00000000
00100000
30000000
,
00200000
01300000
00002000
00013000
,
00020000
00000000
00000100
00030000
,
00001000
00000100
00000010
00000100
,
00002002
00000000
00000000
00003003
,
00000011
00000001
00001100
00001000
,
00010100
00000000
00010000
00000000
00001000
00100000
00001000
00000000
,
10100000
00100000
01100000
01100000
,
00101000
00000000
00011000
00000000
00010000
00000100
00001000
00000000
,
00001001
00000000
00001001
00000000
00001000
00000100
00001000
00000000
,
00110000
00000000
00110000
00000000
01000000
00010000
01000000
00000000
,
00011000
00011000
00011000
00011000
,
00000100
00000000
00000000
00000100
00000000
00000000
00000100
00000000
00000000
00000100
00000000
00000000
00011000
00000000
00000000
00000000
,
00002000
00000000
00000000
00000000
,
00003000
00000000
00000000
00000000
,
00020000
00000000
00000000
00000000
,
00030000
00000000
00000000
00000000
,
00100000
00000000
10010000
00000000
,
01000000
01000000
00100000
00100000
,
00001000
00000000
00011000
00000000
,
00010000
00010000
00000100
00000100
,
00001001
00001001
00001001
00000100
,
00011000
00011000
00011000
00100000
,
10010000
10010000
10010000
01000000
,
00002000
00000000
00020000
00033000
,
00010000
00000000
00001000
00000000
00000010
00000000
00000100
00000001
,
00000100
00000010
00001000
00000100
,
00010000
00000000
00001000
00000000
01000000
00000000
00100000
10000000
,
00100000
01000000
00001000
00010000
,
00000010
00000000
00000100
00000000
00001001
00000000
00000010
00000100
,
00000010
00001000
00000100
00010000
,
01000000
00000000
00100000
00000000
10010000
00000000
01000000
00100000
,
01000000
00000000
10010000
00000000
,
00100000
00000000
00001000
00000000
00010000
00000000
00000100
00001000
,
00000100
00000000
00010000
00000000
00001000
00000000
01000000
00010000
,
01000000
00000000
00100000
00000000
10000000
00000000
00010000
01000000
,
00010000
00000000
00100000
00000000
00001000
00000000
00010000
00000100
,
00001000
00001010
00001010
00011000
,
00011000
00110000
00110000
10010000
,
01010000
01010000
00011000
00011000
,
00001010
00000000
00011000
00000000
,
00100000
00022000
00000000
00000000
,
00000000
00000000
00000000
00000000
,
00000000
00000000
00000000
00000000
,
00033000
00000000
00000000
00000000
;
