#TITLE:Light of my Life;
#SUBTITLE:;
#ARTIST:S3RL;
#TITLETRANSLIT:;
#SUBTITLETRANSLIT:;
#ARTISTTRANSLIT:;
#GENRE:;
#CREDIT:;
#BANNER:Light of my Life.png;
#BACKGROUND:Light of my Life-bg.png;
#LYRICSPATH:;
#CDTITLE:;
#MUSIC:Light of my Life.ogg;
#OFFSET:0.240000;
#SAMPLESTART:71.219872;
#SAMPLELENGTH:16.420000;
#SELECTABLE:YES;
#BPMS:0.000000=175.000000
;
#STOPS:
;
#BGCHANGES:;
#KEYSOUNDS:;
#ATTACKS:;

//---------------dance-single - ----------------
#NOTES:
     dance-single:
     :
     Hard:
     11:
     0.594263,0.614933,0.212780,0.138307,0.042556,391.000000,371.000000,20.000000,13.000000,0.000000,0.000000,0.594263,0.614933,0.212780,0.138307,0.042556,391.000000,371.000000,20.000000,13.000000,0.000000,0.000000:
0000
0000
0000
0000
,
0000
0000
0000
0000
,
0000
0000
0000
0000
,
0000
0000
0000
0000
,
0000
0000
0000
0000
,
2002
0000
0000
3003
,
0000
0100
0001
0100
0001
0000
1000
0010
,
2000
0000
0000
3000
,
0000
0001
0100
0001
0100
0000
1000
0001
,
1000
0000
0000
0010
0100
0010
0100
0010
,
0100
0000
0000
0001
1000
0001
1000
0002
,
2000
0000
0000
3003
,
0000
0100
0010
0100
0010
0000
1000
0100
,
1000
0000
0001
1000
1000
0000
0001
0000
,
1000
0000
0000
1000
0001
0000
1000
0000
1000
0000
0000
0000
0001
0000
0000
0000
,
0100
0000
0001
0100
0100
0000
0001
0000
,
1000
0000
0000
1000
0001
0000
1000
0000
1000
0000
0000
0000
0010
0000
0100
0000
,
0010
0000
1000
0100
1000
0100
1000
0100
,
1000
0000
0001
0010
0001
0010
0001
0010
,
0002
0000
0000
0000
,
1003
0010
0100
0010
,
1001
0000
1001
0000
0100
0010
0100
0010
,
0100
0000
0000
0100
0010
0000
0010
0000
1000
0000
0001
0000
1000
0000
0001
0000
,
1000
0000
1000
0000
0001
0100
0001
0100
,
0001
0000
0000
0100
0001
0000
0001
0000
1000
0000
0001
0000
1000
0000
0010
0000
,
1000
0000
0100
0000
0001
0100
0001
0100
,
0001
0000
0000
1000
0001
0000
0001
0000
0100
0000
0010
0000
1000
0000
0010
0000
,
0100
0000
0001
0000
1000
0100
0010
0001
,
0100
0000
0010
1000
0010
0100
0010
1000
,
0010
1000
0100
0001
,
0010
1000
0100
0001
,
0010
0001
0100
1000
,
0010
0001
0100
1000
,
0001
1000
0001
1000
0001
1000
0001
1000
,
0010
0100
0010
0100
0010
0100
0010
0100
,
0001
1000
0010
0100
0001
1000
0010
0100
,
0002
0003
2000
3000
0020
0030
0100
1000
,
1001
0000
1001
0000
0100
0010
0100
0010
,
1000
0000
0001
0000
1000
0010
1000
0010
,
1000
0000
0100
0000
1000
0010
1000
0010
,
1000
0000
0010
0100
0010
0000
0100
0010
,
0100
0000
1001
0000
0100
0001
1000
0001
,
0100
0000
1001
0000
0010
1000
0100
1000
,
0010
0000
1001
0000
0100
0001
0010
0001
,
0100
0000
0010
0010
1000
0001
1000
0001
,
1000
0000
0101
0000
1000
0010
0100
0001
,
1000
0000
0000
0001
1000
0000
0010
0000
1000
0000
0100
0000
1000
0000
0010
0000
,
1000
0000
1001
0000
0010
0100
0001
1000
,
0001
0000
0000
1000
0001
0000
0100
0000
0001
0000
0010
0000
0001
0000
0100
0000
,
0001
0000
1001
0000
0010
1000
0100
1000
,
0010
0000
0000
0010
1000
0000
0100
0000
1000
0000
0010
0000
0100
0000
0001
0000
,
1000
1001
0110
1001
,
0000
0010
0100
0010
0100
0000
1000
0001
,
1000
0000
0002
0003
0200
0300
0010
1000
,
0010
0100
0001
0100
0001
0000
1000
0100
,
1000
0000
0020
0030
0200
0300
0010
1000
,
0010
1000
0001
0100
0001
0100
0010
0100
,
0010
0000
1000
0100
1000
0010
1000
0001
,
1000
0000
0001
0100
0001
0010
0001
0100
,
0001
0000
1000
0000
0010
0000
0100
0010
,
0100
0001
0001
1000
1000
0000
0010
0100
,
0001
0000
1001
0000
1100
0000
0001
0100
,
0010
1000
0010
0100
0010
0000
1000
0001
,
0100
0000
0101
0000
1100
0000
0010
1000
,
0100
1000
0010
0000
0100
0001
0100
0001
,
0100
0000
1001
0000
1000
0010
1000
0010
,
1000
0000
0110
0000
1000
0001
1000
0001
,
1000
0000
0001
1000
0001
0100
0001
1000
,
0001
0000
0000
0000
;

//---------------dance-double - ----------------
#NOTES:
     dance-double:
     :
     Hard:
     10:
     0.530429,0.651105,0.351086,0.117029,0.000000,349.000000,316.000000,33.000000,11.000000,0.000000,0.000000,0.530429,0.651105,0.351086,0.117029,0.000000,349.000000,316.000000,33.000000,11.000000,0.000000,0.000000:
00000000
00000000
00000000
00000000
,
00000000
00000000
00000000
00000000
,
00000000
00000000
00000000
00000000
,
00000000
00000000
00000000
00000000
,
00000000
00000000
00000000
00000000
,
20020000
00000000
00000000
30030000
,
00000000
00010000
01000000
00010000
01000000
00000000
00010000
00000000
,
00002000
00000000
00000000
00003000
,
00000000
00010000
00001000
00010000
00001000
00000000
00010000
00000000
,
00000100
00000000
00000000
00001000
00000010
00000000
00000100
00000000
,
00000001
00000000
00000000
00001000
00000001
00001000
00000001
00001000
,
00000002
00000000
00000000
00000000
00000000
00000000
00000000
00000003
,
00000000
00001000
00000100
00010000
,
00022000
00000000
00000000
00033000
,
00000000
00100000
00001000
00000000
01000000
00010000
01000000
00010000
,
02000000
00000000
00000000
03100000
,
00000000
10000000
01000000
10000000
01000000
00000000
00100000
00000000
,
00010000
00000000
00100000
00001000
00100000
00000000
00010000
00000000
,
00001000
00000000
00010000
00000100
00010000
00000000
00000100
00000000
,
00002000
00000000
00000000
00000000
00000000
00000000
00003010
00000100
,
00000010
00000010
00000010
00000010
,
00001001
00000000
00001001
00000000
00000100
00000010
00000100
00000010
,
00000100
00000000
00000010
00000000
00001000
00000001
00001000
00000001
,
00001000
00000000
00000100
00000000
00010000
00001000
00010000
00001000
,
00010000
00000000
00100000
00000000
00010000
01000000
00010000
01000000
,
00010000
00000000
10000000
00000000
00100000
01000000
00100000
01000000
,
00100000
00000000
00001000
00000000
00010000
00001000
00010000
00001000
,
00010000
00000000
00000100
00000000
00001000
00000010
00001000
00000010
,
00001000
00000001
00000100
00001000
,
00001001
00001001
00001010
00001010
,
00001100
00001100
00011000
00011000
,
00110000
00110000
01010000
01010000
,
10010000
00000000
10010000
00000000
01000000
00100000
01000000
00100000
,
10000000
00010000
10000000
00010000
01000000
00100000
01000000
00100000
,
10000000
00010000
10000000
00010000
00100000
00010000
00100000
00010000
,
00001000
00010000
00001000
00010000
00001000
00010000
00001000
00020000
,
00002000
00000000
00000000
00000000
00000000
00033000
00000000
00000000
,
00000100
00000000
00001100
00000000
00000010
00000100
00000010
00000000
,
00000001
00000000
00000011
00000000
00000010
00000100
00000010
00000000
,
00001000
00000000
00001100
00000000
00000100
00010000
00001000
00010000
,
00001000
00000000
00011000
00000000
00100000
00010000
01000000
00010000
,
01000000
00000000
01100000
00000000
10000000
01000000
10000000
01000000
,
10000000
00000000
11000000
00000000
00100000
01000000
00000000
01000000
,
00010000
00000000
00110000
00000000
00100000
00001000
00010000
00001000
,
00010000
00000100
00010000
00000000
00001000
00000000
00000100
00000010
,
00000100
00000000
00000110
00000000
00001001
00000000
00000001
00000010
,
00000100
00000000
00001000
00000000
00000110
00000000
00000100
00001000
,
00010000
00000000
00001000
00000000
00101000
00000000
00100000
00010000
,
01000000
00000000
01010000
00000000
10100000
00000000
01000000
00010000
,
10000000
00000000
00010000
00000000
00100000
00000000
00001000
00010000
,
00001000
00000000
00011000
00000000
00000100
00001000
00000010
00000100
,
00000001
00000000
00001001
00000000
00000010
00000100
00001000
00000100
,
00000010
00001000
00000010
00000100
00000010
00000000
00001000
00000100
,
00001000
00000000
00000100
00000000
00010000
00000000
00001000
00100000
,
00000000
00010000
01000000
00100000
10000000
01000000
00100000
00010000
,
01000000
00000000
00010000
00000000
00001000
00000000
00010000
00001000
,
00000000
00001000
00000010
00000100
00000010
00000000
00001000
00000000
,
00000100
00000000
00010000
00001000
00100000
00000000
00010000
00000000
,
00100000
00000000
00010000
01000000
00010000
00000000
00100000
00000000
,
20000000
00000000
00000000
00000000
00000000
00000000
30010000
01000000
,
00000000
00100000
00010000
00100000
00010000
00000000
00010000
00001000
,
00010000
00000000
00001000
00000000
00000100
00000000
00000010
00000100
,
00000010
00000000
00001000
00000000
00010000
00000000
01000000
00010000
,
01000000
00000000
00010000
00000000
00000100
00000000
00001000
00000010
,
00001000
00000000
00010000
00000000
00001000
00000000
01000000
00010000
,
01000000
00000000
10000000
01000000
10000000
00000000
00010000
00100000
,
00010000
00000000
00001000
00010000
00001000
00000000
00001000
00000100
,
00000010
00000000
00000001
00001000
00000001
00000100
00000001
00000010
,
00000001
00000000
00000000
00000000
;

//---------------dance-single - ----------------
#NOTES:
     dance-single:
     :
     Medium:
     8:
     0.452916,0.542588,0.148946,0.063834,0.000000,298.000000,284.000000,14.000000,6.000000,0.000000,0.000000,0.452916,0.542588,0.148946,0.063834,0.000000,298.000000,284.000000,14.000000,6.000000,0.000000,0.000000:
0000
0000
0000
0000
,
0000
0000
0000
0000
,
0000
0000
0000
0000
,
0000
0000
0000
0000
,
0000
0000
0000
0000
,
0020
0000
0000
0030
,
0000
0001
0100
1000
,
0020
0000
0000
0030
,
0000
1000
0100
0001
,
0010
0000
0100
0010
,
0100
0000
0000
0000
0001
1000
0001
1000
,
0002
0000
0000
0003
,
0000
0010
0100
0010
,
2002
0000
0000
3003
,
0000
0100
0010
0000
1000
0000
0001
0000
,
0200
0000
0000
0300
,
0000
0001
0100
0000
0001
0000
1000
0000
,
0001
0000
1000
0010
1000
0000
0001
0000
,
0100
0000
0001
1000
0001
0000
0100
0000
,
0010
0000
0010
0000
0010
0000
0001
1000
,
0010
0010
0010
0010
,
0101
0000
0000
0000
0001
1000
0001
1000
,
0001
0000
0000
0000
1000
0100
1000
0100
,
1000
0000
0000
0000
0001
0010
0001
0010
,
0001
0000
0000
0000
0100
0010
0100
0010
,
0100
0000
0000
0000
0001
1000
0001
1000
,
0001
0000
0000
0000
1000
0100
1000
0100
,
1000
0000
0000
0000
0001
0010
0001
0010
,
0001
0000
0010
0000
1000
0010
1000
0010
,
1000
1000
1000
1000
,
0001
0001
0001
0001
,
0100
0100
0100
0100
,
0010
0010
0010
0010
,
1000
0001
1000
0000
0001
1000
0001
0000
,
1000
0001
1000
0000
0001
1000
0001
0000
,
0100
0100
0100
0100
,
0010
0000
1000
0000
0001
0000
1000
0001
,
1000
0000
1000
0000
0001
0000
0100
0010
,
0100
0000
0001
0000
0001
0000
1000
0001
,
1000
0000
0010
0000
0010
0000
1000
0100
,
1000
0000
0001
0000
0010
0000
0001
0010
,
0001
0000
0100
0000
0100
0000
0010
1000
,
0010
0000
0100
0000
0100
0000
0001
0010
,
0001
0000
0100
0000
0100
0000
0001
1000
,
0001
0000
0100
0000
0010
1000
0010
1000
,
0010
0000
0010
0000
0100
0001
0100
0001
,
0100
0001
1000
0001
,
0100
0000
0010
0000
1000
0001
1000
0001
,
1000
0010
0100
0001
,
1000
0000
1000
0000
0001
0100
0001
0100
,
0001
0010
0001
1000
,
0100
0001
0100
1000
,
0010
0100
0100
0001
,
1001
0000
1100
0000
0101
0000
0001
1000
,
0001
0010
0100
1000
,
0010
1001
0101
1100
,
0010
0000
0100
0000
0001
1000
0001
1000
,
0001
0000
0000
0000
0100
0010
0100
0010
,
0100
0000
0000
0000
1000
0010
1000
0010
,
1000
0000
0001
0000
0001
0000
0100
0001
,
0000
1000
0100
1000
0100
0000
0010
0000
,
1001
0000
1100
0000
0001
0000
0001
1000
,
0001
0110
1001
0010
,
0101
0000
1100
0000
0010
0000
0100
0001
,
0100
0000
0010
0000
1000
0100
1000
0100
,
1000
0000
0001
0000
0010
0100
0010
0100
,
0010
0000
1000
0000
0001
0100
0001
0100
,
0001
0000
1000
0100
1000
0000
0010
0100
,
0010
0000
0000
0000
;

//---------------dance-double - ----------------
#NOTES:
     dance-double:
     :
     Medium:
     8:
     0.445317,0.578760,0.329808,0.117029,0.000000,293.000000,262.000000,31.000000,11.000000,0.000000,0.000000,0.445317,0.578760,0.329808,0.117029,0.000000,293.000000,262.000000,31.000000,11.000000,0.000000,0.000000:
// measure 0
00000000
00000000
00000000
00000000
,  // measure 1
00000000
00000000
00000000
00000000
,  // measure 2
00000000
00000000
00000000
00000000
,  // measure 3
00000000
00000000
00000000
00000000
,  // measure 4
00000000
00000000
00000000
00000000
,  // measure 5
00022000
00000000
00000000
00033000
,  // measure 6
00000000
00000100
00000100
00000100
,  // measure 7
00000220
00000000
00000000
00000000
,  // measure 8
00000330
00000001
00001000
00000100
,  // measure 9
00001010
00000000
00000100
00010000
,  // measure 10
00011000
00000000
00001000
00100000
,  // measure 11
00020000
00000000
00000000
00030000
,  // measure 12
00000000
01000000
00100000
01000000
00100000
00000000
10000000
00000000
,  // measure 13
20020000
00000000
00000000
30030000
,  // measure 14
00000000
00010000
00001000
00010000
00001000
00000000
00010000
00000000
,  // measure 15
00022000
00000000
00000000
00033000
,  // measure 16
00000000
00000100
00001000
00000100
00001000
00000000
00000010
00000000
,  // measure 17
00000100
00000000
00000001
00001000
00000001
00000000
00000100
00000000
,  // measure 18
00000010
00000000
00001000
00000100
00001000
00000000
00000100
00000000
,  // measure 19
00020000
00000000
00000000
00030000
,  // measure 20
00001000
00001000
00001000
00001000
,  // measure 21
00100000
00000000
00100000
00000000
00010000
01000000
00010000
00000000
,  // measure 22
00100000
00000000
00100000
00000000
10000000
01000000
10000000
00000000
,  // measure 23
00100000
00000000
00100000
00000000
10000000
00010000
10000000
00000000
,  // measure 24
00100000
00100000
10000000
00010000
,  // measure 25
01000000
01000000
00000000
00010000
,  // measure 26
00001000
00010000
00000000
00000100
,  // measure 27
00000100
00000100
00000000
00001000
,  // measure 28
00000010
00000001
00000100
00001000
,  // measure 29
00000010
00000000
00000010
00000000
00001000
00000100
00001000
00000000
,  // measure 30
00000100
00000000
00000100
00000000
00010000
00001000
00010000
00000000
,  // measure 31
00001000
00000000
00001000
00000000
00100000
00010000
00100000
00000000
,  // measure 32
01000000
00000000
01000000
00000000
10000000
00010000
10000000
00000000
,  // measure 33
00100000
00100000
00001000
00001000
,  // measure 34
00010000
00010000
00000010
00000010
,  // measure 35
00000000
00001000
00000001
00000100
00000001
00000000
00001000
00000000
,  // measure 36
00000010
00000010
00000010
00000010
,  // measure 37
00001000
00000000
00001000
00000000
00000100
00001000
00000100
00001000
,  // measure 38
00000100
00000100
00010000
00001000
,  // measure 39
00100000
00000000
00100000
00000000
00010000
01000000
00010000
01000000
,  // measure 40
00010000
00100000
10000000
01000000
,  // measure 41
00100000
00000000
00100000
00000000
00001000
00010000
00001000
00010000
,  // measure 42
00001000
00010000
00010000
00010000
,  // measure 43
00000100
00000000
00000100
00000000
00000010
00001000
00000010
00001000
,  // measure 44
00000010
00000010
00000001
00000100
,  // measure 45
00001001
00000000
00001001
00000000
00000010
00000100
00000010
00000100
,  // measure 46
00000010
00000010
00001000
00000100
,  // measure 47
00011000
00000000
00011000
00000000
00001000
00010000
00001000
00010000
,  // measure 48
00001000
00000000
01000000
00000000
00010000
00000000
10000000
00010000
,  // measure 49
10000000
00100000
01000000
00010000
,  // measure 50
00001000
00000000
00010000
00000000
00000010
00000100
00000010
00000100
,  // measure 51
00000010
00001000
00000001
00000100
,  // measure 52
00001010
00000010
00000010
00000010
,  // measure 53
00001001
00000000
00001100
00000000
00000101
00000000
00000001
00000010
,  // measure 54
00000100
00001000
00010000
00100000
,  // measure 55
00010000
00000000
01010000
00000000
11000000
00000000
00100000
01000000
,  // measure 56
00100000
10000000
00010000
00100000
,  // measure 57
00011000
00000000
00000000
00010000
00001000
00010000
00001000
00010000
,  // measure 58
00001000
00000000
00000000
00000100
00001000
00000000
00000010
00000000
,  // measure 59
00001001
00000000
00001100
00000000
00000101
00000000
00000001
00001000
,  // measure 60
00000000
00000010
00000100
00000000
00001000
00000000
00010000
00000000
,  // measure 61
00011000
00000000
00101000
00000000
00110000
00000000
00010000
01000000
,  // measure 62
00100000
00010000
00100000
00010000
,  // measure 63
00011000
00010100
00001100
00001010
,  // measure 64
00000100
00000000
00001001
00000000
00000110
00000000
00001000
00000100
,  // measure 65
00001000
00011000
00011000
00100000
,  // measure 66
00010000
01000000
00100000
10000000
,  // measure 67
00020000
00000000
00000000
00000000
00030000
00000000
10000000
00010000
,  // measure 68
10000000
00000000
00000000
00000000
;

//---------------dance-single - ----------------
#NOTES:
     dance-single:
     :
     Beginner:
     3:
     0.165664,0.217035,0.000000,0.117029,0.000000,109.000000,109.000000,0.000000,11.000000,0.000000,0.000000,0.165664,0.217035,0.000000,0.117029,0.000000,109.000000,109.000000,0.000000,11.000000,0.000000,0.000000:
0000
0000
0000
0000
,
0000
0000
0000
0000
,
0000
0000
0000
0000
,
0000
0000
0000
0000
,
0000
0000
0000
0000
,
0020
0000
0030
0000
,
0000
0000
0001
0000
,
0002
0000
0003
0000
,
0000
0000
0100
0000
,
0200
0000
0300
0000
,
0200
0000
0300
0000
,
0020
0000
0030
0000
,
0000
0000
1000
0000
,
2000
0000
3000
0000
,
0000
0000
0001
0000
,
0002
0000
0003
0000
,
0000
0000
0100
0000
,
0200
0000
0300
0000
,
0020
0000
0030
0000
,
0200
0000
0300
0000
,
0000
0000
0000
0000
,
0001
0000
0001
0000
,
0001
0000
0001
0000
,
1000
0000
1000
0000
,
1000
0000
1000
0000
,
0001
0000
0001
0000
,
1000
0000
1000
0000
,
0001
0000
1000
0000
,
0001
0000
1000
0000
,
0010
0000
0000
0000
,
0010
0000
0000
0000
,
0100
0000
0000
0000
,
0100
0000
0000
0000
,
0010
0000
0010
0000
,
0100
0000
0100
0000
,
0010
0000
0100
0000
,
0010
0010
0010
0000
,
1000
0000
0001
0000
,
1000
0000
0001
0000
,
0100
0000
0010
0000
,
0100
0000
0010
0000
,
1000
0000
0100
0000
,
1000
0000
0100
0000
,
0010
0000
0001
0000
,
0010
0000
0001
0000
,
0100
0000
0010
0000
,
1000
0000
0001
0000
,
1000
0000
0100
0000
,
0010
0000
0001
0000
,
1000
0000
0100
0000
,
1000
0000
0100
0000
,
0001
0000
0010
0000
,
0100
0000
0000
0000
,
0001
0001
0001
0000
,
0100
0000
0100
0000
,
1000
1000
1000
0000
,
0100
0000
0100
0000
,
0010
0000
0010
0000
,
1000
0000
1000
0000
,
0001
0001
0001
0000
,
0100
0000
0100
0000
,
0001
0001
0001
0000
,
0100
0000
0100
0000
,
1000
1000
1000
0000
,
0010
0000
0010
0000
,
0100
0000
0001
0000
,
1000
0000
0001
0000
,
0020
0000
0000
0000
,
0030
0000
0000
0000
;

//---------------dance-single - ----------------
#NOTES:
     dance-single:
     :
     Easy:
     6:
     0.375404,0.578760,0.276613,0.191502,0.000000,247.000000,221.000000,26.000000,18.000000,0.000000,0.000000,0.375404,0.578760,0.276613,0.191502,0.000000,247.000000,221.000000,26.000000,18.000000,0.000000,0.000000:
0000
0000
0000
0000
,
0000
0000
0000
0000
,
0000
0000
0000
0000
,
0000
0000
0000
0000
,
0000
0000
0000
0000
,
2002
0000
0000
0000
,
3003
0000
0010
1000
,
2002
0000
0000
0000
,
3003
0000
0010
0001
,
0100
0000
0010
1000
,
0100
0000
0010
0100
,
2002
0000
0000
0000
,
3003
0000
1000
0001
,
0200
0010
0000
0310
,
0000
0001
1000
0001
,
0200
0010
0000
0310
,
0000
1000
0100
1000
,
0100
0000
0010
0001
,
0010
0000
0100
0010
,
2000
0001
0000
3001
,
0100
0100
0100
0100
,
0001
0001
2000
3100
,
1000
1000
0002
0103
,
0010
0010
2000
3001
,
0100
0100
0002
1003
,
0010
0010
2000
3100
,
0010
0010
0002
0103
,
0010
0010
2000
3001
,
0010
0010
0002
1003
,
0100
0100
1001
1001
,
0010
0010
1001
1001
,
0100
0100
1001
1001
,
0010
0010
1001
1001
,
1000
1001
0001
1001
,
1000
1001
0001
1001
,
0110
0110
1001
1001
,
0010
0100
0001
1000
,
0010
0010
1000
0100
,
0010
0010
0001
0100
,
1000
1000
0100
0010
,
0001
0001
0100
0010
,
0001
0001
0100
0010
,
1000
1000
0100
0010
,
0001
1000
0100
0010
,
0001
0010
0100
1000
,
0010
0010
1000
1001
,
0010
0010
0001
1001
,
0100
0100
1000
1001
,
0100
0100
0001
1001
,
0010
1000
0001
1001
,
0010
0001
1000
1001
,
0100
1000
0001
1000
,
0100
0000
0010
1000
,
0100
0001
0001
0001
,
0000
0010
0001
0100
,
1000
0010
0010
0010
,
0000
0010
1000
0001
,
0100
0010
1000
0001
,
0100
0010
1000
0001
,
0100
0100
0100
0010
,
0000
1000
0100
0001
,
0010
0010
0100
0100
,
0000
0001
0100
1000
,
0010
0010
0100
0100
,
0000
1000
0001
0100
,
0010
0010
1000
1000
,
0001
0001
0100
0100
,
0020
0000
0000
0130
,
1001
0000
0000
0000
;

//---------------dance-double - ----------------
#NOTES:
     dance-double:
     :
     Easy:
     6:
     0.335888,0.325553,0.000000,0.053195,0.000000,221.000000,221.000000,0.000000,5.000000,0.000000,0.000000,0.335888,0.325553,0.000000,0.053195,0.000000,221.000000,221.000000,0.000000,5.000000,0.000000,0.000000:
00000000
00000000
00000000
00000000
,
00000000
00000000
00000000
00000000
,
00000000
00000000
00000000
00000000
,
00000000
00000000
00000000
00000000
,
00000000
00000000
00000000
00000000
,
00020000
00000000
00000000
00000000
,
00030000
00000000
00000000
00000000
,
00002000
00000000
00000000
00000000
,
00003000
00000000
00000000
00000000
,
00010000
00000000
00001000
00010000
,
00001000
00000000
00010000
00001000
,
00020000
00000000
00000000
00000000
,
00030000
00000000
00000010
00000100
,
00000010
00001000
00000000
00001000
,
00000000
00000010
00000001
00000100
,
00000001
00000010
00000000
00000010
,
00000000
00001000
00000100
00001000
,
00010000
00000000
00001000
00010000
,
00001000
00000000
00010000
00001000
,
00020000
00000000
00000000
00030000
,
00001000
00001000
00001000
00001000
,
00100000
00100000
00010000
00010000
,
01000000
01000000
10000000
10000000
,
00100000
00100000
00001000
00001000
,
00010000
00010000
00000010
00000010
,
00000100
00000100
00000001
00000001
,
00000010
00000010
00001000
00001000
,
00000100
00000100
00010000
00010000
,
00001000
00001000
01000000
01000000
,
00100000
00010000
01000000
10000000
,
00100000
00001000
00010000
00000010
,
00000100
00000001
00000010
00001000
,
00000100
00010000
00001000
01000000
,
00100000
00010000
00100000
00001000
,
00010000
00000010
00000100
00000001
,
00001000
00000100
00010000
00001000
,
01000000
00100000
01000000
00100000
,
10000000
10000000
00100000
01000000
,
00010000
00010000
01000000
01000000
,
00001000
00001000
00010000
00000100
,
00001000
00001000
00000001
00000001
,
00001000
00001000
00000100
00010000
,
00001000
00001000
01000000
01000000
,
00010000
00010000
10000000
01000000
,
10000000
10000000
00100000
00100000
,
01000000
01000000
00001000
00010000
,
00000100
00000100
00001000
00000001
,
00000010
00000010
00001000
00000010
,
00010000
00010000
00001000
00100000
,
00010000
00010000
10000000
01000000
,
10000000
10000000
00010000
01000000
,
00001000
00001000
00010000
00000100
,
00001000
00000010
00000001
00000100
,
00000010
00000010
00001000
00001000
,
00000100
00010000
00001000
01000000
,
00010000
00010000
10000000
10000000
,
01000000
00001000
00010000
00000100
,
00001000
00000010
00000001
00000100
,
00001000
00010000
01000000
10000000
,
00100000
10000000
01000000
00010000
,
00001000
00000100
00000001
00000100
,
00001000
00001000
00010000
00010000
,
00100000
00010000
01000000
10000000
,
00100000
00100000
00001000
00001000
,
00010000
00000100
00001000
00000010
,
00000001
00001000
00000100
00000010
,
00001000
00000100
00010000
00001000
,
00200000
00000000
00000000
00310000
,
01000000
00000000
00000000
00000000
;
