#VERSION:0.83;
#TITLE:LESSON 5;
#SUBTITLE:;
#ARTIST:Risk Junk feat. Erika Mochizuki;
#TITLETRANSLIT:;
#SUBTITLETRANSLIT:;
#ARTISTTRANSLIT:;
#GENRE:;
#ORIGIN:;
#CREDIT:;
#BANNER:banner.png;
#BACKGROUND:jacket.png;
#PREVIEWVID:;
#JACKET:Jacket.png;
#CDIMAGE:;
#DISCIMAGE:;
#LYRICSPATH:;
#CDTITLE:;
#MUSIC:LESSON 5.ogg;
#OFFSET:3.140000;
#SAMPLESTART:30.619987;
#SAMPLELENGTH:12.000000;
#SELECTABLE:YES;
#BPMS:0.000=152.000;
#STOPS:;
#DELAYS:;
#WARPS:;
#TIMESIGNATURES:0.000=4=4;
#TICKCOUNTS:0.000=4;
#COMBOS:0.000=1;
#SPEEDS:0.000=1.000=0.000=0;
#SCROLLS:0.000=1.000;
#FAKES:;
#LABELS:0.000=Song Start;
#BGCHANGES:3.000=LESSON 5.avi=1.000=0=0=1=====,
99999=-nosongbg-=1.000=0=0=0 // don't automatically add -songbackground-
;
#KEYSOUNDS:;
#ATTACKS:
;

//---------------dance-single - ----------------
#NOTEDATA:;
#CHARTNAME:;
#STEPSTYPE:dance-single;
#DESCRIPTION:;
#CHARTSTYLE:;
#DIFFICULTY:Beginner;
#METER:3;
#RADARVALUES:0.126191,0.184554,0.015774,0.047322,0.000000,112.000000,110.000000,2.000000,6.000000,0.000000,0.000000,0.000000,0.000000,0.000000,0.126191,0.184554,0.015774,0.047322,0.000000,112.000000,110.000000,2.000000,6.000000,0.000000,0.000000,0.000000,0.000000,0.000000;
#CREDIT:;
#NOTES:
0000
0000
0000
0000
,
0000
0000
0000
0000
,
0000
0000
0000
0000
,
0000
0000
0000
0000
,
0000
0000
0000
0000
,
0000
0000
0000
0000
,
0001
0000
0001
0000
,
1000
0000
1000
0000
,
0010
0000
0010
0000
,
0100
0000
0100
0000
,
0020
0000
0000
0030
,
0000
0000
0000
0000
,
0000
0000
0000
0000
,
0000
0000
0000
0000
,
0001
0000
0001
0000
,
1000
0000
1000
0000
,
0001
0000
0001
0000
,
1000
0000
1000
0000
,
0010
0000
0010
0000
,
0100
0000
0100
0000
,
0010
0000
0010
0000
,
0100
0000
0100
0000
,
0001
0000
0000
0000
,
1000
0000
0000
0000
,
0001
0000
0000
0000
,
1000
0000
1000
0000
,
0010
0000
0000
0000
,
0100
0000
0000
0000
,
0010
0000
0000
0000
,
0100
0000
0100
0000
,
0001
0000
0000
0000
,
1000
0000
1000
0000
,
1000
0000
0000
0000
,
0010
0000
0010
0000
,
0010
0000
0000
0000
,
0100
0000
0100
0000
,
0100
0000
0000
0000
,
0001
0000
1000
0000
,
0001
0000
0001
0000
,
1000
0000
1000
0000
,
0001
0000
0001
0000
,
0010
0000
0010
0000
,
1000
0000
1000
0000
,
0001
0000
0001
0000
,
1000
0000
1000
0000
,
0100
0000
0100
0000
,
0020
0000
0000
0000
,
0030
0000
0000
0000
,
0002
0000
0000
0000
,
0003
0000
0000
0000
,
0200
0000
0000
0000
,
0300
0000
0000
0000
,
2000
0000
0000
0000
,
3000
0000
0000
0000
,
0000
0010
0000
0010
,
0000
0100
0000
0100
,
0000
0001
0000
0001
,
0000
1000
0000
1000
,
0000
0100
0000
0100
,
0000
0010
0000
0010
,
0000
0001
0000
0001
,
0002
0000
0003
0000
,
1001
0000
0000
0000
,
0010
0000
0000
0000
,
0100
0000
0100
0000
,
0100
0000
0000
0000
,
0001
0000
1000
0000
,
0001
0000
0000
0000
,
1000
0000
0001
0000
,
1000
0000
0000
0000
,
0010
0000
0010
0000
,
0010
0000
0010
0000
,
0100
0000
0100
0000
,
0100
0000
0100
0000
,
0001
0000
0001
0000
,
1000
0000
1000
0000
,
0010
0000
0001
0000
,
0100
0000
1000
0000
,
1001
0000
0000
0000
;

//---------------dance-double - ----------------
#NOTEDATA:;
#CHARTNAME:;
#STEPSTYPE:dance-double;
#DESCRIPTION:;
#CHARTSTYLE:;
#DIFFICULTY:Easy;
#METER:5;
#RADARVALUES:0.202807,0.310548,0.102530,0.126191,0.000000,180.000000,167.000000,13.000000,16.000000,0.000000,0.000000,0.000000,0.000000,0.000000,0.202807,0.310548,0.102530,0.126191,0.000000,180.000000,167.000000,13.000000,16.000000,0.000000,0.000000,0.000000,0.000000,0.000000;
#CREDIT:;
#NOTES:
00000000
00000000
00000000
00000000
,
00000000
00000000
00000000
00000000
,
00000000
00000000
00000000
00000000
,
00000000
00000000
00000000
00000000
,
00000000
00000000
00000000
00000000
,
00000000
00000000
00000000
00000000
,
00001000
00000000
00001000
00000000
,
00000010
00000000
00000010
00000000
,
00001000
00000000
00001000
00000000
,
00100000
00000000
00100000
00000000
,
00020000
00000000
00000000
00030000
,
00002000
00000000
00000000
00003000
,
00020000
00000000
00000000
00030000
,
00002000
00000000
00000000
00003000
,
00100000
00000000
00100000
00000000
,
01000000
00000000
01000000
00000000
,
00010000
00000000
00010000
00000000
,
10000000
00010000
10000000
00000000
,
01000000
00000000
01000000
00000000
,
00010000
00000000
00010000
00000000
,
00100000
00000000
00100000
00000000
,
00001000
00000000
00010000
00001000
,
00010000
00000000
00001000
00000000
,
00010000
00000000
00000100
00000000
,
00001000
00000000
00000010
00000000
,
00001000
00000000
00000100
00000000
,
00010000
00000000
00001000
00000000
,
00010000
00000000
01000000
00000000
,
00100000
00000000
10000000
00000000
,
00100000
00000000
00001000
00000000
,
00010000
00000000
00000100
00000000
,
00001000
00000000
00000001
00000000
,
00001000
00000000
00000010
00000000
,
00010000
00000000
00001000
00000000
,
00010000
00000000
10000000
00000000
,
01000000
00000000
10000000
00000000
,
00010000
00000000
00000100
00000000
,
00010000
00000000
00001000
00000000
,
00011000
00000000
00010000
00010000
,
00001000
00000000
00001000
00001000
,
00000100
00000000
00000100
00000100
,
00000001
00000000
00000010
00000010
,
00001000
00000000
00001000
00001000
,
00100000
00000000
00100000
00100000
,
01000000
00000000
01000000
01000000
,
00010000
00000000
00010000
00010000
,
00002000
00000000
00000000
00003000
,
00200000
00000000
00000000
00300000
,
00020000
00000000
00000000
00030000
,
20000000
00000000
00000000
30000000
,
02000000
00000000
00000000
03000000
,
00002000
00000000
00000000
00003000
,
00020000
00000000
00000000
00030000
,
00000020
00000000
00000000
00000030
,
00000100
00000001
00000000
00000001
,
00000000
00001000
00000000
00001000
,
00000000
00000100
00000000
00000100
,
00000000
00010000
00000000
00010000
,
00011000
00001000
00000000
00001000
,
00011000
00010000
00000000
00010000
,
10010000
00000000
10010000
00000000
,
02200000
00000000
03300000
00000000
,
00100000
00100000
00010000
00100000
,
00100000
10000000
10010000
00000000
,
00010000
00001000
00011000
00000000
,
00001000
00010000
00011000
00000000
,
00000100
00000100
00001000
00000010
,
00000100
00000100
00001001
00000000
,
00000010
00000001
00001001
00000000
,
00000010
00001000
00001100
00000000
,
00000100
00010000
00001000
00000000
,
00010000
00001000
00100000
00000000
,
00100000
00010000
00001000
00000000
,
00010000
00001000
00000100
00000000
,
00001000
00100000
00010000
01000000
,
10000000
01000000
00010000
00100000
,
00001000
00010000
00000100
00001000
,
00000010
00000001
00000100
00001000
,
00022000
00000000
00000000
00033000
;

//---------------dance-single - ----------------
#NOTEDATA:;
#CHARTNAME:;
#STEPSTYPE:dance-single;
#DESCRIPTION:;
#CHARTSTYLE:;
#DIFFICULTY:Easy;
#METER:4;
#RADARVALUES:0.237735,0.310548,0.078869,0.181399,0.000000,211.000000,201.000000,10.000000,23.000000,0.000000,0.000000,0.000000,0.000000,0.000000,0.237735,0.310548,0.078869,0.181399,0.000000,211.000000,201.000000,10.000000,23.000000,0.000000,0.000000,0.000000,0.000000,0.000000;
#CREDIT:;
#NOTES:
0000
0000
0000
0000
,
0000
0000
0000
0000
,
0000
0000
0000
0000
,
0000
0000
0000
0000
,
0000
0000
0000
0000
,
0000
0000
0000
0000
,
0010
0000
0010
0000
,
0001
0000
0001
0000
,
0100
0000
0100
0000
,
1000
0000
1000
0000
,
0020
0000
0000
0000
,
0230
0000
0000
0000
,
0302
0000
0000
0000
,
2003
0000
0000
0000
,
3010
0100
0000
0100
,
0001
1000
0000
1000
,
0010
0100
0000
0100
,
0001
0010
0000
0010
,
0001
1000
0000
1000
,
0001
0100
0000
0100
,
0001
0010
0000
0010
,
1000
0000
0001
1000
,
0001
0001
0000
0100
,
0010
0100
0010
0000
,
1000
0000
1000
0000
,
0010
0100
0010
0100
,
0001
1000
0000
1000
,
0001
0100
0001
0100
,
0001
0000
0010
1000
,
0010
1000
0100
1000
,
0100
0000
0001
0100
,
1000
0000
1000
0100
,
0001
0000
0010
0001
,
0100
1000
0100
0001
,
0010
0000
1000
0100
,
1000
0000
0001
0100
,
0001
0000
0100
0001
,
0010
1000
0010
0001
,
1001
0000
0010
0010
,
0100
0000
0100
0100
,
0001
0000
0001
0001
,
1000
0000
1000
1000
,
0010
0000
0010
0100
,
0010
0000
0100
0001
,
0100
0000
0001
1000
,
0001
0000
1000
0010
,
2001
0000
0000
0000
,
3020
0000
0000
0000
,
0230
0000
0000
0000
,
0302
0000
0000
0000
,
0023
0000
0000
0000
,
0230
0000
0000
0000
,
2300
0000
0000
0000
,
3002
0000
0000
1003
,
0020
0100
0000
0130
,
2000
0100
0000
3100
,
0002
0100
0000
0103
,
0020
0100
0000
0130
,
2000
0100
0000
3100
,
0020
0001
0000
0031
,
0200
0010
0010
0310
,
2002
0000
0000
3003
,
1000
0010
0100
0001
,
0010
0100
1001
0000
,
0001
0100
0010
1000
,
0100
0010
1001
0000
,
0010
1000
0100
0001
,
0010
0100
1001
0000
,
0010
0001
0100
1000
,
0010
0100
1001
0000
,
1000
0100
1100
0000
,
0001
0100
0101
0000
,
0010
0001
0100
0000
,
0010
1000
0100
0000
,
0001
1000
0100
0010
,
1000
0001
0010
0100
,
0001
0100
0010
1000
,
0100
0010
0001
1000
,
2002
0000
0000
3003
;

//---------------dance-double - ----------------
#NOTEDATA:;
#CHARTNAME:;
#STEPSTYPE:dance-double;
#DESCRIPTION:;
#CHARTSTYLE:;
#DIFFICULTY:Medium;
#METER:7;
#RADARVALUES:0.280549,0.403712,0.023661,0.228721,0.000000,249.000000,246.000000,3.000000,29.000000,0.000000,0.000000,0.000000,0.000000,0.000000,0.280549,0.403712,0.023661,0.228721,0.000000,249.000000,246.000000,3.000000,29.000000,0.000000,0.000000,0.000000,0.000000,0.000000;
#CREDIT:;
#NOTES:
00000000
00000000
00000000
00000000
,
00000000
00000000
00000000
00000000
,
00000000
00000000
00000000
00000000
,
00000000
00000000
00000000
00000000
,
00000000
00000000
00000000
00000000
,
00000000
00000000
00000000
00000000
,
00100000
01000000
00100000
01000000
,
00010000
00100000
00010000
00100000
,
00001000
00010000
00001000
00010000
,
00000100
00001000
00000100
00001000
,
00020000
00001000
00000000
00032000
,
00203000
00010000
00000000
00320000
,
02030000
00100000
00000000
03200000
,
20300000
01000000
00000000
31000000
,
00000000
00000000
00100000
00000000
00100000
00100000
00000000
01000000
,
00000000
00000000
01000000
00000000
00010000
00010000
00000000
00010000
,
00000000
00000000
00100000
00000000
00010000
00010000
00000000
00010000
,
00000000
00000000
00000100
00000000
00001000
00001000
00000000
00001000
,
00000000
00000000
00000001
00000000
00000010
00000010
00000000
00000010
,
00000000
00000000
00000000
00000000
00000100
00000000
00001000
00000100
,
00000000
00001000
00000000
00000100
00000000
00001000
00000000
00000000
,
00000000
00000000
00001000
00010000
,
00001000
00000000
00010000
00010000
00000000
00001000
00000000
00100000
,
00000000
00100000
00000000
00100000
00000000
00000000
00000000
00000000
,
00000000
00000000
00000000
01000000
00100000
01000000
00000000
00010000
,
00000000
10000000
00000000
00010000
00000000
10000000
00000000
00010000
,
00000000
00000000
00000000
00000000
00100000
00000000
00000000
00001000
,
00000000
00010000
00000000
00001000
00000000
00010000
00000000
00001000
,
00000000
00000000
00000000
00000000
00000100
00000000
00000000
00001000
,
00000000
00000010
00000000
00001000
00000000
00000010
00000000
00001000
,
00000010
00000000
00000000
00000000
00000100
00000000
00010000
00000100
,
00000000
00010000
00000000
00001000
00000000
00010000
00000000
00001000
,
00000000
00000000
00100000
00000000
00010000
01000000
00000000
00010000
,
00000000
01000000
00000000
00100000
00000000
01000000
00000000
00000000
,
00000000
00000000
00000000
00000000
10000000
00000000
01000000
00100000
,
00000000
01000000
00000000
00010000
00000000
01000000
00000000
00000000
,
00100000
00000000
00000000
00000000
00010000
00000000
00001000
00010000
,
00000000
00001000
00000000
00000010
00000000
00000100
00000000
00001000
,
00000001
00001000
00000000
00000000
,
00000020
00001030
00002000
00003100
,
00000200
00010000
00001000
00010300
,
00020000
00000010
00001000
00030010
,
00000020
00001030
00000200
00010300
,
00002000
00100000
01000000
00103000
,
00020000
01000000
10000000
01030000
,
02000000
00100000
00010000
03100000
,
02100000
00000000
00000000
03000000
,
00020000
00000000
00000000
00030000
,
00000200
00000000
00000000
00000300
,
00000002
00000000
00000000
00000003
,
00000020
00000000
00000000
00000030
,
00002000
00000000
00000000
00003000
,
00200000
00000000
00000000
00300000
,
20000000
00000000
00000000
30000000
,
01000000
00010000
01000000
00010000
,
00100000
00001000
00100000
00001000
,
00010000
00000010
00010000
00000010
,
00001000
00000001
00001000
00000001
,
00001000
00000100
00001000
00000000
00000010
00000000
00000010
00000000
,
00000001
00000100
00000001
00000000
00000010
00000000
00000010
00000000
,
00001000
00000100
00001000
00000000
00000100
00010000
00000100
00000000
,
00022000
00000000
00000000
00033000
,
00100000
00000000
00010000
00010000
00000000
00001000
00000000
00010000
,
00000000
00001000
00000000
00010000
00000000
00000000
00000000
00000000
,
00000000
00000000
00000000
00000100
00000001
00001000
00000000
00000010
,
00000000
00000100
00000000
00001000
00000000
00000100
00000000
00020000
,
00001000
00030000
00000000
00001000
00100000
00000000
00010000
00100000
,
00000000
01000000
00000000
00100000
00000000
10000000
00000000
00010000
,
00000000
00000000
00000000
00000000
01000000
00000000
00010000
10000000
,
00000000
01000000
00000000
00100000
00000000
00010000
00000000
10000000
,
00010000
00000000
00000000
00100000
00010000
00000000
01000000
00010000
,
00000000
00100000
00000000
00001000
00000000
00000000
00000000
00000000
,
00000000
00000000
00000000
00010000
00001000
00000000
00010000
00001000
,
00000000
00000100
00000000
00000010
00000000
00001000
00000000
00000100
,
00001000
00000000
00000000
00000100
00010000
00000000
00000100
00010000
,
00000000
00001000
00000000
00010000
00000000
00000000
00000000
00000000
,
00011000
00000000
00000000
00000000
00100000
00001000
00100000
00001000
,
00000000
00010000
00000000
00000100
00000000
00001000
00000000
00020000
,
00002000
00000000
00000000
00033000
;

//---------------dance-single - ----------------
#NOTEDATA:;
#CHARTNAME:;
#STEPSTYPE:dance-single;
#DESCRIPTION:;
#CHARTSTYLE:;
#DIFFICULTY:Medium;
#METER:7;
#RADARVALUES:0.307590,0.434767,0.126191,0.339138,0.000000,273.000000,257.000000,16.000000,43.000000,0.000000,0.000000,0.000000,0.000000,0.000000,0.307590,0.434767,0.126191,0.339138,0.000000,273.000000,257.000000,16.000000,43.000000,0.000000,0.000000,0.000000,0.000000,0.000000;
#CREDIT:;
#NOTES:
0000
0000
0000
0000
,
0000
0000
0000
0000
,
0000
0000
0000
0000
,
0000
0000
0000
0000
,
0000
0000
0000
0000
,
0000
0000
0000
0000
,
0020
0000
0000
0030
2000
0000
0000
3000
,
0200
0000
0000
0300
0002
0000
0000
0003
,
0020
0000
0000
0030
0002
0000
0000
0003
,
0200
0000
0000
0300
2000
0000
0000
3000
,
0020
1000
0000
1030
,
0200
0001
0000
0301
,
0020
1000
0000
1030
,
0200
0001
0000
0301
,
0110
0000
1000
0100
1000
0100
0000
0001
,
0000
0000
0100
0000
0010
0010
0000
1000
,
0000
0000
0001
0100
0001
0100
0000
1000
,
0000
0000
0010
0000
0100
0100
0000
0001
,
0000
0000
0010
1000
0010
1000
0000
0100
,
0000
0000
0000
0000
0001
0000
1000
0010
,
0000
0100
0000
0000
0000
0000
0000
0000
,
0002
2003
3020
0230
,
0301
0000
0100
0100
0000
0010
0000
1000
,
0000
1001
0000
1001
0000
0000
0000
0000
,
0000
0000
0000
0010
1000
0010
0000
0100
,
0000
0001
0000
0100
0000
1000
0000
0100
,
0100
0000
0000
0001
0010
0001
0000
1000
,
0000
0100
0000
1001
0000
0000
0000
0010
,
0000
0000
0000
0000
0100
0000
1000
0100
,
0000
0001
0000
0100
0000
1000
0000
0010
,
0010
0000
0000
0001
0100
0000
0001
0100
,
0000
1000
0000
0100
0000
0000
0000
0000
,
2000
0000
0000
0000
3010
0000
0100
0010
,
0000
0001
0000
0100
0000
1000
0000
0010
,
0010
0000
0000
1000
0100
0000
0001
0100
,
0000
1000
0000
1000
0000
0001
0000
0000
,
1001
0000
0000
0010
0010
0000
0100
0001
,
0000
1000
0000
0100
0000
1000
0000
0010
,
0200
0001
0000
0301
,
0020
1000
0000
0130
,
2000
0100
0000
3001
,
0020
0001
0000
0130
,
0002
0100
0000
1003
,
2000
0010
0100
3010
,
0002
0100
0010
0103
,
0020
0100
0100
0130
,
2001
0000
0000
3000
,
0020
0000
0000
0230
0000
0000
0300
0000
,
0002
0000
0000
2003
0000
0000
3000
0000
,
2000
0000
0000
3200
0000
0000
0300
0000
,
0020
0000
0000
0032
0000
0000
0003
0000
,
0002
0000
0000
0203
0000
0000
0300
0000
,
0020
0000
0000
2030
0000
0000
3000
0000
,
2000
0000
0002
3003
,
0010
0100
0010
0100
,
0001
1000
0001
1000
,
0100
1000
0100
1000
,
0010
0001
0010
0001
,
0100
0010
1000
0010
,
0100
0001
0010
0001
,
0110
0110
1001
1001
,
1002
0000
1000
0103
,
0010
0000
0100
0010
0000
1000
0000
0001
,
0000
1000
0000
0001
0000
0000
0110
0000
,
0000
0000
0100
0000
0001
0100
0000
0010
,
0000
1000
0000
0100
0000
0010
0000
0001
,
1000
0000
0110
0000
0001
0100
0001
0100
,
0000
0010
0000
1000
0000
0100
0001
0100
,
0000
0000
0000
1000
0010
0000
0100
0001
,
0000
0010
0000
0100
0000
1000
0001
1000
,
0001
0000
0000
0010
0100
0010
0100
0010
,
0000
1000
0000
1001
0000
0000
0000
0000
,
0001
0000
1000
0000
0010
0000
0100
0001
,
0000
0100
0000
1000
0000
0100
0000
0001
,
0100
0000
0000
0010
1000
0000
0010
1000
,
0000
0100
0000
1001
0000
0000
0000
0000
,
0110
0000
0000
0001
1000
0000
0010
0100
,
0000
0001
0000
0100
0000
0010
0000
2000
,
0002
0000
0000
3003
;

//---------------dance-double - ----------------
#NOTEDATA:;
#CHARTNAME:;
#STEPSTYPE:dance-double;
#DESCRIPTION:;
#CHARTSTYLE:;
#DIFFICULTY:Hard;
#METER:11;
#RADARVALUES:0.434908,0.496877,0.212947,0.299703,0.031548,386.000000,359.000000,27.000000,38.000000,0.000000,0.000000,0.000000,0.000000,0.000000,0.434908,0.496877,0.212947,0.299703,0.031548,386.000000,359.000000,27.000000,38.000000,0.000000,0.000000,0.000000,0.000000,0.000000;
#CREDIT:;
#NOTES:
00000000
00000000
00000000
00000000
,
00000000
00000000
00000000
00000000
,
00000000
00000000
00000000
00000000
,
00000000
00000000
00000000
00000000
,
00000000
00000000
00000000
00000000
,
00000000
00000000
00000000
00000000
,
00100000
00000000
00000000
00010000
00000000
00000000
00100000
00000000
00010000
00000000
00100000
00000000
00001000
00000000
00010000
00000000
,
00000000
00001000
00000000
00000010
00000000
00001000
00000000
00010000
,
00000000
00000100
00000100
00010000
00010000
00001000
00001000
00010000
,
00001000
00000000
00000000
00001000
00000000
00000000
00001000
00000000
00010000
00000000
00000000
00010000
00000000
00000000
00010000
00000000
,
00011000
00000000
00002000
00000000
00013000
00002000
00000000
00023000
,
00000000
00000000
00030100
00000000
00001000
00000020
00000000
00000200
,
00000000
00000030
00000010
00000000
00000000
00000000
00000310
00002000
,
00000000
00000100
00000000
00003100
,
00000100
00010000
00001000
00010000
00000100
00001000
00000000
00001000
,
00000000
00010000
00001000
00100000
00001000
00010000
00010000
00001000
,
00000000
00100000
00010000
00100000
01000000
00100000
00000000
00010000
,
00000000
01000000
00100000
01000000
10000000
10000000
00100000
01000000
,
00000000
01000000
00010000
00100000
00010000
00100000
00000000
00220000
,
00000000
00330000
00000000
00100000
00001000
00010000
00001000
00020000
,
00000000
00000000
00031000
00010000
00000000
00000000
00001000
00000000
00000000
00000000
00010000
00001000
00000000
00000000
00010000
00000000
,
00000000
00000000
00001000
00010000
00000000
00000000
00001000
00000000
00010000
00000000
00000000
00000000
00000100
00000000
00000000
00000000
,
00001100
00000000
00000001
00000001
00000000
00000110
00000000
00001001
,
00000000
00000110
00000000
00001001
00000000
00000010
00000110
00000000
,
00001000
00000000
00000100
00000010
00000100
00000010
00000000
00001001
,
00000000
00000010
00000000
00000100
00000000
00001000
00000100
00001000
,
00001100
00000000
00000100
00010000
00001000
00010000
00000100
00010000
,
00000000
00011000
00000000
00011000
00000000
00001000
00100000
00010000
,
00000000
00000000
00100000
00010000
01000000
00000000
00100000
01000000
,
00000000
11000000
00000000
01100000
00000000
00100000
00010000
01000000
,
00200000
00000000
10300000
01000000
01000000
00000000
00200000
00010000
,
00000000
00010000
00000000
00310000
00000000
00000000
00200000
00001000
,
00301000
00000000
00020000
00001000
00031000
00000000
00010000
00002000
,
00000000
00023000
00000000
00030200
00000000
00001300
00000010
00001000
,
00001010
00000000
00000200
00000000
00000310
00001000
00000010
00001000
,
00000000
00000100
00001000
00000100
00000000
00001000
00001100
00000000
,
00000200
00000000
00010300
00001000
00010000
00001000
00010000
00002000
,
00000000
00203000
00000000
00320000
00000000
02030000
00000000
23000000
,
00000000
30000000
00100000
00000000
01000000
00100000
00010000
00000000
,
00100000
00001000
00010000
00000000
00000100
00010000
00001000
00000000
,
00010000
00000000
00000100
00000000
00001000
00000100
00000010
00000000
,
00000010
00000100
00001000
00000000
00001000
00000100
00010000
00000000
,
00000100
00010100
00001000
01000000
,
00010000
01000000
00010000
00000000
10000000
00100000
01000000
00000000
,
01000000
00000000
00010000
00000000
00100000
00010000
00100000
00000000
,
00100000
00001000
00100000
00001000
00100000
00001000
00100000
00000000
,
00220000
00000000
00000000
00000000
00000000
00000000
00000000
00000000
00330000
00000000
00000000
00000000
00000000
00000000
00001000
00010000
,
00001000
00000000
00000000
00010000
00000000
00000000
00000100
00000000
00010000
00000000
00000000
00000000
00100000
00000000
00000000
00000000
,
00001000
00000000
00000000
00010000
00000100
00001000
00000000
00000000
,
00000100
00010000
00000000
00001000
00000000
00010000
00000000
00001000
,
00010000
00000000
00001000
00200000
00000000
00000000
00000000
00300000
,
00010000
01000000
00000000
00100000
00000000
00010000
00000000
00100000
,
00100000
00000000
00000000
00200000
,
00302000
00000000
00023000
00000000
,
00030100
00001000
00000000
00001000
00000000
00000100
00000000
00010000
,
00000000
00001000
00000000
00001000
00000000
00100000
00000000
00010000
,
00000000
01000000
00000000
01000000
00000000
10000000
00000000
00100000
,
00000000
00010000
00000000
00010000
00000000
00100000
00000000
00001000
,
00000000
00010000
00000000
00010000
00000000
00000010
00000000
00001000
,
00000000
00000100
00000000
00000100
00000000
00010000
00000000
00001000
,
00010000
00001000
00010000
00001000
00010000
00001000
00010000
00001000
,
00020000
00000000
00000000
00000000
00001000
00001000
00031000
00000000
,
00011000
00000000
00100000
00001000
00000000
01000000
00000000
00010000
,
10000000
00010000
00000000
00020000
00000000
00000000
01030000
00000000
,
02000000
00000000
03100000
00000000
10000000
00100000
10000000
00100000
,
00000000
01000000
00000000
00010000
00000000
00100000
00000000
00001000
,
00011000
00000000
00020000
00000000
00030100
00001000
00000100
00001000
,
00000000
00000010
00000000
00000010
00000000
00000010
00001000
00000200
,
00000000
00000000
00010300
00000000
00011000
00000000
00001000
00100000
,
00000000
00010000
00000000
01000000
00000000
10000000
00100000
10000000
,
00200000
00000000
01300000
00000000
01000000
00001000
01000000
00001000
,
00000000
00010000
00000000
00011000
00000000
00010000
00000100
00010000
,
00000000
00000000
00001100
00000000
00001000
00000010
00000100
00000001
,
00000000
00000110
00000000
00001001
00000000
00000010
00000100
00001000
,
00000200
00000000
00010300
00000000
00001000
00100000
00001000
00100000
,
00000000
00010000
00000000
01010000
00000000
00000000
00000000
00000000
,
01100000
00000000
00000000
10000000
00100000
00000000
01000000
00010000
,
00000000
00100000
00000000
00001000
00000000
00010000
00000000
00002000
,
00020000
00000000
00000000
00033000
;

//---------------dance-single - ----------------
#NOTEDATA:;
#CHARTNAME:;
#STEPSTYPE:dance-single;
#DESCRIPTION:;
#CHARTSTYLE:;
#DIFFICULTY:Hard;
#METER:11;
#RADARVALUES:0.458569,0.527932,0.323364,0.347025,0.031548,407.000000,366.000000,41.000000,44.000000,0.000000,0.000000,0.000000,0.000000,0.000000,0.458569,0.527932,0.323364,0.347025,0.031548,407.000000,366.000000,41.000000,44.000000,0.000000,0.000000,0.000000,0.000000,0.000000;
#CREDIT:;
#NOTES:
// measure 0
0000
0000
0000
0000
,  // measure 1
0000
0000
0000
0000
,  // measure 2
0000
0000
0000
0000
,  // measure 3
0000
0000
0000
0000
,  // measure 4
0000
0000
0000
0000
,  // measure 5
0000
0000
0000
0000
,  // measure 6
0010
0000
0000
0010
0000
0000
0010
0000
0001
0000
1000
0000
0001
0000
1000
0000
,  // measure 7
0000
0010
0000
0100
0000
0001
0000
0100
,  // measure 8
0000
0010
0010
1000
1000
0001
0001
0100
,  // measure 9
0010
0000
0000
0010
0000
0000
0010
0000
0100
0000
0000
0100
0000
0000
0100
0000
,  // measure 10
1001
0000
2000
0000
0010
3020
0000
0230
,  // measure 11
0000
0000
0301
0010
0000
0100
0000
2000
,  // measure 12
0000
0001
0000
0001
0000
3001
0010
0200
,  // measure 13
0000
0010
0000
0010
0000
0010
0310
0000
,  // measure 14
1010
0000
0100
0010
0100
0010
0000
1001
,  // measure 15
0000
0001
0010
0000
1000
0100
0010
0100
,  // measure 16
0000
0001
1000
0000
0010
0100
0000
0110
,  // measure 17
0000
0001
0100
0000
0001
0010
0100
0010
,  // measure 18
0000
1000
0001
0000
0100
0010
0000
0220
,  // measure 19
0000
0330
0000
0001
0100
0000
1000
0100
,  // measure 20
0000
0000
0001
0100
0000
0000
0001
0000
0000
0000
1000
0100
0000
0000
1000
0000
,  // measure 21
0000
0000
0010
0100
0000
0000
0010
0000
0100
0000
1000
0000
0100
0000
0010
0000
,  // measure 22
1001
0000
0001
0001
0000
0101
0000
1010
,  // measure 23
0000
1100
0000
0101
0000
0010
0001
0100
,  // measure 24
0000
0010
1000
0100
0010
0000
0001
0100
,  // measure 25
0000
1010
0000
1100
0000
0001
0100
0010
,  // measure 26
1000
0000
0001
0100
0001
0100
0001
0100
,  // measure 27
0000
1010
0000
1100
0000
0001
0100
1000
,  // measure 28
0000
0010
0100
0000
1000
0100
1000
0100
,  // measure 29
0000
0101
0000
1100
0000
0010
0100
0001
,  // measure 30
1001
0000
0000
0001
0010
0000
1000
0100
,  // measure 31
0000
1100
0000
0101
0000
0010
0100
1000
,  // measure 32
0001
0000
0100
0010
1000
0000
0100
0010
,  // measure 33
0000
0101
0000
1100
0000
0001
0010
0100
,  // measure 34
1001
0000
0000
0010
0100
0000
1000
0001
,  // measure 35
0000
0110
0000
0110
0000
0000
0000
0000
,  // measure 36
2002
0000
3003
0100
0001
0010
0100
0100
,  // measure 37
0000
0001
0000
0001
0000
1000
0000
0002
,  // measure 38
0100
0013
0100
0010
,  // measure 39
2000
3100
0002
0103
,  // measure 40
0020
1000
0100
1030
,  // measure 41
0200
0001
0010
0301
,  // measure 42
0020
1030
0200
0310
,  // measure 43
2000
3001
0020
0031
,  // measure 44
0200
0010
0010
0310
,  // measure 45
1000
0001
1000
0001
0100
0010
0100
0010
,  // measure 46
0200
0000
0000
0000
0000
0000
0000
0000
0000
0000
0000
0000
0300
0000
0001
1000
,  // measure 47
0001
0000
0000
0010
0000
0000
0100
0000
1000
0000
0000
0000
0010
0000
0000
0000
,  // measure 48
0200
0000
0000
0301
0010
0200
0000
0000
,  // measure 49
0301
1000
0000
0020
0000
0230
0000
0301
,  // measure 50
2000
0000
0000
3010
0000
0000
0100
0000
,  // measure 51
0001
0010
0100
0010
0000
1000
0001
0000
,  // measure 52
0200
0000
0000
0320
,  // measure 53
2030
0000
0000
0001
0000
0000
3002
0000
,  // measure 54
0103
0010
0000
0010
1000
0010
0000
0010
,  // measure 55
1000
0100
0000
0100
1000
0100
0000
0100
,  // measure 56
0001
0010
0000
0010
0001
0010
0000
0010
,  // measure 57
1000
0100
1000
0000
0010
0001
0100
0000
,  // measure 58
0010
1000
0100
1000
0100
1000
0100
1000
,  // measure 59
0010
0001
0100
0001
0100
0001
0100
0001
,  // measure 60
0010
0100
0010
0100
0010
0100
0010
0100
,  // measure 61
0020
0000
0000
0000
0100
0100
0130
0000
,  // measure 62
1001
0000
1000
1000
0000
0001
0000
0010
,  // measure 63
0000
0100
0000
1001
0000
0000
0110
0000
,  // measure 64
2000
0000
3001
0000
0100
0010
0100
0010
,  // measure 65
0000
0002
0000
0203
0000
0320
0000
1030
,  // measure 66
1001
0000
0110
0000
1000
0100
1000
0100
,  // measure 67
0000
0002
0000
0203
0000
0310
0100
0020
,  // measure 68
0000
0000
0130
0001
0100
0000
0010
0020
,  // measure 69
0000
2030
0000
3200
0000
1300
0100
1000
,  // measure 70
1100
0000
0000
0001
0100
0000
0010
1000
,  // measure 71
0000
0110
0000
1001
0000
1000
0100
0001
,  // measure 72
0100
0000
0000
0010
1000
0000
0001
0100
,  // measure 73
0000
0010
0000
1000
0100
1000
0100
1000
,  // measure 74
1001
0000
0000
0010
0100
0010
0000
1001
,  // measure 75
0000
0110
0000
1001
0000
0000
0000
0000
,  // measure 76
0220
0000
0330
1000
0001
0100
0010
1000
,  // measure 77
0000
1001
0000
1001
0000
0110
0000
2000
,  // measure 78
0002
0000
0000
3003
;
