#TITLE:Kung Brother;
#SUBTITLE:;
#ARTIST:Paul Bazooka;
#TITLETRANSLIT:;
#SUBTITLETRANSLIT:;
#ARTISTTRANSLIT:;
#GENRE:;
#CREDIT:;
#BANNER:Kung Brother.png;
#BACKGROUND:Kung Brother-bg.png;
#LYRICSPATH:;
#CDTITLE:;
#MUSIC:Kung Brother.ogg;
#OFFSET:-0.260000;
#SAMPLESTART:17.999977;
#SAMPLELENGTH:15.259998;
#SELECTABLE:YES;
#BPMS:0.000000=145.000000
;
#STOPS:43.000000=0.414000
;
#BGCHANGES:0.000=Kung Brother.avi=1.000=0=0=0=StretchNoLoop====,
99999=-nosongbg-=1.000=0=0=0 // don't automatically add -songbackground-
;
#KEYSOUNDS:;
#ATTACKS:;

//---------------dance-single - ----------------
#NOTES:
     dance-single:
     :
     Hard:
     13:
     0.661442,0.836175,0.083576,0.133721,0.430415,554.000000,544.000000,10.000000,16.000000,0.000000,0.000000,0.661442,0.836175,0.083576,0.133721,0.430415,554.000000,544.000000,10.000000,16.000000,0.000000,0.000000:
0000
0000
0000
0000
,
0000
0000
0000
0000
,
0000
0000
0000
0000
,
0000
0000
1000
0000
0001
1000
0000
0001
,
1000
0001
1000
0000
0001
1000
0000
0001
,
0001
0000
1000
0000
0001
1000
0000
0001
,
0001
0000
1000
0000
0001
1000
0001
0000
,
1100
0000
0010
0100
0010
0100
0010
0100
,
0010
0000
0000
0000
0001
0000
1000
0001
1000
0000
0001
0000
1000
0000
0001
0000
,
1000
0000
0000
0000
0100
0000
0010
0100
0000
0010
0100
0000
0010
0100
0000
0001
,
0100
0000
0001
0000
1000
0001
0000
1000
0001
0000
0100
0000
0000
0000
0000
0000
,
1001
0000
0000
0000
0000
0000
1000
0000
0001
0000
1000
0000
0001
0000
0000
0100
0000
0000
0010
0000
0000
0010
0000
0000
,
1000
0000
0001
0000
1000
0000
0100
0000
2000
0000
3001
0100
0001
0000
0100
0000
,
0020
0030
2000
0000
3001
0100
0010
1000
,
0001
0000
0100
0001
0100
0000
0010
0000
1000
0000
0100
0000
1010
0000
0100
0000
,
0001
0000
1000
0000
0010
0100
0010
0000
,
1000
0000
0001
1000
0001
0000
1000
0000
0100
0000
0010
0000
0001
0000
0000
0000
,
0100
0000
0000
0100
0000
0000
0001
0000
0010
0000
0100
0000
1000
0000
0100
0000
,
0001
0000
1000
0001
1000
0000
0010
0000
0002
0000
0000
0000
2003
0000
0000
0000
,
3020
0000
0000
0000
0130
0000
0001
1000
,
0100
0000
0010
0100
0010
0000
1000
0000
0001
0000
0010
0000
0100
0000
1000
0000
,
0001
0000
0000
0000
1000
0000
1000
0000
0001
0000
0001
1000
0001
0000
1000
0000
,
0010
0000
0100
0010
0100
0010
0100
0000
0001
0000
1000
0000
0001
1000
0001
1000
,
0001
0000
0000
0000
1000
0000
0000
0000
0001
0000
0100
0010
0100
0000
1000
0001
,
1000
0000
0000
1000
0001
0000
0010
0000
0100
0000
0100
0000
0010
0000
0010
0000
,
1000
0000
0000
1000
0100
0000
0001
0000
0100
0000
1000
0000
0100
0000
0001
0000
,
0001
0000
1000
0000
1000
0000
0001
0000
0001
0000
0001
2000
0002
0000
3003
0000
,
0010
0000
0000
0000
1100
0000
0000
0000
0001
0100
0001
0100
0000
0000
0020
0000
,
1000
0100
1000
0230
0000
0310
1000
0001
,
0200
0000
2300
0000
3010
0002
0103
0020
,
1030
0000
0001
1000
0001
0000
0010
0000
0100
0000
1000
0000
1001
0000
0100
0000
,
0110
0000
0001
0000
0100
0000
0001
0000
0100
0000
0001
0100
0000
0001
0100
0000
,
0010
0000
1000
0010
0000
1000
0010
0000
0100
0000
0010
0100
0000
0010
0100
0000
,
0001
0000
0100
0000
1000
0000
0100
0000
0001
0000
1000
0001
0000
1000
0001
0000
,
0100
0000
0010
0100
0010
0000
0100
0000
0001
0000
1000
0000
1001
0000
0100
0000
,
0010
0000
0001
0010
0001
0000
0010
0000
0001
0000
0000
0000
0100
0000
0010
1000
,
0010
0000
0010
0100
0010
0000
0100
0000
0010
0000
0000
0000
1000
0000
0100
0000
,
1000
0000
0100
1000
0100
0000
1000
0000
0100
0000
0000
0000
0001
0000
0010
0100
,
0010
0000
0100
0010
0100
0000
0010
0000
0100
0000
0000
0000
0001
0000
0000
0000
,
1000
0000
0000
0000
0010
0000
1000
0000
0010
0000
1000
0001
1000
0000
0001
0000
,
0100
0000
0001
0100
0001
0000
0100
0000
0010
0000
0001
1000
0001
0000
1000
0000
,
0010
0000
0100
0001
1000
0000
0010
0100
,
1000
0000
0001
0000
0100
0000
0010
0000
1000
0000
1000
0001
1000
0000
0000
0000
,
0001
0000
0100
0000
1000
0100
0010
0001
,
1000
0000
0100
0000
0010
0100
0000
0010
0100
0000
0001
0000
0010
0000
0000
0000
,
0001
0000
0001
0100
0010
1000
0010
0001
,
0100
0000
0010
0000
0100
0010
0000
0100
0010
0000
0001
0000
0010
0000
0000
0000
,
1000
0100
1000
0100
0001
0100
0001
0100
,
1000
0100
1000
0100
0001
0100
0001
0100
,
1000
0000
0010
0100
0010
0000
0001
0100
0001
0000
1000
0100
1000
0000
0001
0010
,
0100
0000
1000
0000
0100
0000
0010
0000
1001
0000
0001
1000
0001
0000
0000
0000
,
0100
0000
0010
1000
0010
0000
0100
0000
0001
0000
0010
0001
0010
0000
0001
0000
,
0100
0000
0001
1000
0001
0000
0100
0010
0100
0000
0010
0000
0010
0000
0000
0000
,
1000
0000
0001
0100
0001
0000
1000
0000
0010
0000
0100
0010
0100
0000
0001
0000
,
1000
0000
0001
1000
0001
0000
0100
0010
0100
0000
0010
0000
1000
0000
0100
0000
,
0001
0000
1000
0010
1000
0000
0001
0000
0100
0000
0001
0100
0001
0000
1000
0000
,
0010
0000
0100
0010
0100
0000
0001
1000
0001
0000
0100
0000
0010
0000
1000
0000
,
0001
0000
0100
0001
0100
0000
0001
0000
1000
0000
0010
1000
0010
0000
1000
0000
,
0100
0001
1000
0100
0010
0001
0101
0000
,
0001
0000
1000
0001
1000
0000
0001
0100
0001
0000
1000
0001
1000
0000
0010
0100
,
0010
0000
1000
0010
1000
0000
0010
0100
0010
0000
0100
0001
0100
0000
0001
0010
,
0001
0000
1000
0010
1000
0000
0001
0100
0001
0000
1000
0010
1000
0000
0001
0100
,
0001
0000
1000
0100
0010
0000
0001
0010
0100
0000
1000
0000
0100
0000
0000
0000
,
0001
0000
1000
0001
1000
0000
1000
0010
1000
0000
1000
0100
1000
0000
0001
0100
,
0001
0000
0001
0010
0001
0000
0001
0100
0001
0000
0001
1000
0001
0000
1000
0100
,
0010
0000
0001
0010
0100
0000
0010
1000
0100
0000
0010
0100
0001
0000
1000
0010
,
0100
0010
0100
0010
0100
0010
1000
0001
1000
0001
1000
0001
1000
0001
1000
0000
,
2002
0000
0000
0000
,
0000
0000
0000
0000
,
3003
0000
0000
0000
;

//---------------dance-double - ----------------
#NOTES:
     dance-double:
     :
     Hard:
     13:
     0.617266,0.836175,0.075218,0.117006,0.367733,517.000000,508.000000,9.000000,14.000000,0.000000,0.000000,0.617266,0.836175,0.075218,0.117006,0.367733,517.000000,508.000000,9.000000,14.000000,0.000000,0.000000:
00000000
00000000
00000000
00000000
,
00000000
00000000
00000000
00000000
,
00000000
00000000
00000000
00000000
,
00000000
00000000
00001000
00000000
00010000
00001000
00000000
00010000
,
00001000
00010000
00001000
00000000
00010000
00001000
00000000
00010000
,
00010000
00000000
00001000
00000000
00010000
00001000
00000000
00001000
,
00001000
00000000
00010000
00000000
00100000
01000000
00100000
00000000
,
11000000
00000000
00100000
01000000
00100000
01000000
00100000
01000000
,
00100000
00000000
00000000
00000000
00100000
00000000
00001000
00100000
00001000
00000000
00010000
00000000
00001000
00000000
00010000
00000000
,
00000100
00000000
00000000
00000000
00000100
00000000
00000010
00000100
00000000
00000010
00000100
00000000
00000010
00000100
00000000
00000001
,
00000100
00000000
00000001
00000000
00001000
00000001
00000000
00001000
00000001
00000000
00000100
00000000
00000000
00000000
00000000
00000000
,
00001001
00000000
00000000
00000000
00000000
00000000
00001000
00000000
00000001
00000000
00001000
00000000
00000001
00000000
00000000
00000100
00000000
00000000
00000010
00000000
00000000
00000010
00000000
00000000
,
00001000
00000000
00000001
00000000
00001000
00000000
00000100
00000000
00002000
00000000
00003001
00000100
00000001
00000000
00000100
00000000
,
00000020
00000030
00002000
00000000
00013000
00001000
00100000
01000000
,
00010000
00000000
01000000
00010000
01000000
00000000
00100000
00000000
10000000
00000000
01000000
00000000
10100000
00000000
01000000
00000000
,
00010000
00000000
10000000
00000000
01000000
00100000
00010000
00000000
,
00001000
00000000
00000100
00000010
00000100
00000000
00000001
00000000
00000010
00000000
00000100
00000000
00001000
00000000
00000000
00000000
,
00010000
00000000
00000000
01000000
00000000
00000000
00010000
00000000
00100000
00000000
01000000
00000000
10000000
00000000
01000000
00000000
,
00010000
00000000
10000000
00010000
10000000
00000000
00100000
00000000
00020000
00000000
00000000
00000000
20030000
00000000
00000000
00000000
,
30200000
00000000
01300000
00010000
,
00001000
00000000
00000100
00000010
00000100
00000000
00000001
00000000
00000010
00000000
00000100
00000000
00001000
00000000
00100000
00000000
,
00010000
00000000
00000000
00000000
10000000
00000000
10000000
00000000
00010000
00000000
00010000
10000000
00010000
00000000
10000000
00000000
,
00100000
00000000
01000000
00100000
01000000
00100000
01000000
00000000
00010000
00000000
00100000
00000000
00001000
00100000
00001000
00010000
,
00001000
00000000
00000000
00000000
00010000
00000000
00000000
00000000
00000100
00000000
00001000
00000010
00001000
00000000
00000100
00000001
,
00000100
00000000
00000000
00000010
00000100
00000000
00001000
00000000
00010000
00000000
00100000
00000000
00100000
00000000
00100000
00000000
,
10000000
00000000
00000000
10000000
01000000
00000000
00010000
00000000
01000000
00000000
10000000
00000000
01000000
00000000
00010000
00000000
,
00100000
00000000
00001000
00000000
00001000
00000000
00010000
00000000
00010000
00000000
00010000
00001000
00020000
00000000
00030000
00000000
,
00000010
00000000
00000000
00000000
00001010
00000000
00000000
00000000
00000001
00000100
00000001
00000100
00000000
00000000
00000020
00000000
,
00001000
00000100
00001000
00000230
00000000
00000310
00001000
00000001
,
00000200
00000000
00020300
00000000
00031000
00100000
00010000
01000000
,
10000000
00000000
00010000
10000000
00010000
00000000
00100000
00000000
01000000
00000000
10000000
00000000
10010000
00000000
01000000
00000000
,
01100000
00000000
00010000
00000000
01000000
00000000
00010000
00000000
01000000
00000000
00010000
01000000
00000000
00010000
01000000
00000000
,
00001000
00010000
00000000
00001000
00010000
00000000
00000010
00000000
00000100
00000000
00000010
00000100
00000000
00000010
00001000
00000000
,
00000001
00000000
00000010
00000000
00000100
00000000
00001000
00000000
00010000
00000000
00001000
00010000
00000000
00001000
00010000
00000000
,
01000000
00000000
00100000
01000000
00100000
00000000
01000000
00000000
00010000
00000000
10000000
00000000
10010000
00000000
01000000
00000000
,
00100000
00000000
00010000
00100000
00010000
00000000
00100000
00000000
00010000
00000000
00000000
00000000
00001000
00000000
00000100
00000000
,
00000010
00000000
00000001
00000100
00000001
00000000
00000100
00000000
00000010
00000000
00000000
00000000
00001000
00000000
00010000
00000000
,
00001000
00000000
00001000
00010000
00001000
00000000
00100000
00000000
00010000
00000000
00000000
00000000
01000000
00000000
00100000
01000000
,
00100000
00000000
01000000
00100000
01000000
00000000
00100000
00000000
01000000
00000000
00000000
00000000
00010000
00000000
00000000
00000000
,
00001000
00000000
00000100
00000010
00000100
00000000
00000001
00000100
,
00001000
00000000
00000100
00001000
00000100
00000000
00001000
00000000
00010000
00000000
00000000
00000000
00100000
00000000
00010000
00000000
,
01000000
00000000
00100000
01000000
00100000
00000000
10000000
00000000
01000000
00000000
00100000
00000000
00010000
00000000
00000100
00000000
,
00001000
00000000
00000100
00001000
00000100
00000000
00001000
00000000
00000010
00000000
00000100
00000010
00000100
00000000
00000000
00000000
,
00000001
00000100
00010000
00100000
,
10000000
01000000
00100000
00000000
00001000
00000100
00000010
00000000
,
00000001
00000100
00010000
01000000
,
10000000
01000000
00100000
00000000
00010000
00001000
00000100
00000000
,
00000010
00000000
00000010
00000000
00000010
00000000
00000010
00000100
,
00010000
00000000
00010000
00000000
00010000
00000000
00010000
00001000
,
01000000
00000000
01000000
00010000
01000000
00000000
00001000
00010000
00001000
00000000
00010000
00000100
00010000
00000000
00000100
00000000
,
00000010
00001000
00000010
00001000
00000010
00000010
00001010
00000000
,
00000010
00000000
00000010
00000100
00000010
00000000
00000000
00000000
00001000
00000000
00001000
00010000
00001000
00000000
00000000
00000000
,
00010000
00000000
00100000
00000000
00010000
00000000
01000000
00010000
00000000
00000000
00100000
00000000
00000000
00000000
10000000
00000000
,
01000000
00000000
00100000
01000000
00100000
00000000
00000000
00000000
00010000
00000000
00001000
00010000
00001000
00000000
00000000
00000000
,
00000100
00000010
00000100
00000010
00001000
00001000
00001000
00001000
,
00000100
00000000
00000010
00000100
00000010
00000000
00000000
00000000
00001000
00000000
00010000
00001000
00010000
00000000
00000000
00000000
,
00100000
00000000
00010000
00000000
00100000
00000000
00010000
00100000
00010000
00000000
01000000
00010000
01000000
00000000
10000000
00000000
,
00010000
01000000
00100000
00010000
00001000
00000100
00000010
00000001
,
00000100
00000100
00001000
00001000
00020000
00000000
00031000
00000000
,
00100000
00000000
00010000
10000000
00010000
00000000
01000000
00010000
01000000
00000000
00100000
00010000
00100000
00000000
00001000
00010000
,
00001000
00000000
00010000
00000100
00010000
00000000
00000010
00001000
00000010
00000000
00000100
00000001
00000100
00000000
00000001
00000100
,
00000001
00000000
00000100
00000000
00000010
00000000
00001000
00000000
00001000
00000000
00000000
00001000
00000000
00000000
00001000
00000000
,
00010000
00000000
00001000
00100000
00001000
00000000
00100000
00010000
00100000
00000000
01000000
00000000
00010000
00000000
10000000
00000000
,
01000000
00000000
01000000
00100000
01000000
00000000
00001000
00010000
00001000
00000000
00010000
00000100
00010000
00000000
00000010
00001000
,
00000010
00000000
00000001
00000100
00000001
00000000
00000010
00001000
00000010
00000000
00000100
00010000
00000100
00000000
00010000
00001000
,
00100000
00000000
00100000
00010000
01000000
00000000
01000000
00100000
10000000
00000000
01000000
00100000
00010000
00000000
00010000
00001000
,
00010000
00001000
00010000
00001000
00010000
00001000
00010000
00001000
00010000
00001000
00010000
00001000
00010000
00001000
00010000
00000000
,
00022000
00000000
00000000
00000000
,
00000000
00000000
00000000
00000000
,
00033000
00000000
00000000
00000000
;

//---------------dance-double - ----------------
#NOTES:
     dance-double:
     :
     Medium:
     9:
     0.404745,0.461338,0.041788,0.075218,0.029251,339.000000,334.000000,5.000000,9.000000,0.000000,0.000000,0.404745,0.461338,0.041788,0.075218,0.029251,339.000000,334.000000,5.000000,9.000000,0.000000,0.000000:
00000000
00000000
00000000
00000000
,
00000000
00000000
00000000
00000000
,
00000000
00000000
00000000
00000000
,
00000000
00000000
00100000
00000000
00000000
00100000
00000000
00000000
,
00001000
00000000
00100000
00000000
00000000
00100000
00000000
00000000
,
10000000
00000000
00100000
00000000
00000000
00100000
00000000
00000000
,
00001000
00000000
00100000
00000000
00000000
00100000
00000000
00000000
,
10000000
01000000
00100000
00001000
,
00000100
00000001
00000010
00000100
,
00010000
00100000
01000000
00001000
,
00010000
00001000
00010000
00001000
,
00000000
00000000
00010000
00000000
00100000
00010000
00100000
00000000
,
10000000
01000000
10000000
01000000
00100000
00010000
00100000
00010000
,
00100000
00000000
00001000
00000000
00010000
00000100
00010000
00000100
,
00001000
00000010
00001000
00000010
00000100
00000100
00000100
00000000
,
00001001
00000000
00000110
00000000
00001000
00000100
00000001
00000000
,
00000001
00000100
00001000
00000000
00010000
00001000
00100000
00010000
,
10000000
00000000
00000000
10000000
00000000
00000000
00010000
00000000
10000000
00000000
01000000
00000000
10000000
00000000
01000000
00000000
,
00100000
00001000
00010000
00000100
,
00002000
00000000
00003001
00000010
,
00001000
00000100
00001000
00000100
00010000
00001000
00010000
00001000
,
00200000
00000000
00310000
01000000
00010000
10000000
10000000
01000000
,
00100000
10000000
01000000
00100000
00001000
00001000
00010000
00000000
,
00000200
00000000
00000302
00000000
00001003
00000010
00001000
00000010
,
00020000
00000000
00031000
00000000
00100000
00010000
01000000
00000000
,
00100000
00000000
10000000
00000000
00010000
01000000
00010000
00000000
,
00100000
00001000
00010000
00001000
00100000
00001000
00010000
00000000
,
00000010
00000000
00000000
00000000
00000100
00000000
00000000
00000000
00000001
00000000
00000000
00000100
00000000
00000000
00002000
00000000
,
00000000
00000010
00000000
00000100
00000000
00003010
00000010
00000000
,
00001000
00000000
00010000
00001000
00100000
00010000
00000000
00010000
,
01000000
00100000
10000000
01000000
00100000
10000000
00010000
00000000
,
01000000
00000000
00000000
00000000
01000000
00000000
00000000
00000000
00010000
00000000
00000000
00010000
00000000
00000000
00010000
00000000
,
00001000
00000000
00000000
00001000
00000000
00000000
00001000
00000000
00000010
00000000
00000010
00000000
00000100
00000000
00000000
00000000
,
00000001
00000000
00000000
00000000
00000001
00000000
00000000
00000000
00000100
00000000
00000000
00000100
00000000
00000000
00000100
00000000
,
00000000
00010000
00000000
00000000
00001000
00000000
00010000
00000000
00001000
00000000
00010000
00000000
00011000
00000000
00000000
00000000
,
00001000
00100000
00010000
01000000
,
00100000
10000000
01000000
00100000
00010000
00000000
00000000
00000000
,
00001000
00000010
00000100
00001000
,
00000010
00000001
00000010
00000100
00001000
00000000
00000100
00000000
,
00010000
00001000
00010000
00001000
,
01000000
00100000
01000000
00010000
,
00001000
00010000
00001000
00000010
,
00000100
00000000
00000010
00000000
00001000
00001000
00001000
00000000
,
00010000
00100000
01000000
10000000
,
00100000
00010000
00100000
00000000
00001000
00010000
00001000
00000000
,
00000100
00000010
00000001
00001000
,
00000010
00000100
00000010
00000000
00010000
00001000
00010000
00000000
,
00100000
00000000
00010000
00010000
00001000
00000000
00000100
00000100
,
00001000
00000000
00010000
00010000
00100000
00000000
00010000
00010000
,
00001000
00010000
00001000
00010000
00001000
00010000
00001000
00010000
,
00001000
00010000
00001000
00010000
,
00000100
00001000
00000010
00000001
,
00000100
00001000
00000100
00001000
00000100
00000000
00010000
00000000
,
00100000
00010000
00100000
00000000
01000000
10000000
01000000
00000000
,
00100000
00000000
00001000
00000000
00010000
00010000
00010000
00000000
,
00000010
00000000
00000100
00000000
00000001
00001000
00000001
00000000
,
00001000
00000001
00001000
00000000
00000100
00000000
00010000
00000000
,
00001000
00100000
00001000
00000000
01000000
00010000
01000000
00000000
,
00100000
00000000
10000000
00000000
01000000
01000000
10010000
00000000
,
00100000
00100000
00100000
00000000
00001000
00001000
00001000
00000000
,
00010000
00010000
00010000
00000000
00000010
00000010
00000010
00000000
,
00000100
00000000
00000000
00000000
00010000
00000000
00001000
00000000
00010000
00000000
00000000
00010000
00000000
00000000
00001000
00000000
,
00100000
00001000
00100000
00000000
00010000
00000000
00000100
00000000
,
00000010
00000001
00001000
00000100
,
00010000
01000000
00010000
00001000
,
00000100
00001000
00000100
00001000
00010000
00001000
00010000
00001000
,
01000000
00001000
01000000
00001000
00020000
00000000
00030000
00000000
,
00022000
00000000
00000000
00000000
,
00000000
00000000
00000000
00000000
,
00033000
00000000
00000000
00000000
;

//---------------dance-single - ----------------
#NOTES:
     dance-single:
     :
     Medium:
     9:
     0.395194,0.490172,0.058503,0.066861,0.029251,331.000000,324.000000,7.000000,8.000000,0.000000,0.000000,0.395194,0.490172,0.058503,0.066861,0.029251,331.000000,324.000000,7.000000,8.000000,0.000000,0.000000:
0000
0000
0000
0000
,
0000
0000
0000
0000
,
0000
0000
0000
0000
,
0000
0000
0010
0000
0000
0010
0000
0000
,
0001
0000
0010
0000
0000
0010
0000
0000
,
1000
0000
0010
0000
0000
0010
0000
0000
,
0001
0000
0010
0000
0000
0010
0000
0000
,
1000
0100
0010
0001
,
1000
0100
0010
0001
,
0001
0010
0100
1000
,
0001
0010
0100
1000
,
0000
0000
0001
0000
0010
0001
0010
0000
,
1000
0100
1000
0100
0010
0001
0010
0001
,
0010
0000
1001
0000
0001
0100
0001
0000
,
0010
0010
0100
0100
0010
0000
1001
0000
,
1000
0000
0001
0000
0100
0010
0100
0000
,
0001
0000
1000
0000
0001
0000
0010
0001
,
1000
0000
0000
1000
0000
0000
0001
0000
1000
0000
0100
0000
1000
0000
0100
0000
,
0010
0000
0100
0000
0001
1000
1001
0000
,
0200
0000
0301
0010
,
1000
0100
1000
0000
0001
0000
0001
0000
,
0020
0000
0031
0100
0001
1000
1000
0100
,
0010
1000
0100
0010
1000
0000
0001
0000
,
2000
3000
0010
0100
,
0002
0000
0003
0000
0010
0001
0100
0000
,
0010
0000
1000
0000
0001
0100
0001
0000
,
0010
1000
0001
0000
0010
1000
0001
0000
,
0100
0000
0000
0000
0100
0000
0000
0000
0001
0000
0000
1000
0000
0000
0002
0000
,
0000
1000
0000
1000
0000
1003
0000
0010
,
0100
0000
0001
0000
0010
0001
0000
0001
,
0100
0010
1000
0100
0010
1000
0001
0000
,
0100
0000
0000
0000
0100
0000
0000
0000
0001
0000
0000
0001
0000
0000
0001
0000
,
1000
0001
0000
0000
1000
0000
0001
0000
1000
0000
0000
0000
1000
0000
0000
0000
,
0010
0000
0000
0000
0010
0000
0000
0000
0100
0000
0000
0100
0000
0000
0100
0000
,
0000
0001
0000
0000
1000
0000
0001
0000
1000
0000
0001
0000
1000
0000
0000
0000
,
0100
0010
0001
0100
,
0010
1000
0100
0010
0001
0000
0000
0000
,
0010
0010
0010
1001
,
0001
0100
0010
1000
0001
0000
0000
0000
,
0001
0100
0001
1000
,
0100
0010
0100
0001
,
1000
0001
1000
0010
,
0100
0001
0100
0001
0100
0100
0100
0000
,
0001
0010
0100
1000
,
0010
0001
0010
0000
0010
0001
0010
0000
,
0100
1000
0010
0001
,
0100
0001
0100
0000
0001
0100
0001
0000
,
0010
0000
0001
0001
1000
0000
0010
0010
,
1000
0000
0001
0001
0010
0000
0001
0001
,
1000
0001
1000
0001
1000
0001
1000
0001
,
1000
0010
1000
0010
1000
0010
1000
0000
,
0001
0001
0010
0010
,
1000
1000
0100
0001
,
0010
0001
0010
0000
0100
1000
0100
0000
,
0010
0000
0100
0000
0001
0001
0001
0000
,
1000
0001
1000
0000
0010
0100
0010
0000
,
1000
0100
0010
0001
,
1000
0010
1000
0000
0100
0001
0100
0000
,
0010
0000
1000
0000
0100
0100
1001
0000
,
0010
0010
0010
0000
1000
1000
1000
0000
,
0001
0001
0001
0000
0010
0010
0010
0000
,
0001
0000
1000
0000
0001
0000
1000
0000
0001
0000
0000
0001
0000
0000
0001
0000
,
1000
0010
0100
1001
,
1000
0100
1000
0000
0001
0100
0001
0000
,
0001
0000
0100
0000
0001
0100
0001
0000
,
1000
0100
1000
0000
0001
0100
0001
0000
,
0100
0010
0100
0010
0200
0000
0300
0000
,
2002
0000
0000
0000
,
0000
0000
0000
0000
,
3003
0000
0000
0000
;

//---------------dance-double - ----------------
#NOTES:
     dance-double:
     :
     Easy:
     5:
     0.254309,0.374837,0.058503,0.183867,0.000000,213.000000,206.000000,7.000000,22.000000,0.000000,0.000000,0.254309,0.374837,0.058503,0.183867,0.000000,213.000000,206.000000,7.000000,22.000000,0.000000,0.000000:
00000000
00000000
00000000
00000000
,
00000000
00000000
00000000
00000000
,
00000000
00000000
00000000
00000000
,
00000000
00000000
00001000
00000000
,
00001000
00000000
00010000
00000000
,
00010000
00000000
00001000
00000000
,
00001000
00000000
00010000
00010000
,
00010000
00000000
01000000
00000000
,
01000000
00000000
00010000
00000000
,
00010000
00000000
00001000
00000000
,
00001000
00000000
00000100
00000100
,
00000000
00010000
00001000
00010000
,
00000100
00000100
00000010
00000010
,
00010000
00001000
00010000
00001000
,
01000000
01000000
00100000
00100000
,
00000000
10000000
00010000
10000000
,
00100000
00100000
10010000
10010000
,
02000000
03000000
00010000
10000000
,
00100000
00100000
00200000
00300000
,
00020000
00000000
00031000
00000000
,
00000010
00000100
00000001
00001000
,
00010000
00000000
00100000
00010000
,
10000000
00100000
00100000
10000000
,
00010000
00000000
00001000
00000001
,
00000010
00000010
00000001
00001000
,
00000200
00000300
00000001
00001000
,
00000020
00000030
00000200
00000300
,
00001000
00010000
00001000
00010000
,
00002000
00003000
00020000
00030000
,
10000000
10000000
00010000
00010000
,
20000000
30000000
00020000
00030000
,
00000100
00000100
00000010
00000010
,
00000200
00000300
00000020
00000030
,
00001000
00001000
00000001
00000001
,
00001000
00000001
00001000
00000000
,
00000010
00000010
00000010
00000000
,
00000001
00000100
00001000
00000000
,
00100000
00100000
00100000
00000000
,
10000000
01000000
00010000
00000000
,
00000000
00000001
00000000
00001000
,
00000000
00000010
00000000
00000100
,
00000000
00010000
00000000
10000000
,
00000000
00100000
01000000
01000000
,
00200000
00300000
02000000
03000000
,
00010000
00010000
10000000
10000000
,
02000000
03000000
00200000
00300000
,
00001000
00001000
00000001
00000001
,
00000010
00000010
00000010
00000010
,
00000100
00000100
00000100
00000100
,
00010000
00001000
00010000
00001000
,
00010000
00100000
01000000
10000000
,
00100000
00100000
00010000
00010000
,
00000100
00000100
00001000
00001000
,
00000010
00000010
00000001
00000001
,
00000100
00000100
00020000
00030000
,
00100000
00100000
10000000
10000000
,
01000000
01000000
00010000
00010000
,
00000100
00000100
00001000
00001000
,
00000010
00000001
00000200
00000300
,
00000010
00001000
00000010
00001000
,
00010000
01000000
00010000
01000000
,
10000000
00100000
10000000
00100000
,
00010000
00001000
00010000
00000100
,
00000010
00000010
00000001
00001000
,
00100000
00100000
00010000
10000000
,
01010000
01000000
00011000
00010000
,
00001100
00000100
00022000
00033000
,
00022000
00000000
00000000
00000000
,
00000000
00000000
00000000
00000000
,
00033000
00000000
00000000
00000000
;

//---------------dance-single - ----------------
#NOTES:
     dance-single:
     :
     Easy:
     5:
     0.253115,0.346003,0.066861,0.183867,0.000000,212.000000,204.000000,8.000000,22.000000,0.000000,0.000000,0.253115,0.346003,0.066861,0.183867,0.000000,212.000000,204.000000,8.000000,22.000000,0.000000,0.000000:
0000
0000
0000
0000
,
0000
0000
0000
0000
,
0000
0000
0000
0000
,
0000
0000
1000
0000
,
1000
0000
0001
0000
,
0001
0000
1000
0000
,
1000
0000
0001
0001
,
0001
0000
0100
0000
,
0100
0000
0001
0000
,
0001
0000
1000
0000
,
1000
0000
0100
0100
,
0000
0001
1000
0001
,
0100
0100
0010
0010
,
0001
1000
0001
1000
,
0100
0100
0010
0010
,
0000
1000
0001
1000
,
0010
0010
1001
1001
,
0200
0300
0001
1000
,
0010
0010
0020
0030
,
0002
0000
1003
0000
,
0010
0100
0001
1000
,
0001
0000
0010
0001
,
1000
0010
0010
1000
,
0001
0000
1000
0001
,
0010
0010
0001
1000
,
0200
0300
0001
1000
,
0020
0030
0200
0300
,
1000
0001
1000
0001
,
2000
3000
0002
0003
,
1000
1000
0001
0001
,
2000
3000
0002
0003
,
0100
0100
0010
0010
,
0200
0300
0020
0030
,
1000
1000
0001
0001
,
1000
0001
1000
0000
,
0010
0010
0010
0000
,
0001
0100
1000
0000
,
0010
0010
0010
0000
,
1000
0100
0001
0000
,
0000
0001
0000
1000
,
0000
0010
0000
0100
,
0000
0001
0000
1000
,
0000
0100
0100
0100
,
0020
0030
0200
0300
,
0001
0001
1000
1000
,
0200
0300
0020
0030
,
1000
1000
0001
0001
,
0010
0010
0010
0010
,
0100
0100
0100
0100
,
0001
1000
0001
1000
,
0001
0010
0100
1000
,
0010
0010
0001
0001
,
0100
0100
1000
1000
,
0010
0010
0001
0001
,
0100
0100
0002
0003
,
0010
0010
1000
1000
,
0100
0100
0001
0001
,
0100
0100
1000
1000
,
0010
0001
0200
0300
,
0010
1000
0010
1000
,
0001
0100
0001
0100
,
1000
0010
1000
0010
,
0001
1000
0001
0100
,
0010
1000
1000
0001
,
0010
0010
0001
1000
,
1001
0000
1001
0000
,
1001
1001
2002
3003
,
2002
0000
0000
0000
,
0000
0000
0000
0000
,
3003
0000
0000
0000
;

//---------------dance-single - ----------------
#NOTES:
     dance-single:
     :
     Beginner:
     2:
     0.159988,0.201835,0.008358,0.066861,0.000000,134.000000,133.000000,1.000000,8.000000,0.000000,0.000000,0.159988,0.201835,0.008358,0.066861,0.000000,134.000000,133.000000,1.000000,8.000000,0.000000,0.000000:
// measure 0
0000
0000
0000
0000
,  // measure 1
0000
0000
0000
0000
,  // measure 2
0000
0000
0000
0000
,  // measure 3
0000
0000
0000
0000
,  // measure 4
0000
0000
0000
0000
,  // measure 5
0000
0000
1000
0000
,  // measure 6
1000
0000
0001
0000
,  // measure 7
0001
0000
0100
0000
,  // measure 8
0100
0000
0010
0000
,  // measure 9
0010
0000
0100
0000
,  // measure 10
0100
0100
0000
0100
,  // measure 11
0000
0001
0000
0001
,  // measure 12
0000
1000
0000
1000
,  // measure 13
0000
0010
0000
0010
,  // measure 14
0000
0100
0100
0100
,  // measure 15
0000
0001
0001
0001
,  // measure 16
0001
0000
1000
0000
,  // measure 17
1000
0000
1000
0000
,  // measure 18
0001
0001
0001
0000
,  // measure 19
0200
0000
0300
0000
,  // measure 20
0010
0000
0010
0000
,  // measure 21
0100
0000
0010
0000
,  // measure 22
1000
0000
1000
0000
,  // measure 23
0001
0002
0003
0000
,  // measure 24
0100
0000
0100
0000
,  // measure 25
0010
0000
0010
0000
,  // measure 26
0010
0010
0010
0000
,  // measure 27
0100
0000
0100
0000
,  // measure 28
0200
0000
0300
0000
,  // measure 29
0001
0000
0001
0000
,  // measure 30
2000
0000
3000
0000
,  // measure 31
0010
0000
0010
0000
,  // measure 32
0100
0000
0100
0000
,  // measure 33
1000
0000
0001
0000
,  // measure 34
1000
1000
1000
0000
,  // measure 35
0100
0000
0100
0000
,  // measure 36
0010
0010
0010
0000
,  // measure 37
0100
0000
0100
0000
,  // measure 38
0010
0010
0010
0000
,  // measure 39
0000
1000
0000
1000
,  // measure 40
0000
0001
0000
0001
,  // measure 41
0000
0100
0000
0100
,  // measure 42
0000
0010
0010
0000
,  // measure 43
0100
0000
0100
0000
,  // measure 44
0002
0000
0003
0000
,  // measure 45
0100
0000
0100
0000
,  // measure 46
2000
0000
3000
0000
,  // measure 47
0100
0000
0001
0000
,  // measure 48
0100
0000
1000
0000
,  // measure 49
0100
0000
0100
0000
,  // measure 50
0100
0100
0100
0000
,  // measure 51
0010
0000
0010
0000
,  // measure 52
0001
0001
0001
0000
,  // measure 53
0010
0000
0010
0000
,  // measure 54
1000
1000
1000
0000
,  // measure 55
0010
0000
0010
0000
,  // measure 56
0100
0100
0100
0000
,  // measure 57
0010
0000
0010
0000
,  // measure 58
1000
1000
1000
0000
,  // measure 59
0001
0000
0001
0000
,  // measure 60
1000
0000
1000
0000
,  // measure 61
0100
0000
0100
0000
,  // measure 62
0010
0000
0010
0000
,  // measure 63
0001
0000
1000
0000
,  // measure 64
0100
0000
0010
0000
,  // measure 65
0001
0000
0001
0000
,  // measure 66
1000
1000
1000
0000
,  // measure 67
2002
0000
0000
0000
,  // measure 68
0000
0000
0000
0000
,  // measure 69
3003
0000
0000
0000
;
