#TITLE:KILLER BEE;
#SUBTITLE:;
#ARTIST:GOTH;
#TITLETRANSLIT:;
#SUBTITLETRANSLIT:;
#ARTISTTRANSLIT:;
#GENRE:;
#CREDIT:;
#BANNER:KILLER BEE.png;
#BACKGROUND:KILLER BEE-bg.png;
#LYRICSPATH:;
#CDTITLE:;
#MUSIC:KILLER BEE.ogg;
#OFFSET:-0.080000;
#SAMPLESTART:25.161724;
#SAMPLELENGTH:12.258064;
#SELECTABLE:YES;
#BPMS:0.000000=155.000000
,60.000000=120.000000
,61.000000=90.000000
,61.500000=77.500000
,89.000000=155.000000
,97.000000=77.500000
,129.000000=155.000000
,191.500000=77.500000
;
#STOPS:61.875000=0.700000,
77.750000=0.774193,
191.500000=0.580643
;
#BGCHANGES:0.000=KILLER BEE.avi=1.000=0=0=0=StretchNoLoop====,
99999=-nosongbg-=1.000=0=0=0 // don't automatically add -songbackground-
;
#KEYSOUNDS:;
#ATTACKS:;

//---------------dance-single - ----------------
#NOTES:
     dance-single:
     :
     Hard:
     13:
     0.503455,0.704838,0.085388,0.093150,0.419177,454.000000,443.000000,11.000000,12.000000,0.000000,0.000000,0.503455,0.704838,0.085388,0.093150,0.419177,454.000000,443.000000,11.000000,12.000000,0.000000,0.000000:
0000
0000
0000
0000
,
0000
0000
0000
0000
,
0000
0000
0000
0000
,
0000
0000
0000
0000
,
0100
0100
0100
0100
,
0001
0001
0001
0001
,
1000
1000
1000
1000
,
0010
0010
0010
0010
,
1001
0000
0100
0010
0100
0010
0100
0010
,
0100
0100
0010
0010
0100
0010
0100
0000
,
1001
0000
0010
0010
0100
0100
0010
0010
,
0100
0100
0010
0010
0100
0010
0100
0000
,
0001
0001
1000
1000
0001
0001
1000
1000
,
0010
0010
1000
1000
0010
0010
1000
1000
,
0001
0010
0100
1000
0001
0010
0100
1000
,
0002
0000
0000
0000
0023
0000
0000
0000
0230
0000
0000
0000
2300
0000
0000
0000
3001
0000
0010
0000
0000
0100
0000
0000
0010
0000
0000
0100
0000
0000
0010
0000
,
0000
0000
1000
0001
1000
0000
0001
0000
1000
0000
0000
1000
0000
0000
1000
0000
0000
0000
0001
0000
0100
0000
0001
0000
0100
0000
0000
0100
0000
0000
0100
0000
,
1000
0000
0010
0000
1000
0000
0010
0000
0100
0000
0000
0100
0000
0000
0010
0000
1000
0000
0000
0000
0001
0000
0010
0000
0001
0000
0000
0001
0000
0000
0001
0000
,
0100
0000
0010
0100
0010
0000
0100
0000
0010
0000
0000
0010
0000
0000
0010
0000
2000
0000
0000
0000
3002
0000
0000
0000
0203
0000
0000
0000
0320
0000
0000
0000
,
1030
0000
0100
0000
0010
0000
0001
0000
1000
0000
0000
0001
0000
0000
1001
0000
0110
0000
0000
0010
0000
0000
0010
0000
1000
0000
0100
0000
0010
0000
0001
0000
,
0100
0000
0000
0100
0000
0000
0100
0000
0001
0000
0010
0000
0100
0000
1000
0000
0010
0000
0000
0010
0000
0000
0010
0000
1000
0000
0100
1000
0100
0000
1000
0000
,
0010
0000
0000
0010
0000
0000
0010
0000
0100
0000
0000
0000
0001
0000
1000
0000
0001
0000
0000
0001
0000
0000
0001
0000
0100
0000
0001
0100
0001
0000
0100
0000
,
0010
0000
0000
0010
0000
0000
0010
0000
1000
0000
0000
0000
0100
0000
0000
0000
0010
0000
0000
0000
0001
0000
0000
0000
1000
0000
0000
0000
0100
0000
0000
0000
,
0010
0001
0100
0010
0100
0010
1000
0001
,
1000
0001
1001
0100
0001
0100
1000
0100
,
0001
0010
1000
0010
0001
0010
1000
0100
,
0010
0001
0100
1000
0100
1000
0001
0100
,
0001
0100
1000
0100
0001
0100
1000
0010
,
0001
0010
1000
0100
0010
0001
1000
0100
,
0010
0001
0010
1000
0100
0001
0010
1000
,
0100
0001
0100
1000
0100
1000
0001
0100
,
0001
0100
0010
1000
0010
1000
0001
0010
,
0001
0010
1001
0000
0010
1000
0100
0010
,
0001
0100
0010
0200
0300
0001
0100
0010
,
1000
0000
1001
0000
0010
1000
0100
0010
,
0001
0100
0010
0001
0001
1000
1000
0010
,
0100
0000
0000
0001
0000
1000
1000
0010
,
0010
0100
0100
0001
0000
0001
0100
0100
,
0010
0000
1000
1000
0001
0001
1000
1000
,
0001
0001
0100
0010
0100
0010
0100
0100
,
0110
0001
0001
0100
,
0100
1000
1000
0100
,
0100
0001
0100
1000
,
0100
0000
0001
0100
1000
0100
0001
0100
,
1000
0100
0001
0100
0001
0100
1000
0100
,
1000
0100
0001
0100
0001
0100
1000
0100
,
1000
0100
0010
0001
0010
0001
0010
1000
,
0010
1000
0010
0010
0100
0100
0010
0010
,
1000
0000
0001
0000
1000
0000
0001
0000
0000
0001
0000
0000
0001
0000
1000
0000
0000
1000
0000
0000
1000
0000
0000
0100
0000
0000
0001
0000
0000
0000
0000
0000
,
0100
0000
0010
0000
0100
0000
0000
0010
0000
0000
0010
0000
1000
0000
0000
1000
0000
0000
1000
0000
0001
0000
0000
0001
0000
0000
0001
0000
1000
0000
0000
0000
,
0001
0000
0001
0000
0100
0000
0100
0000
0000
0100
0000
0000
0010
0000
0010
0000
0000
0010
0000
0000
1000
0000
0000
0100
0000
0000
0001
0000
0000
0000
0000
0000
,
0010
0000
1000
0000
0010
0000
0000
1000
0000
0000
0100
0000
0010
0000
0000
0001
0000
0000
0100
0000
0010
0000
0000
0100
0000
0000
1000
0000
0002
0000
0000
0000
,
0000
0000
0000
0000
1003
0000
1000
0000
0000
0010
0000
0000
0001
0000
0001
0000
0000
0010
0000
0000
1000
0000
0000
0100
0000
0000
0001
0000
0100
0000
0000
0000
,
0010
0000
0010
0000
1000
0000
0000
0100
0000
0000
1000
0000
0001
0000
0000
0100
0000
0000
0001
0000
0010
0000
0000
0110
0000
0000
1001
0000
1000
0000
0000
0000
,
0001
0000
0001
0000
0100
0000
0100
0000
0010
0100
0000
0000
0001
0000
0001
0000
1000
0001
0000
0000
1000
0000
0000
0100
0000
0000
0001
0000
0010
0000
0010
0000
,
0100
0000
0100
0000
0001
0000
0001
0000
1000
0000
1000
0000
0001
0000
0010
0000
0100
0000
1000
0000
0001
0000
0000
0100
0000
0000
0010
0000
2002
0000
0000
0000
,
0000
0000
0000
3003
;

//---------------dance-single - ----------------
#NOTES:
     dance-single:
     :
     Medium:
     8:
     0.318264,0.462550,0.023288,0.085388,0.128082,287.000000,284.000000,3.000000,11.000000,0.000000,0.000000,0.318264,0.462550,0.023288,0.085388,0.128082,287.000000,284.000000,3.000000,11.000000,0.000000,0.000000:
0000
0000
0000
0000
,
0000
0000
0000
0000
,
0000
0000
0000
0000
,
0000
0000
0000
0000
,
0010
0010
0010
0010
,
0100
0100
0100
0100
,
0001
0001
0001
0001
,
1000
1000
1000
1000
,
0010
0010
0100
0100
,
0001
0001
1000
1000
,
0010
0010
0100
0100
,
0001
0001
1000
1000
,
0010
0100
0001
1000
,
0010
0100
0001
1000
,
0010
0100
0001
1000
0010
0100
0001
1000
,
0020
0000
0000
0000
0000
0000
0000
0000
0130
1000
0000
0000
1100
0000
0000
0000
,
0001
0000
0100
0000
0001
0100
0000
0000
1000
0100
0000
0000
1100
0000
0000
0000
,
0010
0000
0100
0000
0010
0100
0000
0000
1000
0100
0000
0000
1100
0000
0000
0000
,
0001
0000
0100
0000
0001
0100
0000
0000
1000
0000
0100
0000
0010
0000
0001
0000
,
1000
0000
0001
0000
1000
0000
0001
0000
1000
0000
0000
0000
0000
0000
0010
0000
0100
0000
0000
0100
0000
0000
0100
0000
0000
0000
0000
0000
1000
0000
0000
0000
,
0001
0000
0000
0001
0000
0000
0001
0000
0100
0000
0000
0000
0000
0000
0000
0000
0010
0000
0000
0010
0000
0000
0010
0000
0000
0000
0000
0000
1000
0000
0000
0000
,
0001
0000
0000
0001
0000
0000
0001
0000
0100
0000
0000
0000
0000
0000
0000
0000
0010
0000
0000
0010
0000
0000
0010
0000
1000
0000
0000
0000
0001
0000
0000
0000
,
1000
0000
0000
1000
0000
0000
1000
0000
0000
0000
0000
0000
0100
0000
0000
0000
0000
0000
0000
0000
0010
0000
0000
0000
0000
0000
0000
0000
0100
0000
0000
0000
,
0000
0010
1000
0001
1000
0001
1000
0001
,
1000
0100
0020
0000
1030
0000
0020
0000
,
0031
0200
1300
0200
,
0301
0000
0100
1000
0100
1000
0100
1000
,
0100
0000
0001
0100
0001
0100
0001
0100
,
0001
0000
0010
0010
0010
0000
0100
0100
,
0100
0000
0001
0001
0001
0000
1000
1000
,
1000
0000
0001
0100
0001
0100
0001
0100
,
0001
0000
1000
0100
1000
0100
1000
0100
,
1000
0020
0000
0031
,
0000
0020
0000
1030
,
0000
0200
0000
0301
,
0000
0200
0000
1300
,
0000
0010
0001
0010
,
0000
0010
1000
0010
,
0000
0100
0001
0100
,
0000
0100
1000
0100
,
0000
0010
0010
0100
,
0100
0001
1000
0001
,
1000
0010
0010
0100
,
0100
1000
0001
1000
,
0001
0010
0100
1000
,
0001
0010
0100
1000
,
0001
0000
0010
0100
0010
0100
1000
0001
,
1000
0001
0010
0010
0010
0010
0020
0000
,
0130
1000
0010
0000
0100
0001
0010
0000
,
0010
1000
0100
0000
0010
0001
0100
0000
,
1000
0100
0001
0000
0001
0100
1000
0000
,
0001
0000
0000
0000
0010
0000
0000
0000
1000
0000
0000
0000
0000
0000
0000
0000
1000
0000
0000
0000
0010
0000
0000
0001
0000
0000
0100
0000
0010
0000
0000
0000
,
1000
0000
0000
0000
0001
0000
0000
0000
1000
0000
0000
0000
0010
0000
0000
0000
0001
0000
0000
0000
1000
0000
0000
1000
0000
0000
1000
0000
0000
0000
0000
0000
,
0010
0000
0000
0000
0100
0000
0000
0000
0010
0000
0000
0000
1000
0000
0000
0000
0001
0000
0000
0000
1000
0000
0000
1000
0000
0000
1000
0000
0001
0000
0000
0000
,
0010
0000
0000
0000
0100
0000
0000
0000
1000
0000
0000
0000
0010
0000
0000
0000
0010
0000
0000
0000
0100
0000
0000
0100
0000
0000
0100
0000
0010
0000
0000
0000
,
0010
0000
0000
0000
0100
0000
0000
0000
0100
0000
0000
0000
1000
0000
0001
0000
1000
0000
0001
0000
0100
0000
0000
0100
0000
0000
0100
0000
0020
0000
0000
0000
,
0000
0000
0000
0030
;

//---------------dance-single - ----------------
#NOTES:
     dance-single:
     :
     Beginner:
     3:
     0.113111,0.173493,0.000000,0.000000,0.000000,102.000000,102.000000,0.000000,0.000000,0.000000,0.000000,0.113111,0.173493,0.000000,0.000000,0.000000,102.000000,102.000000,0.000000,0.000000,0.000000,0.000000:
0000
0000
0000
0000
,
0000
0000
0000
0000
,
0000
0000
0000
0000
,
0000
0000
0000
0000
,
0000
0000
0000
0000
,
0000
0000
0000
0000
,
0000
0000
0000
0000
,
0000
0000
0000
0000
,
0010
0000
0010
0000
,
0100
0000
0100
0000
,
1000
0000
0001
0000
,
1000
0000
0001
0000
,
0010
0010
0010
0000
,
0100
0100
0100
0000
,
0010
0010
0010
0010
,
0010
0000
0000
1000
,
0000
0001
0000
1000
,
0000
0001
0000
0100
,
0000
0010
0000
0100
,
0000
0010
0010
0000
,
0100
0000
0010
0000
,
0100
0000
1000
0000
,
0001
0000
0000
1000
,
0000
0001
0001
0001
,
0001
0000
0001
0000
,
0100
0000
1000
0000
,
0100
0000
0001
0000
,
0010
0000
1000
0000
,
0010
0000
0001
0000
,
0010
0000
0100
0000
,
1000
0000
1000
0000
,
0100
0000
0010
0000
,
0001
0001
0000
0000
,
0000
1000
0000
0000
,
0000
0010
0000
0000
,
0000
0100
0000
0000
,
0000
0001
0000
1000
,
0000
0010
0000
0100
,
0000
0001
0000
1000
,
0000
0010
0000
0100
,
0000
0001
0000
0001
,
0000
1000
0000
1000
,
0000
0010
0000
0010
,
0000
0100
0000
0100
,
0000
0010
0000
0100
,
0000
0001
0000
1000
,
0000
0010
0010
0010
,
0010
0010
0010
0010
,
0000
1000
0000
0000
0000
0001
0000
0000
,
0000
1000
0000
0000
0000
0001
0000
0000
,
0000
0100
0000
0000
0000
0010
0000
0000
,
0000
0100
0000
0000
0000
0010
0000
0000
,
0000
1000
0000
0000
0000
0100
0000
0000
,
0000
0010
0000
0000
0000
0001
0000
0000
,
0000
0001
0000
0000
0000
0010
0000
0000
,
0000
0100
0000
0000
0000
0010
0000
0010
;

//---------------dance-single - ----------------
#NOTES:
     dance-single:
     :
     Easy:
     5:
     0.180756,0.264314,0.062100,0.023288,0.000000,163.000000,155.000000,8.000000,3.000000,0.000000,0.000000,0.180756,0.264314,0.062100,0.023288,0.000000,163.000000,155.000000,8.000000,3.000000,0.000000,0.000000:
0000
0000
0000
0000
,
0000
0000
0000
0000
,
0000
0000
0000
0000
,
0000
0000
0000
0000
,
0000
0000
0000
0000
,
0000
0000
0000
0000
,
0000
0000
0000
0000
,
0000
0000
0000
0000
,
0100
0100
0100
0100
,
0010
0010
0010
0010
,
1000
1000
1000
1000
,
0001
0001
0001
0001
,
0100
0100
0010
0010
,
1000
1000
0001
0001
,
0100
0010
1000
0001
,
0200
0000
0300
0001
,
1000
0001
0000
1000
,
0001
1000
0000
0001
,
1000
0001
0000
1000
,
0001
1000
0100
0100
,
1001
0000
0010
0010
,
1001
0000
0100
0100
,
1001
0000
0010
1000
,
0100
0010
0001
0100
,
0100
1001
1000
0000
,
0001
0000
1000
0000
,
0001
0000
0100
0000
,
0010
0000
0100
0000
,
0010
0000
1000
0100
,
0001
0000
0001
0100
,
1000
0000
1000
0010
,
0001
0000
0001
0010
,
1000
0100
0000
0100
,
0000
0010
0000
0010
,
0000
0100
0000
0100
,
0000
0010
0000
0010
,
0000
1000
0000
0100
,
0000
0010
0000
0001
,
0000
1000
0000
0100
,
0000
0010
0000
0001
,
0000
0010
0000
0001
,
0000
0100
0100
0100
,
0000
0010
0000
1000
,
0000
0100
0100
0100
,
0000
0001
0001
0001
,
0001
1000
1000
1000
,
1000
0001
0001
1000
,
1000
0001
1000
0001
,
0000
0100
0000
0001
0010
0100
0000
0000
,
0000
0010
0000
1000
0100
0010
0000
0001
,
0000
0001
0000
1000
1000
1000
0000
0001
,
0000
0001
0000
1000
1000
1000
0000
0010
,
0000
0100
0000
0010
0000
0110
0000
1000
,
0000
0001
0000
1000
0000
1001
0000
0001
,
0000
1000
0000
0001
0000
1001
0000
0100
,
0000
0100
0000
0010
0010
0010
0000
2002
,
0000
0000
0000
3003
;

//---------------dance-double - ----------------
#NOTES:
     dance-double:
     :
     Hard:
     13:
     0.472405,0.682811,0.069863,0.108675,0.392008,426.000000,417.000000,9.000000,14.000000,0.000000,0.000000,0.472405,0.682811,0.069863,0.108675,0.392008,426.000000,417.000000,9.000000,14.000000,0.000000,0.000000:
00000000
00000000
00000000
00000000
,
00000000
00000000
00000000
00000000
,
00000000
00000000
00000000
00000000
,
00000000
00000000
00000000
00000000
,
01000000
01000000
01000000
01000000
,
00010000
00010000
00010000
00010000
,
00001000
00001000
00001000
00001000
,
00000010
00000010
00000010
00000010
,
00001001
00000000
00000100
00000010
00000100
00000010
00000100
00000010
,
00000100
00000100
00000000
00001000
00000100
00001000
00000100
00000000
,
00011000
00000000
00100000
00010000
00100000
00100000
00010000
00000000
,
01000000
01000000
00000000
00100000
01000000
00100000
01000000
00000000
,
00010000
00010000
10000000
10000000
00010000
00010000
01000000
00000000
,
00001000
00001000
00010000
00010000
00001000
00001000
00010000
00000000
,
00001000
00000100
00000010
00000001
00001000
00000100
00000010
00000001
,
00002000
00000000
00000000
00000000
00003200
00000000
00000000
00000000
00020300
00000000
00000000
00000000
00032000
00000000
00000000
00000000
00013000
00000000
00100000
00000000
00000000
01000000
00000000
00000000
00100000
00000000
00000000
01000000
00000000
00000000
00100000
00000000
,
00000000
00000000
10000000
00010000
10000000
00000000
00010000
00000000
10000000
00000000
00000000
10000000
00000000
00000000
10000000
00000000
00000000
00000000
00100000
00000000
00001000
00000000
00010000
00000000
00000100
00000000
00000000
00000100
00000000
00000000
00000100
00000000
,
00001000
00000000
00000010
00000000
00001000
00000000
00000010
00000000
00000100
00000000
00000000
00000100
00000000
00000000
00000010
00000000
00001000
00000000
00000000
00000000
00000001
00000000
00000010
00000000
00000001
00000000
00000000
00000001
00000000
00000000
00000001
00000000
,
00001000
00000000
00000100
00001000
00000100
00000000
00010000
00000000
00001000
00000000
00000000
00001000
00000000
00000000
00001000
00000000
00020000
00000000
00000000
00000000
00230000
00000000
00000000
00000000
02300000
00000000
00000000
00000000
03200000
00000000
00000000
00000000
,
10300000
00000000
01000000
00000000
00100000
00000000
00010000
00000000
00001000
00000000
00000000
00000010
00000000
00000000
00001001
00000000
00000110
00000000
00000000
00001000
00000000
00000000
00001000
00000000
00000000
00000000
00001000
00000000
00010000
00000000
00000000
00000000
,
00100000
00000000
00000000
00100000
00000000
00000000
00100000
00000000
01000000
00000000
00000000
00000000
10000000
00000000
00000000
00000000
00010000
00000000
00000000
00010000
00000000
00000000
00010000
00000000
00000000
00000000
00001000
00000000
00000100
00000000
00000000
00000000
,
00000010
00000000
00000000
00000010
00000000
00000000
00000010
00000000
00000001
00000000
00000000
00000000
00000100
00000000
00001000
00000000
00000100
00000000
00000000
00000100
00000000
00000000
00000100
00000000
00000000
00000000
00010000
00000000
00001000
00000000
00000000
00000000
,
00100000
00000000
00000000
00010000
00000000
00000000
01000000
00000000
10000000
00000000
00000000
00000000
01000000
00000000
00000000
00000000
00100000
00000000
00000000
00000000
00010000
00000000
00000000
00000000
00100000
00000000
00000000
00000000
00001000
00000000
00000000
00000000
,
00010000
00000100
00001000
00010000
00100000
01000000
10000000
00010000
,
10000000
00010000
10000000
01000000
00100000
00010000
00001000
00000100
,
00000010
00000001
00000100
00001000
00000100
00001000
00010000
00100000
,
00010000
00100000
10000000
00100000
01000000
00010000
00001000
00000010
,
00000100
00000001
00000100
00001000
00000100
00001000
00100000
00010000
,
00100000
00010000
00000010
00000100
00000001
00001000
00010000
01000000
,
00100000
10000000
00010000
01000000
00100000
00010000
00001000
00000010
,
00000100
00000001
00001000
00001000
00000100
00000100
00010000
00010000
,
00100000
00100000
10000000
00010000
00001000
00010000
10000000
01000000
,
20020000
30030000
10010000
00000000
00100000
10000000
01000000
00100000
,
00010000
01000000
00100000
02000000
03000000
00010000
01000000
00001000
,
00010000
00000000
00011000
00000000
00000100
00001000
00000100
00000010
,
00000001
00000100
00000010
00000001
00000001
00001000
00001000
00000010
,
00000100
00000000
00000000
00010000
00000000
00001000
00001000
00100000
,
00100000
01000000
01000000
00010000
00000000
00010000
01000000
01000000
,
00100000
00000000
10000000
10000000
00010000
00010000
10000000
10000000
,
00010000
00010000
00100000
00001000
00100000
00001000
00001000
00100000
,
00101000
00010000
00010000
01000000
,
01000000
10000000
10000000
01000000
,
01000000
00010000
00000100
00000001
,
00000100
00001000
00010000
00100000
,
10000000
00000000
01000000
00010000
01000000
00000000
00010000
00001000
,
00010000
00000000
00000100
00001000
00000100
00000000
00000010
00000001
,
00000010
00000000
00000100
00001000
00000100
00000000
00010000
00001000
,
00010000
00000000
00100000
00001000
00100000
00010000
00100000
00100000
,
10000000
00000000
00010000
00000000
10000000
00000000
00010000
00000000
00000000
00010000
00000000
00000000
00010000
00000000
00001000
00000000
00000000
00001000
00000000
00000000
00001000
00000000
00000000
00000100
00000000
00000000
00000001
00000000
00000000
00000000
00000000
00000000
,
00000100
00000000
00000010
00000000
00000100
00000000
00000000
00000010
00000000
00000000
00000010
00000000
00001000
00000000
00000000
00001000
00000000
00000000
00001000
00000000
00010000
00000000
00000000
00010000
00000000
00000000
00010000
00000000
10000000
00000000
00000000
00000000
,
00010000
00000000
00010000
00000000
01000000
00000000
01000000
00000000
00000000
01000000
00000000
00000000
00100000
00000000
00100000
00000000
00000000
00100000
00000000
00000000
00001000
00000000
00000000
00000100
00000000
00000000
00000001
00000000
00000000
00000000
00000000
00000000
,
00000010
00000000
00001000
00000000
00000010
00000000
00000000
00001000
00000000
00000000
00000100
00000000
00000010
00000000
00000000
00000001
00000000
00000000
00000100
00000000
00000010
00000000
00000000
00000100
00000000
00000000
00001000
00000000
00020000
00000000
00000000
00000000
,
00000000
00000000
00000000
00000000
10030000
00000000
10000000
00000000
00000000
00100000
00000000
00000000
00010000
00000000
00010000
00000000
00000000
00000100
00000000
00000000
00000001
00000000
00000000
00000010
00000000
00000000
00001000
00000000
00000010
00000000
00000000
00000000
,
00000100
00000000
00000100
00000000
00000001
00000000
00000000
00000010
00000000
00000000
00000001
00000000
00001000
00000000
00000000
00000100
00000000
00000000
00010000
00000000
00001000
00000000
00000000
00100000
00000000
00000000
01000000
00000000
10000000
00000000
00000000
00000000
,
00010000
00000000
00010000
00000000
01000000
00000000
01000000
00000000
00100000
01000000
00000000
00000000
00010000
00000000
00010000
00000000
10000000
00010000
00000000
00000000
10000000
00000000
00000000
01000000
00000000
00000000
00100000
00000000
00001000
00000000
00010000
00000000
,
00000100
00000000
00001000
00000000
00000010
00000000
00000100
00000000
00000001
00000000
00001000
00000000
00000100
00000000
00010000
00000000
00001000
00000000
01000000
00000000
00010000
00000000
00000000
01000000
00000000
00000000
00100000
00000000
20020000
00000000
00000000
00000000
,
00000000
00000000
00000000
30030000
;

//---------------dance-double - ----------------
#NOTES:
     dance-double:
     :
     Medium:
     8:
     0.293867,0.418497,0.015525,0.147488,0.143607,265.000000,263.000000,2.000000,19.000000,0.000000,0.000000,0.293867,0.418497,0.015525,0.147488,0.143607,265.000000,263.000000,2.000000,19.000000,0.000000,0.000000:
// measure 0
00000000
00000000
00000000
00000000
,  // measure 1
00000000
00000000
00000000
00000000
,  // measure 2
00000000
00000000
00000000
00000000
,  // measure 3
00000000
00000000
00000000
00000000
,  // measure 4
00001000
00001000
00001000
00001000
,  // measure 5
00010000
00010000
00010000
00010000
,  // measure 6
00001000
00001000
00010000
00010000
,  // measure 7
00001000
00010000
00100000
01000000
,  // measure 8
00100000
00100000
01000000
01000000
,  // measure 9
00010000
00010000
00001000
00001000
,  // measure 10
00000010
00000010
00000100
00000100
,  // measure 11
00001000
00001000
00010000
00010000
,  // measure 12
00100000
01000000
00010000
00001000
,  // measure 13
00000010
00000100
00001000
00010000
,  // measure 14
00100000
01000000
00010000
10000000
00100000
01000000
00010000
10000000
,  // measure 15
00200000
00000000
00000000
00000000
00000000
00000000
00000000
00000000
01300000
10000000
00000000
00000000
11000000
00000000
00000000
00000000
,  // measure 16
00010000
00000000
01000000
00000000
00010000
01000000
00000000
00000000
00001000
00000000
00000000
00000000
00001000
00000000
00010000
00000000
,  // measure 17
00000100
00000000
00000010
00000000
00000100
00000010
00000000
00000000
00000001
00001000
00000000
00000000
00001001
00000000
00000000
00000000
,  // measure 18
00001000
00000000
00010000
00000000
00001000
00010000
00000000
00000000
00100000
00000000
01000000
00000000
00100000
00000000
00010000
00000000
,  // measure 19
10000000
00000000
00010000
00000000
10000000
00000000
00010000
00000000
10000000
00000000
00000000
00000000
00000000
00000000
00100000
00000000
01000000
00000000
00000000
01000000
00000000
00000000
01000000
00000000
00000000
00000000
00000000
00000000
00000000
00000000
00000000
00000000
,  // measure 20
00010000
00000000
00000000
00010000
00000000
00000000
00010000
00000000
00000000
00000000
00000000
00000000
00000000
00000000
00000000
00000000
00001000
00000000
00000000
00001000
00000000
00000000
00001000
00000000
00000000
00000000
00000000
00000000
00001000
00000000
00000000
00000000
,  // measure 21
00000001
00000000
00000000
00000001
00000000
00000000
00000001
00000000
00000100
00000000
00000000
00000000
00000000
00000000
00000000
00000000
00000010
00000000
00000000
00000010
00000000
00000000
00000010
00000000
00001000
00000000
00000000
00000000
00010000
00000000
00000000
00000000
,  // measure 22
00100000
00000000
00000000
00100000
00000000
00000000
00100000
00000000
00000000
00000000
00000000
00000000
01000000
00000000
00000000
00000000
00000000
00000000
00000000
00000000
00100000
00000000
00000000
00000000
00000000
00000000
00000000
00000000
01000000
00000000
00000000
00000000
,  // measure 23
00000000
00100000
10000000
00010000
10000000
00010000
10000000
00010000
,  // measure 24
10000000
01000000
20000000
00000000
30100000
00000000
00200000
00000000
,  // measure 25
00310000
00002000
00003010
00000020
,  // measure 26
00000031
00000002
00000103
00000200
,  // measure 27
00001300
00020000
01030000
02000000
,  // measure 28
13000000
00000000
00100000
00010000
00100000
00010000
00100000
00000000
,  // measure 29
00010000
00000000
00000100
00001000
00000100
00001000
00000100
00000000
,  // measure 30
00010000
00000000
00100000
10000000
00010000
10000000
01000000
00000000
,  // measure 31
00010000
00000000
00000100
00001000
00000001
00001000
00000010
00010000
,  // measure 32
00001000
00100000
00020000
00000000
00000000
00000000
10030000
00000000
,  // measure 33
00000000
20000000
00000000
30010000
,  // measure 34
00000000
02000000
00000000
03001000
,  // measure 35
00000000
00002000
00000000
01003000
,  // measure 36
00000000
00200000
00000000
00301000
,  // measure 37
00000000
00020000
00000000
00031000
,  // measure 38
00000000
00020000
00000000
00030010
,  // measure 39
00000000
00000200
00000000
00001300
,  // measure 40
00000000
00000001
00000001
00000100
,  // measure 41
00000100
00010000
00010000
01000000
,  // measure 42
01000000
10000000
10000000
00100000
,  // measure 43
00100000
00001000
00001000
00000010
,  // measure 44
00000010
00000100
01000000
00100000
,  // measure 45
00000010
00000100
01000000
00100000
,  // measure 46
00010000
10000000
00100000
01000000
,  // measure 47
00001000
00000000
00010000
00000000
00000010
00000000
00000200
00000300
,  // measure 48
00001000
00010000
00100000
00000000
01000000
00010000
00100000
00000000
,  // measure 49
00100000
10000000
01000000
00000000
00100000
00010000
00001000
00000000
,  // measure 50
00000010
00000100
00000001
00000000
00000100
00001000
00010000
00000000
,  // measure 51
00100000
00000000
00000000
00000000
00010000
00000000
00000000
00000000
01000000
00000000
00000000
00000000
10000000
00000000
00000000
00000000
00100000
00000000
00000000
00000000
00010000
00000000
00000000
00001000
00000000
00000000
00010000
00000000
00001000
00000000
00000000
00000000
,  // measure 52
00000000
00000000
00000000
00000000
00010000
00000000
00001000
00000000
00000000
00000100
00000000
00000000
00000000
00000000
00000000
00000000
00000001
00000000
00000000
00000000
00000100
00000000
00000000
00001000
00000000
00000000
00000100
00000000
00000000
00000000
00000000
00000000
,  // measure 53
00010000
00000000
00000000
00000000
00001000
00000000
00000000
00010000
00000000
00000000
00001000
00000000
00000000
00000000
00000000
00000000
00100000
00000000
00000000
00000000
00010000
00000000
00000000
01000000
00000000
00000000
00010000
00000000
00000000
00000000
00000000
00000000
,  // measure 54
10000000
00000000
00000000
00000000
00000000
00000000
01000000
00000000
00000000
10000000
00000000
00000000
01000000
00000000
00000000
00000000
00100000
00000000
00000000
00000000
00010000
00000000
00000000
00100000
00000000
00000000
00010000
00000000
00000000
00000000
00000000
00000000
,  // measure 55
00001000
00000000
00000000
00000000
00010000
00000000
00000000
00000000
00001000
00000000
00000000
00000000
00010000
00000000
00001000
00000000
00010000
00000000
00000000
00000000
00001000
00000000
00000000
00001000
00000000
00000000
00001000
00000000
00200000
00000000
00000000
00000000
,  // measure 56
00000000
00000000
00000000
00300000
;

//---------------dance-double - ----------------
#NOTES:
     dance-double:
     :
     Easy:
     5:
     0.169667,0.242288,0.015525,0.023288,0.000000,153.000000,151.000000,2.000000,3.000000,0.000000,0.000000,0.169667,0.242288,0.015525,0.023288,0.000000,153.000000,151.000000,2.000000,3.000000,0.000000,0.000000:
// measure 0
00000000
00000000
00000000
00000000
,  // measure 1
00000000
00000000
00000000
00000000
,  // measure 2
00000000
00000000
00000000
00000000
,  // measure 3
00000000
00000000
00000000
00000000
,  // measure 4
00000000
00000000
00000000
00000000
,  // measure 5
00000000
00000000
00000000
00000000
,  // measure 6
00000000
00000000
00000000
00000000
,  // measure 7
00000000
00000000
00000000
00000000
,  // measure 8
00001000
00000000
00001000
00000000
,  // measure 9
00010000
00000000
00010000
00000000
,  // measure 10
10000000
00000000
10000000
00000000
,  // measure 11
00010000
00000000
00010000
00000000
,  // measure 12
00001000
00000000
00000001
00000000
,  // measure 13
00001000
00000000
00010000
00000000
,  // measure 14
01000000
00100000
10000000
00010000
,  // measure 15
02000000
00000000
03000000
00010000
,  // measure 16
10000000
00010000
00000000
10000000
,  // measure 17
00010000
10000000
00000000
00010000
,  // measure 18
00001000
00010000
00000000
00001000
,  // measure 19
00010000
00001000
00000001
00001000
,  // measure 20
00000001
00000000
00001000
00010000
,  // measure 21
00001000
00000000
10000000
00010000
,  // measure 22
10000000
00000000
00100000
10000000
,  // measure 23
01000000
00100000
00010000
01000000
,  // measure 24
01000000
10010000
10000000
10000000
,  // measure 25
10000000
00000000
00010000
00010000
,  // measure 26
00010000
00000000
00001000
00001000
,  // measure 27
00001000
00000000
00000001
00000001
,  // measure 28
00000001
00000000
00000010
00000100
,  // measure 29
00001000
00000000
00100000
01000000
,  // measure 30
10000000
00000000
01000000
00100000
,  // measure 31
00010000
00000000
00000100
00000010
,  // measure 32
00000001
00000100
00000000
00000100
,  // measure 33
00001000
01000000
00000000
01000000
,  // measure 34
00010000
00000100
00000000
00000100
,  // measure 35
00001000
01000000
00000000
01000000
,  // measure 36
00000000
10000000
00000000
01000000
,  // measure 37
00010000
00100000
00000000
00100000
,  // measure 38
10000000
01000000
00000000
01000000
,  // measure 39
00010000
01000000
00000000
00010000
,  // measure 40
00001000
00010000
00000000
00001000
,  // measure 41
00000000
00000100
00000000
00000010
,  // measure 42
00000000
00000001
00000000
00000100
,  // measure 43
00000000
00010000
00000000
10000000
,  // measure 44
00000000
00010000
00010000
00010000
,  // measure 45
00010000
10000000
10000000
10000000
,  // measure 46
10000000
00010000
00010000
00001000
,  // measure 47
00001000
00010000
00001000
00010000
,  // measure 48
00000000
01000000
00000000
00010000
00100000
01000000
00000000
00000000
,  // measure 49
00000000
00100000
00000000
10000000
01000000
00100000
00000000
00000000
,  // measure 50
00000000
00000100
00000000
00001000
00000100
00000010
00000000
00000001
,  // measure 51
00000000
00000001
00000000
00000100
00001000
00000100
00000000
00001000
,  // measure 52
00000000
01000000
00000000
00010000
00000000
01000000
00000000
10000000
,  // measure 53
00000000
01000000
00000000
00001000
00000000
01000000
00000000
00001000
,  // measure 54
00000000
00000100
00000000
00010000
00000000
00000100
00000000
00010000
,  // measure 55
00000000
00001000
00000000
00010000
00100000
01000000
00000000
20020000
,  // measure 56
00000000
00000000
00000000
30030000
;
