#TITLE:か・し・ま・し☆PUMP UP!;
#SUBTITLE:;
#ARTIST:miko;
#TITLETRANSLIT:KA SHI MA SHI PUMP UP!;
#SUBTITLETRANSLIT:;
#ARTISTTRANSLIT:;
#GENRE:;
#CREDIT:;
#BANNER:KA SHI MA SHI PUMP UP!.png;
#BACKGROUND:KA SHI MA SHI PUMP UP!-bg.PNG;
#LYRICSPATH:;
#CDTITLE:;
#MUSIC:KA SHI MA SHI PUMP UP!.ogg;
#OFFSET:-0.070000;
#SAMPLESTART:39.963001;
#SAMPLELENGTH:12.000000;
#SELECTABLE:YES;
#DISPLAYBPM:175.000000;
#BPMS:0.000000=175.000000
;
#STOPS:
;
#BGCHANGES:-4.000=KA SHI MA SHI PUMP UP!.avi=1.000=0=0=0=StretchNoLoop====,
99999=-nosongbg-=1.000=0=0=0 // don't automatically add -songbackground-
;
#KEYSOUNDS:;
#ATTACKS:;

//---------------dance-single - ----------------
#NOTES:
     dance-single:
     :
     Hard:
     10:
     0.501454,0.557545,0.251288,0.392637,0.180613,447.000000,415.000000,32.000000,50.000000,0.000000,0.000000,0.501454,0.557545,0.251288,0.392637,0.180613,447.000000,415.000000,32.000000,50.000000,0.000000,0.000000:
0000
0000
0000
0000
,
0000
0000
0000
0000
,
1000
0000
0100
0000
1000
0000
0100
0000
1000
0000
0000
0100
0000
0000
0001
0000
,
0200
0000
0000
0000
0310
0000
0000
0000
0001
0000
0000
0100
0000
0000
0100
0000
,
0001
0010
0001
0000
1000
0100
1000
0000
,
0002
1000
1003
0110
,
1000
0000
0000
0001
0000
0000
1001
0000
0000
0000
0000
0000
0110
0000
0000
0000
,
0001
0000
0000
1000
0000
0000
1001
0000
0000
0000
0000
0000
0110
0000
0000
0000
,
1000
0000
0000
1000
0000
0000
0100
0000
0001
0000
0000
0001
0000
0000
0100
0000
,
1000
0000
0000
0010
0000
0000
0000
0000
1001
0000
0000
0000
0000
0000
0000
0000
,
0010
0100
0010
0000
0002
0000
1003
0000
,
0100
0010
0100
0000
2000
0000
3001
0000
,
1000
0000
0000
1000
0000
0000
2000
0000
0000
0000
0000
0000
3010
0000
0000
0000
,
0100
0010
0000
0100
0010
0000
0110
0000
,
0001
0100
0001
0000
0020
0000
1030
0000
,
1000
0010
1000
0000
0200
0000
0301
0000
,
0010
0000
0000
0010
0000
0000
0020
0000
0000
0000
0000
0000
0130
0000
0000
0000
,
1000
0001
0000
1000
0001
0000
1001
0000
,
0020
1000
0100
1030
,
0002
0000
0000
0000
0203
0000
0000
0000
0310
0000
0000
0010
0000
0000
1000
0000
,
0100
0010
0000
0100
0010
0000
1000
0001
,
0000
0110
1001
0000
,
1000
0000
0000
0100
0000
0000
2000
0000
0000
0000
0000
0000
3001
0000
0000
0000
,
0100
0010
0000
1000
0100
0000
1001
0000
,
0001
1000
0000
0001
1000
0000
0010
0100
,
0000
0000
1000
0000
0100
0000
0000
0000
0001
0000
0000
0100
0000
0000
0001
0000
,
0200
0010
0001
0310
,
1001
0000
0000
0000
1000
0000
0100
0000
1000
0000
0000
1000
0000
0000
0001
0000
,
0002
0100
0003
0100
0010
0000
1000
0000
,
0000
0000
0001
0000
0000
0010
0000
0000
0100
0000
0000
0010
0000
0000
0001
0000
,
2000
0010
0000
3010
,
0001
0000
0010
0000
0001
0000
0010
0000
0001
0000
0000
0100
0000
0000
0010
0000
,
1000
0100
0000
0001
0100
0000
1000
0100
,
0000
1001
0010
1001
,
0001
0100
0000
2000
0000
0000
3010
0000
,
0000
0001
1000
0001
1000
0000
0110
0000
,
1000
0100
0000
0001
0010
0100
1000
0001
,
0000
0200
0010
0310
,
2000
0000
3100
1000
0000
0001
0100
0002
,
0000
0103
1000
0110
,
1000
0001
1000
0001
0000
1000
0010
2000
,
0000
3001
0010
1001
,
0010
0000
0000
0100
0000
0000
0020
0000
0000
0000
0000
0000
0130
0000
0000
0000
,
0000
0000
0001
0000
0000
1000
0000
0000
0001
0000
0000
1000
0000
0000
0010
0000
,
0100
0000
0000
0101
0000
0000
0000
0000
0010
0000
0000
1010
0000
0000
0000
0000
,
1000
0001
1000
0001
1000
0001
1000
0000
0000
0000
0000
0000
,
0000
0000
0001
0000
0100
0000
0001
0000
0100
0000
0000
0100
0000
0000
0000
0000
,
2000
3100
0002
0103
,
0001
0010
0001
0000
1000
0010
1000
0000
,
0200
0000
0010
0000
0310
0000
0001
0100
,
0010
0000
0000
0010
0000
0000
0110
0000
0000
0000
0000
0000
1000
0000
0100
0000
,
0010
0000
0000
0010
0000
0000
0110
0000
0000
0000
0000
0000
0001
0000
0000
0000
,
1000
0100
1000
0000
0001
0100
0001
0000
,
0010
0000
0000
0100
0000
0000
0000
0000
1001
0000
0000
0000
0000
0000
0000
0000
,
2000
0000
0000
0100
3200
0000
0300
0000
,
0020
0000
0000
0031
0002
0000
0003
0000
,
0200
0000
0000
0310
0020
0000
0030
0000
,
0002
0000
0003
1000
2000
0000
3000
0000
,
0002
0000
0003
0100
0200
0000
0300
0000
,
0020
0000
0030
0010
2000
0000
3000
0000
,
2000
0000
3000
1000
0002
0000
0003
0000
,
0002
0000
0003
0100
0020
0000
1030
0000
,
0001
0100
0000
0001
0100
0000
0001
0100
,
0000
1000
0100
0000
1000
0100
0001
0000
,
0001
0010
0000
0001
0010
0000
1000
0010
,
0000
1000
0010
0000
2000
0000
3002
0000
,
0023
0100
0000
0130
0010
0000
1000
0100
,
0000
0100
1000
0000
0001
0100
0001
0000
,
1000
0100
0010
0000
0001
0100
0010
0000
,
0000
0000
0001
0000
0000
1000
0000
0000
0100
0000
0000
0010
0000
0000
1001
0000
,
0000
0000
1000
0000
0000
0010
0000
0000
0100
0000
0000
0001
0000
0000
0020
0000
,
0200
0000
0000
0000
,
0330
1000
0100
1000
0100
0000
0001
0100
,
0001
0100
0001
0000
1000
0000
0100
2000
,
0000
0000
3010
0000
0100
0000
0001
0100
,
0002
0000
0013
0200
0000
0000
0301
0000
,
0000
1000
0100
1000
0100
0000
0001
0100
,
0010
1000
0000
0010
0100
0001
0100
0000
,
0001
1100
0011
1100
,
0110
0000
0001
0100
0000
0001
0100
2000
,
0000
0000
3001
0000
0100
0010
0100
0010
,
0100
0000
0001
0100
0000
1000
0100
0002
,
0000
0000
0013
0000
0001
0100
0001
0100
,
0010
0000
1000
0100
0000
0001
0100
0000
,
0010
0000
0000
0000
0001
0000
0010
0000
0001
0000
0000
0001
0000
0000
0100
0000
,
0010
0000
0000
1010
0000
0000
0000
0000
0100
0000
0000
0101
0000
0000
0000
0000
,
0100
0010
0100
0010
0100
0010
0100
0000
0000
0000
0000
0000
,
0001
0000
0000
1001
0000
0000
0000
0000
1000
0000
0000
1001
0000
0000
0000
0000
,
0010
0100
0010
0100
0010
0100
0010
0000
0000
1001
0000
0000
;

//---------------dance-double - ----------------
#NOTES:
     dance-double:
     :
     Hard:
     10:
     0.472287,0.557545,0.188466,0.384785,0.172760,421.000000,397.000000,24.000000,49.000000,0.000000,0.000000,0.472287,0.557545,0.188466,0.384785,0.172760,421.000000,397.000000,24.000000,49.000000,0.000000,0.000000:
// measure 0
00000000
00000000
00000000
00000000
,  // measure 1
00000000
00000000
00000000
00000000
,  // measure 2
10000000
01000000
10000000
01000000
10000000
00000000
00020000
00000000
,  // measure 3
02030000
03000000
00020000
00230000
,  // measure 4
00301000
00010000
00100000
01000000
,  // measure 5
20000000
00010000
30010000
01000000
,  // measure 6
00100000
00000000
00000000
00010000
00000000
00000000
00100000
00000000
00000000
00000000
00000000
00000000
00000000
00000000
00000000
00000000
,  // measure 7
00010000
00000000
00000000
00000100
00000000
00000000
00010000
00000000
00000000
00000000
00000000
00000000
00001100
00000000
00000000
00000000
,  // measure 8
00001000
00000000
00000000
00001000
00000000
00000000
00000100
00000000
00000001
00000000
00000000
00000001
00000000
00000000
00000100
00000000
,  // measure 9
00001000
00000000
00000000
00000010
00000000
00000000
00000000
00000000
00001001
00000000
00000000
00000000
00000000
00000000
00000000
00000000
,  // measure 10
00000100
00001000
00000100
00000000
00020000
00000000
00030000
00000000
,  // measure 11
00001000
00100000
00001000
00000000
00020000
00000000
00030000
00000000
,  // measure 12
10000000
00000000
00000000
10000000
00000000
00000000
20000000
00000000
00000000
00000000
00000000
00000000
30100000
00000000
00000000
00000000
,  // measure 13
01000000
00100000
00000000
01000000
00100000
00000000
01100000
00000000
,  // measure 14
00010000
01000000
00010000
00000000
00200000
00000000
00300000
00000000
,  // measure 15
00001000
00100000
00001000
00000000
00020000
00000000
00030000
00000000
,  // measure 16
00000100
00000000
00000000
00000100
00000000
00000000
00000200
00000000
00000000
00000000
00000000
00000000
00000310
00000000
00000000
00000000
,  // measure 17
00000001
00001000
00000000
00000001
00001000
00000000
00000100
00000000
,  // measure 18
00020000
00001000
00001000
00031000
,  // measure 19
00200000
00000000
00000000
00000000
00301000
00000000
00000000
00000000
01000000
00000000
00000000
01000000
00000000
00000000
00010000
00000000
,  // measure 20
01000000
00100000
00000000
01000000
00100000
00000000
10000000
00010000
,  // measure 21
00000000
01100000
10010000
00000000
,  // measure 22
10000000
00000000
00000000
01000000
00000000
00000000
20000000
00000000
00000000
00000000
00000000
00000000
30010000
00000000
00000000
00000000
,  // measure 23
01000000
00100000
00000000
01000000
00001000
00000000
00100000
00000000
,  // measure 24
00001000
00010000
00000000
00000100
00001000
00000000
00000100
00000010
,  // measure 25
00000000
00000000
00000001
00000000
00000010
00000000
00000000
00000000
00001000
00000000
00000000
00000010
00000000
00000000
00001000
00000000
,  // measure 26
00000020
00000100
00001000
00000130
,  // measure 27
00001000
00000000
00000000
00000000
00000100
00000000
00010000
00000000
00000100
00000000
00000000
00001000
00000000
00000000
00100000
00000000
,  // measure 28
00001000
01000000
00000000
01000000
00010000
00000000
10000000
00000000
,  // measure 29
00000000
00000000
00010000
00000000
00000000
00100000
00000000
00000000
01000000
00000000
00000000
00100000
00000000
00000000
00010000
00000000
,  // measure 30
20000000
00100000
00000000
30100000
,  // measure 31
00010000
00000000
00100000
00000000
00010000
00000000
00100000
00000000
00010000
00000000
00000000
00100000
00000000
00000000
00001000
00000000
,  // measure 32
00100000
00010000
00000000
00010000
01000000
00000000
01000000
00001000
,  // measure 33
00000000
00011000
00010000
00010100
,  // measure 34
00001000
00000010
00000000
00000002
00000000
00000000
00000103
00000000
,  // measure 35
00000000
00001000
00000001
00001000
00000001
00000000
00000110
00000000
,  // measure 36
00001000
00000010
00000000
00001000
00000100
00000000
00010000
00001000
,  // measure 37
00000000
02000000
00010000
03010000
,  // measure 38
20000000
00000000
31000000
10000000
00000000
00010000
01000000
00020000
,  // measure 39
00000000
01030000
10000000
01100000
,  // measure 40
01000000
00001000
01000000
00001000
00000000
00100000
00001000
00200000
,  // measure 41
00000000
00301000
00010000
00011000
,  // measure 42
00000100
00000000
00000000
00010000
00000000
00000000
00002000
00000000
00000000
00000000
00000000
00000000
01003000
00000000
00000000
00000000
,  // measure 43
00000000
00000000
00010000
00000000
00000000
10000000
00000000
00000000
00010000
00000000
00000000
10000000
00000000
00000000
00100000
00000000
,  // measure 44
01000000
00000000
00000000
01010000
00000000
00000000
00000000
00000000
00100000
00000000
00000000
10100000
00000000
00000000
00000000
00000000
,  // measure 45
10000000
00010000
10000000
00010000
10000000
00010000
10000000
00000000
00000000
00000000
00000000
00000000
,  // measure 46
00000000
00000000
00010000
00000000
01000000
00000000
00010000
00000000
01000000
00000000
00000000
01000000
00000000
00000000
00000000
00000000
,  // measure 47
00020000
01030000
00002000
00013000
,  // measure 48
00000100
00010000
00000100
00000000
00001000
00000010
00001000
00000000
,  // measure 49
00000200
00000000
00000010
00000000
00000310
00000000
00000001
00000100
,  // measure 50
00000010
00000000
00000000
00000010
00000000
00000000
00000110
00000000
00000000
00000000
00000000
00000000
00001000
00000000
00000100
00000000
,  // measure 51
00001000
00000000
00000000
00001000
00000000
00000000
00001100
00000000
00000000
00000000
00000000
00000000
00010000
00000000
00000000
00000000
,  // measure 52
00001000
00010000
00001000
00000000
00100000
00010000
00100000
00000000
,  // measure 53
00100000
00000000
00000000
01000000
00000000
00000000
00000000
00000000
10010000
00000000
00000000
00000000
00000000
00000000
00000000
00000000
,  // measure 54
20000000
00000000
00000000
01000000
32000000
00000000
03000000
00000000
,  // measure 55
00200000
00000000
00000000
00310000
00020000
00000000
00030000
00000000
,  // measure 56
00002000
00000000
00000000
01003000
02000000
00000000
03000000
00000000
,  // measure 57
00020000
00000000
00030000
00000100
00000200
00000000
00000300
00000000
,  // measure 58
00002000
00000000
00003000
01000000
02000000
00000000
03000000
00000000
,  // measure 59
00020000
00000000
00030000
00100000
00200000
00000000
00300000
00000000
,  // measure 60
02000000
00000000
03000000
01000000
02000000
00000000
03000000
00000000
,  // measure 61
00200000
00000000
00300000
00100000
00200000
00000000
00300000
00000000
,  // measure 62
00010000
01000000
00000000
00010000
01000000
00000000
00010000
00000000
,  // measure 63
00100000
00001000
00000000
00100000
00001000
00000000
00010000
00000000
,  // measure 64
00000100
00010000
00000000
00000100
00010000
00000000
00001000
00000000
,  // measure 65
00100000
00010000
00000000
00100000
00010000
00000000
00001000
00000000
,  // measure 66
00000020
00000100
00000030
00000100
00000010
00000000
00001000
00000100
,  // measure 67
00000000
00000100
00001000
00000000
00010000
00000100
00010000
00000000
,  // measure 68
00000100
00001000
00010000
00000100
,  // measure 69
00000000
00000000
00001000
00000000
00000000
00000100
00000000
00000000
00000010
00000000
00000000
00000100
00000000
00000000
00001000
00000000
,  // measure 70
00000000
00000000
00001000
00000000
00000000
00100000
00000000
00000000
00010000
00000000
00000000
01000000
00000000
00000000
00200000
00000000
,  // measure 71
02000000
00000000
00000000
00000000
,  // measure 72
03300000
10000000
01000000
10000000
01000000
00000000
00010000
01000000
,  // measure 73
00010000
01000000
00010000
00000000
10000000
00000000
01000000
20000000
,  // measure 74
00000000
30100000
01000000
00002000
,  // measure 75
00023000
00000000
00030100
00002000
00000000
00000000
00003010
00000000
,  // measure 76
00000000
00001000
00000100
00001000
00000100
00000000
00000001
00000100
,  // measure 77
00000010
00001000
00000000
00000010
00000100
00000001
00000100
00000000
,  // measure 78
00000001
00000110
00001100
00011000
,  // measure 79
00110000
00000000
00010000
01000000
00000000
00010000
01000000
00010000
,  // measure 80
00000000
00000000
00010000
00000000
01000000
00100000
01000000
00100000
,  // measure 81
01000000
00000000
00010000
01000000
00000000
10000000
01000000
20000000
,  // measure 82
00000000
30100000
00010000
01000000
,  // measure 83
00001000
00000000
00010000
00001000
00000000
00010000
00001000
00000000
,  // measure 84
00100000
00000000
00000000
00000000
00010000
00000000
00100000
00000000
00010000
00000000
00000000
00010000
00000000
00000000
01000000
00000000
,  // measure 85
00100000
00000000
00000000
10100000
00000000
00000000
00000000
00000000
01000000
00000000
00000000
01010000
00000000
00000000
00000000
00000000
,  // measure 86
00100000
00001000
00100000
00001000
00100000
00001000
00100000
00000000
00000000
00000000
00000000
00000000
,  // measure 87
00001000
00000000
00000000
00011000
00000000
00000000
00000000
00000000
00010000
00000000
00000000
00011000
00000000
00000000
00000000
00000000
,  // measure 88
00010000
00000100
00010000
00000100
00010000
00000100
00010000
00000000
00000000
00010100
00000000
00000000
;

//---------------dance-single - ----------------
#NOTES:
     dance-single:
     :
     Beginner:
     2:
     0.140228,0.278772,0.102086,0.212024,0.000000,125.000000,112.000000,13.000000,27.000000,0.000000,0.000000,0.140228,0.278772,0.102086,0.212024,0.000000,125.000000,112.000000,13.000000,27.000000,0.000000,0.000000:
0000
0000
0000
0000
,
0000
0000
0000
0000
,
0000
0010
0000
0010
,
0000
0010
0000
0010
,
0000
0100
0000
0100
,
0100
0000
0000
0000
,
1001
0000
0000
0000
,
0110
0000
0000
0000
,
0010
0000
0010
0000
,
0020
0000
0030
0000
,
1000
0000
0000
0000
,
0001
0000
0000
0000
,
0100
0000
0100
0000
,
0100
0000
0100
0000
,
0001
0000
0000
0000
,
1000
0000
0000
0000
,
0010
0000
0010
0000
,
0010
0000
0010
0000
,
2000
3000
0000
0000
,
0002
0003
0000
0000
,
2000
3000
0000
0000
,
0002
0003
0000
0000
,
0020
0030
0000
0000
,
0200
0300
0000
0000
,
0020
0030
0000
0000
,
0200
0300
0000
0000
,
1000
0000
1000
0000
,
0001
0000
0001
0000
,
0100
0000
0100
0000
,
0000
0000
0010
0000
,
0020
0000
0030
0000
,
0000
0000
0100
0000
,
0001
0000
0001
0000
,
0001
0000
0000
0000
,
1000
0000
0000
0000
,
0010
0000
0000
0000
,
0100
0000
0100
0000
,
0100
0000
0000
0000
,
0001
0000
0000
0000
,
1000
0000
0000
0000
,
0010
0000
0010
0000
,
0010
0000
0000
0000
,
0110
0000
0000
0000
,
1001
0000
0000
0000
,
0010
0000
0010
0000
,
0200
0000
0300
0000
,
0000
0000
0001
0000
,
0001
0000
1000
0000
,
1000
0000
0010
0000
,
0020
0030
0000
0000
,
1001
0000
0000
0000
,
0110
0000
0000
0000
,
0010
0000
0010
0000
,
0020
0000
0030
0000
,
2000
0000
0000
3000
,
0000
0000
0000
0000
,
0002
0000
0000
0003
,
0000
0000
0000
0000
,
0200
0000
0000
0300
,
0000
0000
0000
0000
,
0020
0000
0000
0030
,
0000
0000
0000
0000
,
0100
0000
0100
0000
,
0010
0000
0010
0000
,
1000
0000
1000
0000
,
0001
0000
0001
0000
,
0100
0000
0100
0000
,
0010
0000
0010
0000
,
2000
0000
0000
3000
,
0000
0002
0000
0003
,
0000
2000
3000
0000
,
0002
0000
0000
0003
,
0000
0000
0000
0000
,
0010
0000
0010
0000
,
0020
0000
0030
0000
,
0200
0000
0300
0000
,
0002
0000
0003
0000
,
1000
0000
1000
0000
,
2000
0000
3000
0000
,
0010
0000
0000
0000
,
0100
0000
0000
0000
,
0010
0000
0010
0000
,
0010
0000
0000
0000
,
0200
0000
0300
0000
,
0020
0000
0030
0000
,
1001
0000
1001
0000
,
1001
0000
0000
0000
,
0110
0000
0110
0000
,
0110
0000
0000
1001
;

//---------------dance-double - ----------------
#NOTES:
     dance-double:
     :
     Medium:
     7:
     0.358983,0.487852,0.196319,0.431901,0.031411,320.000000,295.000000,25.000000,55.000000,0.000000,0.000000,0.358983,0.487852,0.196319,0.431901,0.031411,320.000000,295.000000,25.000000,55.000000,0.000000,0.000000:
00000000
00000000
00000000
00000000
,
00000000
00000000
00000000
00000000
,
00100000
00000000
01000000
00000000
00100000
00000000
01000000
00010000
,
01000000
00010000
01000000
00010000
,
00100000
00001000
00010000
00000100
,
00002000
00000000
00003000
00000000
,
00000010
00000000
00000000
00001001
00000000
00000000
00000100
00000000
,
00010000
00000000
00000000
00011000
00000000
00000000
00001000
00000000
,
00100000
00010000
01000000
10000000
,
20020000
00000000
30030000
00000000
,
02000000
00100000
00000000
03100000
,
20000000
01000000
00000000
31000000
,
00010000
01000000
00010000
00000000
01000000
00000000
00010000
00000000
,
10000000
01000000
10000000
00000000
00100000
00000000
01000000
00000000
,
00020000
00100000
00000000
00130000
,
00002000
00010000
00000000
00013000
,
00010000
00000000
00000100
00000000
00010000
00000100
00010000
00000000
,
00000100
00001000
00000010
00000001
,
00000200
00000010
00000000
00000310
,
00000002
00000103
00002000
00003100
,
00000020
00000130
00000002
00001003
,
00000200
00010000
00000000
00010300
,
00002000
00100000
00000000
00103000
,
00010000
01000000
00100000
10000000
,
01000000
00000000
00100000
00000000
01000000
00000000
00100000
01000000
,
00000000
10010000
01000000
00100000
,
20000000
01000000
00000000
31000000
,
00200000
00001000
00000000
00301000
,
00020000
00000100
00000000
00030100
,
00000000
00000000
00001000
00000000
00000000
00010000
00000000
00000000
00001000
00000000
00000000
00010000
00000000
00000000
00002000
00000000
,
00020000
00000000
00000000
00033000
,
00000000
00001000
00010000
00000000
00000100
00000000
00001000
00000000
,
00000010
00000001
00000100
00000010
,
00002000
00000100
00000000
00003100
,
00000100
00010000
00000000
00020200
00000000
00000000
00030300
00000000
,
00000000
00001000
00100000
00010000
,
01000000
00000000
00000000
00000000
10000000
00000000
00000000
00100000
00000000
00000000
01000000
00000000
00000000
00000000
00010000
00000000
,
00000000
10010000
01100000
10010000
,
01000000
00000000
00100000
00000000
00001000
00000000
00010000
00002000
,
00000000
00013000
00000000
00010000
,
00000100
00000000
00001000
00000000
00000010
00000000
00000001
00000200
,
00000000
00000010
00000000
00000310
,
00000010
00000000
00002000
00000200
00000000
00000000
00003300
00000000
,
00000000
00000100
00010000
00001000
,
00011000
00000000
00011000
00000000
,
00020000
00032000
00013000
00000000
,
00010000
00000000
00000100
00000000
00010000
00000000
00010000
00000100
,
00010000
00000100
00001000
00000100
,
00010000
00001000
00100000
00010000
,
00200000
00000000
00300000
00000000
,
01000000
00000000
00000000
10010000
00000000
00000000
00100000
00000000
,
00001000
00000000
00000000
00011000
00000000
00000000
00010000
00000000
,
00000100
00001000
00000010
00000001
,
00002002
00000000
00003003
00000000
,
00000200
00010000
00000000
00010300
,
00002000
00100000
00000000
00103000
,
00020000
01000000
00000000
01030000
,
00200000
10000000
00000000
10300000
,
20000000
01000000
00000000
31000000
,
00200000
00001000
00000000
00301000
,
00020000
00000100
00000000
00030100
,
00002000
00000010
00000000
00003010
,
00000200
00000010
00000000
00000310
,
00002000
00000001
00000000
00003001
,
00000020
00000001
00000000
00000031
,
00002000
00000100
00000000
00003100
,
00000100
00000110
00000100
00000110
,
00000001
00001001
00000001
00001001
,
00000100
00000010
00000100
00000000
00000010
00000100
00000010
00000000
,
00000000
00000000
00000100
00000000
00000000
00000100
00000000
00000000
00001000
00000000
00000000
00000100
00000000
00000000
00010000
00000000
,
00000000
00000000
00001000
00000000
00000000
00001000
00000000
00000000
00010000
00000000
00000000
00001000
00000000
00000000
00200000
00000000
,
00020000
00000000
00000000
00330000
,
00000000
00001000
00010000
00000000
00001000
00000000
00100000
00000000
,
00010000
01000000
00100000
00001000
,
00020000
00000000
00000100
00000000
00000000
00000000
00030100
00001000
,
00000100
00000000
00000000
00001000
00000000
00000000
00000200
00000000
00000000
00000000
00000000
00000000
00000300
00000000
00000000
00000000
,
00000000
00000100
00000000
00010000
00001000
00000000
00010000
00000000
,
00001000
00100000
00000000
00001000
00100000
00000000
01000000
00010000
,
00000000
10010000
01100000
10010000
,
01000000
00000000
00100000
00000000
00001000
00000000
00010000
00002000
,
00000000
00010000
00003000
00010000
,
00000100
00000000
00001000
00000000
00000010
00000000
00000001
00000200
,
00000000
00000010
00000000
00000010
,
00000310
00000000
00002000
00000200
00000000
00000000
00003000
00000000
,
00000300
00000100
00010000
00001000
,
00011000
00000000
00011000
00000000
,
00020000
00032000
00013000
00000000
,
00011000
00000000
00011000
00000000
,
00002000
00023000
00031000
00011000
;

//---------------dance-single - ----------------
#NOTES:
     dance-single:
     :
     Medium:
     7:
     0.364592,0.453005,0.243435,0.408343,0.031411,325.000000,294.000000,31.000000,52.000000,0.000000,0.000000,0.364592,0.453005,0.243435,0.408343,0.031411,325.000000,294.000000,31.000000,52.000000,0.000000,0.000000:
0000
0000
0000
0000
,
0000
0000
0000
0000
,
0010
0000
0100
0000
0010
0000
0100
0001
,
0100
0001
0100
0001
,
0010
1000
0001
0100
,
2000
0000
3000
0000
,
0010
0000
0000
1001
0000
0000
0100
0000
,
0001
0000
0000
1001
0000
0000
1000
0000
,
0010
0001
0100
1000
,
2002
0000
3003
0000
,
0200
0010
0000
0310
,
2000
0100
0000
3100
,
0001
0100
0001
0000
0100
0000
0001
0000
,
1000
0100
1000
0000
0010
0000
0100
0000
,
0002
0010
0000
0013
,
2000
0001
0000
3001
,
0001
0000
0100
0000
0001
0100
0001
0000
,
0100
1000
0001
0000
,
0200
0010
0000
0310
,
0002
0103
2000
3100
,
0020
0130
0002
1003
,
0200
0001
0000
0301
,
2000
0010
0000
3010
,
0001
0100
0010
1000
,
0100
0000
0010
0000
0100
0000
0010
0100
,
0000
1001
0100
0010
,
2000
0100
0000
3100
,
0020
1000
0000
1030
,
0002
0100
0000
0103
,
0000
0000
1000
0000
0000
0001
0000
0000
1000
0000
0000
0001
0000
0000
1000
0000
,
2002
0000
0000
3003
,
0000
1000
0001
0000
0100
0000
1000
0000
,
0010
0001
0100
0010
,
2000
0100
0000
3100
,
0100
0001
0000
0202
0000
0000
0303
0000
,
0000
1000
0010
0001
,
0100
0000
0000
0000
1000
0000
0000
0010
0000
0000
0100
0000
0000
0000
0001
0000
,
0000
1001
0110
1001
,
0100
0000
0010
0000
1000
0000
0001
2000
,
0000
3001
0000
0001
,
0100
0000
1000
0000
0010
0000
0001
0200
,
0000
0010
0000
0310
,
0010
0000
2000
0200
0000
0000
3300
0000
,
0000
0100
0001
1000
,
1001
0000
1001
0000
,
0002
2003
3001
0000
,
0001
0000
0100
0000
0001
0000
0001
0100
,
0001
1000
0100
1000
,
0001
1000
0010
0001
,
0020
0000
0030
0000
,
0100
0000
0000
1001
0000
0000
0010
0000
,
1000
0000
0000
1001
0000
0000
0001
0000
,
0010
0001
0100
1000
,
2002
0000
3003
0000
,
0020
0001
0000
0031
,
0200
0010
0000
0310
,
0002
0100
0000
0103
,
0020
1000
0000
1030
,
2000
0100
0000
3100
,
0020
1000
0000
1030
,
0002
0100
0000
0103
,
0002
1000
0000
1003
,
0200
0010
0000
0310
,
0002
0010
0000
0013
,
2000
0100
0000
3100
,
0020
0100
0000
0130
,
1000
0100
1000
0100
,
0010
0001
0010
0001
,
0110
0110
1001
1001
,
0000
0000
0100
0000
0000
0010
0000
0000
0010
0000
0000
0100
0000
0000
0010
0000
,
0000
0000
0001
0000
0000
0001
0000
0000
0001
0000
0000
1000
0000
0000
1000
0000
,
2002
0000
0000
3003
,
0000
0100
0001
0100
0001
0000
0010
0000
,
0001
0010
0100
0000
0010
0100
1000
0000
,
0002
1000
1000
1003
,
0100
0001
0000
0202
0000
0000
0303
0000
,
0000
1000
0010
0001
,
0100
0000
0000
0000
1000
0000
0000
0010
0000
0000
0100
0000
0000
0000
0001
0000
,
0000
1001
0110
1001
,
0100
0000
0010
0000
1000
0000
0001
2000
,
0000
3001
0000
0001
,
0100
0000
1000
0000
0010
0000
0001
0200
,
0000
0010
0000
0310
,
0010
0000
2000
0200
0000
0000
3300
0000
,
0000
0100
0010
1001
,
1001
0000
1001
0000
,
0010
0100
1001
0010
,
1001
0000
1001
0000
,
0100
0010
0110
1001
;

//---------------dance-double - ----------------
#NOTES:
     dance-double:
     :
     Easy:
     5:
     0.246801,0.418159,0.172760,0.431901,0.000000,220.000000,198.000000,22.000000,55.000000,0.000000,0.000000,0.246801,0.418159,0.172760,0.431901,0.000000,220.000000,198.000000,22.000000,55.000000,0.000000,0.000000:
00000000
00000000
00000000
00000000
,
00000000
00000000
00000000
00000000
,
00000000
00000010
00000100
00000010
,
00000200
00000300
00000010
00001000
,
00000100
00010000
00001000
00100000
,
00020000
00000000
00030000
00000000
,
02000000
00000000
03000000
00000000
,
00200000
00000000
00300000
00000000
,
00100000
00000000
00010000
00000000
,
00022000
00000000
00033000
00000000
,
00020000
00000000
00030100
00000000
,
00002000
00000000
00003010
00000000
,
00001000
00000010
00001000
00000010
,
00000001
00000010
00000001
00000010
,
00002000
00000000
00003100
00000000
,
00020000
00000000
00031000
00000000
,
00001000
00100000
00001000
00000000
,
00100000
00010000
00100000
00000000
,
00200000
00000000
00300000
00000000
,
10000000
00100000
10000000
00100000
,
01000000
00010000
01000000
00010000
,
00100000
00000000
00001000
00000000
,
00020000
00000000
00030100
00000000
,
00001000
00000010
00000100
00000001
,
00000010
00000100
00000010
00000100
,
00000010
00000000
00001001
00000000
,
00000002
00000000
00000013
00000000
,
00000200
00000000
00001300
00000000
,
00022000
00000000
00033000
00000000
,
00000000
00020000
00000000
00000000
00031000
00000000
00000000
00000000
,
00022000
00000000
00000000
00000000
,
00033000
00001000
00100000
00001000
,
00100000
00000000
00010000
00000000
,
02200000
00000000
03300000
00000000
,
10000000
00000000
20020000
30030000
,
00000000
01000000
00010000
01000000
,
00100000
00010000
00001000
01000000
,
00100000
00000000
10010000
00000000
,
01000000
00100000
00010000
00000000
,
00010000
00001000
00010000
00000000
,
00010000
00100000
01000000
00000000
,
10000000
00010000
10000000
00000000
,
02000000
00000000
00200000
03300000
,
01000000
00100000
01000000
00000000
,
10010000
00000000
10010000
00000000
,
01000000
00100000
01100000
00000000
,
00000000
01000000
00100000
01000000
,
00200000
00300000
01000000
00010000
,
00100000
00001000
00010000
00000100
,
00002000
00000000
00003000
00000000
,
00000020
00000000
00000030
00000000
,
00000200
00000000
00000300
00000000
,
00000100
00000000
00001000
00000000
,
00022000
00000000
00033000
00000000
,
00020000
00000000
00000000
00030000
,
00002000
00000000
00000000
00003000
,
00000200
00000000
00000000
00000300
,
00002000
00000000
00000000
00003000
,
00000002
00000000
00000000
00000003
,
00000200
00000000
00000000
00000300
,
00002000
00000000
00000000
00003000
,
00020000
00000000
00000000
00030000
,
00200000
00000000
00000000
00300000
,
00020000
00000000
00000000
00030000
,
02000000
00000000
00000000
03000000
,
20000000
00000000
00000000
30000000
,
00100000
01000000
00100000
01000000
,
00010000
10000000
00010000
10000000
,
02200000
00000000
00000000
03300000
,
00000000
20000000
00000000
00000000
30020000
00000000
00030000
00000000
,
00000000
00200000
00000000
00000000
02000000
00000000
03300000
00000000
,
20020000
00000000
00000000
30030000
,
00000000
00100000
00001000
00010000
,
00000100
00001000
00000010
00000100
,
00000020
00000000
00000030
00000000
,
00001000
00010000
00002000
00000000
,
00003000
00001000
00010000
00001000
,
00100000
00010000
00001000
00010000
,
00000100
00000000
00001001
00000000
,
00000010
00000100
00001000
00000000
,
00001000
00010000
00001000
00000000
,
00001000
00000100
00000010
00000000
,
00000001
00001000
00000001
00000000
,
00000020
00000000
00000200
00000330
,
00000010
00000100
00000010
00000000
,
00001001
00000000
00001001
00000000
,
00000010
00000100
00001000
00000000
,
00011000
00000000
00011000
00000000
,
00011000
00011000
00011000
00011000
;

//---------------dance-single - ----------------
#NOTES:
     dance-single:
     :
     Easy:
     5:
     0.245679,0.383312,0.172760,0.431901,0.000000,219.000000,197.000000,22.000000,55.000000,0.000000,0.000000,0.245679,0.383312,0.172760,0.431901,0.000000,219.000000,197.000000,22.000000,55.000000,0.000000,0.000000:
0000
0000
0000
0000
,
0000
0000
0000
0000
,
0000
0010
0100
0010
,
0200
0300
0010
1000
,
0100
0001
1000
0010
,
0002
0000
0003
0000
,
0200
0000
0300
0000
,
0020
0000
0030
0000
,
0010
0000
0001
0000
,
2002
0000
3003
0000
,
0002
0000
0103
0000
,
2000
0000
3010
0000
,
1000
0010
1000
0010
,
0001
0010
0001
0010
,
2000
0000
3100
0000
,
0002
0000
1003
0000
,
1000
0010
1000
0000
,
0010
0001
0010
0000
,
0020
0000
0030
0000
,
1000
0010
1000
0010
,
0100
0001
0100
0001
,
0010
0000
1000
0000
,
0002
0000
0103
0000
,
1000
0010
0000
0001
,
0010
0100
0010
0100
,
0010
0000
1001
0000
,
0002
0000
0013
0000
,
0200
0000
1300
0000
,
2002
0000
3003
0000
,
0000
0002
0000
0000
1003
0000
0000
0000
,
2002
0000
0000
0000
,
3003
1000
0010
1000
,
0010
0000
0001
0000
,
0220
0000
0330
0000
,
1000
0000
2002
3003
,
0000
0100
0001
0100
,
0010
0001
1000
0100
,
0010
0000
1001
0000
,
0100
0010
0001
0000
,
0001
0010
0001
0000
,
0001
0010
0100
0000
,
1000
0100
1000
0000
,
0200
0000
0020
0330
,
0100
0010
0100
0000
,
1001
0000
1001
0000
,
0100
0010
0110
0000
,
0000
0100
0010
0100
,
0020
0030
0100
0001
,
0010
1000
0001
0100
,
2000
0000
3000
0000
,
0020
0000
0030
0000
,
0200
0000
0300
0000
,
0001
0000
0010
0000
,
2002
0000
3003
0000
,
0002
0000
0000
0003
,
0020
0000
0000
0030
,
0200
0000
0000
0300
,
2000
0000
0000
3000
,
0002
0000
0000
0003
,
0020
0000
0000
0030
,
0200
0000
0000
0300
,
2000
0000
0000
3000
,
0020
0000
0000
0030
,
0002
0000
0000
0003
,
0200
0000
0000
0300
,
2000
0000
0000
3000
,
0010
0100
0010
0100
,
0001
1000
0001
1000
,
0220
0000
0000
0330
,
0000
2000
0000
0000
3002
0000
0003
0000
,
0000
0020
0000
0000
0200
0000
0330
0000
,
2002
0000
0000
3003
,
0000
0010
1000
0001
,
0100
1000
0010
0100
,
0020
0000
0030
0000
,
1000
0001
2000
0000
,
3000
0010
0001
0010
,
0001
0100
0001
0100
,
0010
0000
1001
0000
,
0010
0100
1000
0000
,
0001
0010
0001
0000
,
1000
0100
0010
0000
,
1000
0100
1000
0000
,
0200
0000
0020
0330
,
0100
0010
0100
0000
,
1001
0000
1001
0000
,
1000
0110
1001
0000
,
1001
0000
1001
0000
,
0001
0110
1001
0010
;
