#TITLE:Junk Mania;
#SUBTITLE:;
#ARTIST:udouddo & VALLEYSTONE;
#TITLETRANSLIT:;
#SUBTITLETRANSLIT:;
#ARTISTTRANSLIT:;
#GENRE:;
#CREDIT:;
#BANNER:Junk Mania.png;
#BACKGROUND:Junk Mania-bg.png;
#LYRICSPATH:;
#CDTITLE:;
#MUSIC:Junk Mania.ogg;
#OFFSET:0.000000;
#SAMPLESTART:74.155998;
#SAMPLELENGTH:15.000000;
#SELECTABLE:YES;
#DISPLAYBPM:83.000000:165.000000;
#BPMS:0.000000=165.000000
,65.000000=82.500000
,69.000000=165.000000
,77.000000=82.500000
,81.000000=165.000000
,256.000000=82.500000
,260.000000=165.000000
,268.000000=82.500000
,272.000000=165.000000
;
#STOPS:64.000000=1.091000,
120.000000=0.364000,
308.000000=0.909000
;
#BGCHANGES:;
#KEYSOUNDS:;
#ATTACKS:;

//---------------dance-single - ----------------
#NOTES:
     dance-single:
     :
     Beginner:
     3:
     0.189786,0.253809,0.065605,0.057404,0.000000,162.000000,154.000000,8.000000,7.000000,0.000000,0.000000,0.189786,0.253809,0.065605,0.057404,0.000000,162.000000,154.000000,8.000000,7.000000,0.000000,0.000000:
0000
0000
0000
0000
,
0000
0000
0000
0000
,
0000
0000
0000
0000
,
0000
0000
0000
0000
,
0000
0000
0000
0000
,
0100
0000
0100
0000
,
0010
0000
0010
0000
,
0100
0000
0100
0000
,
0010
0000
1000
1000
,
1000
0000
1000
0000
,
1000
0000
1001
0000
,
0001
0000
0001
0000
,
0001
0000
1001
0000
,
0010
0000
0010
0000
,
0100
0000
0100
0000
,
0010
0010
0010
0010
,
0000
0001
0002
0000
,
0003
0001
0000
0001
,
0000
0100
0000
0100
,
0000
1000
2000
0000
,
3000
1000
0000
0010
,
0000
0001
0000
2002
,
3003
0010
0000
0010
,
0000
0100
0000
0100
,
0000
0010
0000
0010
,
0000
1000
0000
1000
,
0000
0001
0000
0001
,
0000
0100
0000
0100
,
0000
0010
0000
0010
,
0000
1000
1000
1000
,
0000
1000
0000
0001
,
0000
1000
0000
0001
,
0000
0100
0000
0010
,
0000
0100
0000
0010
,
0000
1000
0000
0100
,
0000
1000
0000
0100
,
0000
0001
0000
0010
,
0000
0001
0000
0010
,
0020
0000
0000
0000
,
0030
0000
0000
0000
,
1001
0000
0000
0000
,
0100
0000
0000
0000
,
0010
0000
0000
0000
,
0100
0000
0000
0000
,
0001
0000
0001
0000
,
1000
0000
1000
0000
,
0001
0000
0001
0000
,
0100
0100
0100
0000
,
0010
0000
0010
0000
,
1000
1000
1000
0000
,
0010
0000
0010
0000
,
0001
0001
0001
0000
,
0100
0000
0100
0000
,
1000
1000
1000
0000
,
0100
0000
0100
0000
,
0001
0001
0001
0000
,
1001
0000
0100
0000
,
0010
0010
0010
0000
,
1001
0000
0010
0000
,
0100
0100
0100
0000
,
1000
0000
0100
0000
,
0001
0001
0001
0000
,
0010
0000
0001
0000
,
0100
0100
0100
0000
,
1000
2000
0000
3000
,
1000
0000
0010
0000
,
0100
0000
0001
0000
,
0001
0002
0000
0003
,
0001
0000
0010
0000
,
0100
0000
1000
1000
,
1000
0000
0001
0000
,
1000
0000
0001
0000
,
0010
0000
0100
0000
,
0010
0000
0100
0000
,
0001
0000
0001
0000
,
1000
0000
1000
0000
,
0010
0010
0010
0000
,
0000
1001
0000
1001
0000
0000
0000
0000
;

//---------------dance-single - ----------------
#NOTES:
     dance-single:
     :
     Easy:
     5:
     0.344426,0.412440,0.295222,0.319824,0.000000,294.000000,258.000000,36.000000,39.000000,0.000000,0.000000,0.344426,0.412440,0.295222,0.319824,0.000000,294.000000,258.000000,36.000000,39.000000,0.000000,0.000000:
// measure 0
0000
0000
0000
0000
,  // measure 1
0000
0000
0000
0000
,  // measure 2
0000
0000
0000
0000
,  // measure 3
0000
0000
0000
0000
,  // measure 4
0000
0000
0000
0000
,  // measure 5
0001
0001
1000
0000
,  // measure 6
1000
1000
0001
0000
,  // measure 7
0010
0010
1000
0000
,  // measure 8
0100
0100
1001
1001
,  // measure 9
0010
0010
1000
1100
,  // measure 10
0010
0010
0001
0100
,  // measure 11
0010
0010
0100
1001
,  // measure 12
0100
0100
1000
0001
,  // measure 13
0110
0000
1001
0000
,  // measure 14
0010
0010
0010
0010
,  // measure 15
0100
0100
0100
0100
,  // measure 16
0000
1000
0002
2003
,  // measure 17
3010
0100
0001
0000
1000
0000
0001
0000
,  // measure 18
1000
0010
0100
0001
,  // measure 19
1000
0100
0002
2003
,  // measure 20
3010
0100
0001
0000
1000
0000
0100
0000
,  // measure 21
0010
0001
1000
0010
,  // measure 22
1001
1000
1000
2200
,  // measure 23
3300
0001
0001
0202
,  // measure 24
0303
0010
0010
2002
,  // measure 25
3003
0100
0100
2002
,  // measure 26
3003
1000
1001
0100
,  // measure 27
0010
0001
1001
0010
,  // measure 28
0100
1000
0100
0001
,  // measure 29
0010
0100
0100
0100
,  // measure 30
0020
0030
0000
0000
0000
0000
0000
0000
0100
0000
0000
0000
0000
0000
0000
0000
0001
0000
0000
0000
0000
0000
0000
0000
0100
0000
0000
0000
0000
0000
0000
0000
,  // measure 31
0100
0010
1000
0100
,  // measure 32
0001
0100
1000
1001
,  // measure 33
1000
0100
0001
0100
,  // measure 34
0010
1000
0100
0001
,  // measure 35
0010
0001
0100
1000
,  // measure 36
1000
0100
0010
0001
,  // measure 37
0010
0100
1000
1001
,  // measure 38
0220
0000
0000
0000
,  // measure 39
0000
0330
1000
0001
,  // measure 40
2002
3003
0020
0030
,  // measure 41
1000
0100
0002
0003
,  // measure 42
2000
3000
0002
0003
,  // measure 43
0001
0100
2000
3000
,  // measure 44
0020
0030
0200
0300
,  // measure 45
0001
0100
0002
0003
,  // measure 46
2000
3000
0002
0003
,  // measure 47
0010
0100
2002
3003
,  // measure 48
1000
0100
1000
0001
,  // measure 49
0001
0100
1001
0000
,  // measure 50
0001
0010
0001
0010
,  // measure 51
1000
0100
1001
0000
,  // measure 52
0001
0100
1000
0010
,  // measure 53
1000
0010
1001
0000
,  // measure 54
0001
1000
0100
0001
,  // measure 55
0010
0100
1001
0000
,  // measure 56
1000
0001
0100
0010
,  // measure 57
0001
1000
0100
0010
,  // measure 58
1000
0100
0010
0001
,  // measure 59
0010
0100
1000
0100
,  // measure 60
0001
1000
0001
0100
,  // measure 61
1000
0100
0001
1000
,  // measure 62
0010
0010
0100
0100
,  // measure 63
0001
1000
2002
3003
,  // measure 64
1000
0000
0020
0000
0230
0000
0301
0010
,  // measure 65
1000
0100
0010
0001
,  // measure 66
0100
0010
1001
1001
,  // measure 67
0001
0000
0200
0000
0320
0000
1030
0001
,  // measure 68
0100
0010
1000
0100
,  // measure 69
0001
0010
1010
0101
,  // measure 70
1001
0010
0010
0010
,  // measure 71
0100
0100
0001
1001
,  // measure 72
0100
0100
0100
0100
,  // measure 73
0001
0001
1000
1001
,  // measure 74
0020
0030
0200
0300
,  // measure 75
0020
0030
0200
0300
,  // measure 76
1001
1001
1001
1001
,  // measure 77
0000
0110
0000
1001
0000
0000
0000
0000
;

//---------------dance-single - ----------------
#NOTES:
     dance-single:
     :
     Medium:
     11:
     0.517811,0.602797,0.377229,0.295222,0.237818,442.000000,396.000000,46.000000,36.000000,0.000000,0.000000,0.517811,0.602797,0.377229,0.295222,0.237818,442.000000,396.000000,46.000000,36.000000,0.000000,0.000000:
0000
0000
0000
0000
,
0000
0000
0000
0000
,
0000
0000
0000
0000
,
0000
0000
0000
0000
,
0000
0000
0000
0000
,
0010
0000
0010
0010
0010
0000
2000
0000
,
3001
0000
0001
0001
2000
0000
3002
0000
,
0103
0000
0100
0100
0100
0000
0020
0000
,
1030
0000
1000
1000
1001
0000
1001
0000
,
0010
0000
0000
0010
0000
0000
1000
0000
0001
0000
0000
0001
0000
0000
1000
0000
,
0010
0000
0000
0010
0000
0000
1000
0000
0001
0000
0000
0001
0000
0000
0010
0000
,
1000
0000
0000
1000
0000
0000
0001
0000
0100
0000
0000
0100
0000
0000
0001
0000
,
1000
0000
0000
1000
0000
0000
0001
0000
0010
0000
0000
0010
0000
0000
0100
0000
,
1001
0000
0000
1000
0000
0000
0000
0000
1001
0000
0000
0001
0000
0000
0000
0000
,
0100
0010
0100
0010
,
1000
0100
1000
0100
0001
0100
0001
0100
,
0001
0000
0000
0000
1000
0000
0000
0000
0100
0001
1000
0000
0020
0000
0000
0000
,
0230
0000
0301
0000
1000
0000
0100
1000
0000
0000
1000
0100
0000
0000
0100
0001
,
0000
0000
0001
0100
0000
0000
0100
0010
0000
0000
0010
0100
0000
0000
0100
0000
,
0010
0000
1000
0000
0002
0000
0000
0000
1003
0010
0100
0000
0002
0000
0000
0000
,
1003
0200
0310
0010
1000
0010
1000
0001
,
1000
0001
1000
0100
1000
0001
2000
0000
,
3001
0000
0000
0000
1001
0000
0000
0000
1001
0000
0000
0000
0100
0000
0000
0100
,
0000
0000
0100
0000
0001
0000
0000
0000
1001
0000
0000
0000
0010
0000
0000
0010
,
0000
0000
0010
0000
1000
0000
0000
0000
1001
0000
0000
0000
0100
0000
0000
0100
,
0000
0000
0010
0000
1000
0000
0000
0000
1001
0000
0000
0000
0010
0000
0000
0010
,
0000
0000
0100
0000
0001
0000
0000
0000
1001
0000
0000
0000
1000
0000
0000
1000
,
0000
0000
0001
0000
0100
0000
0000
0100
0000
0000
0001
0000
1000
0000
0000
1000
,
0000
0000
0001
0000
0100
0000
0000
0100
0000
0000
0001
0000
1000
0000
0000
1000
,
0000
0001
1001
0000
1001
0000
1001
0000
,
0200
0000
0000
0000
0310
0000
0000
1000
0000
0001
0000
0000
0100
0000
0000
0000
,
0020
0000
0000
0000
0130
0000
0000
0001
0000
1000
0000
0000
0100
0000
0000
0000
,
2000
0000
0000
0000
3001
0000
0000
0100
0000
0010
0000
0000
1000
0000
0000
0000
,
0002
0000
0000
0000
1003
0000
0000
0010
0000
0100
0000
0000
1000
0000
0001
0000
,
1000
0000
1000
0000
0001
0000
0000
0100
0000
0010
0000
0000
0100
0000
0000
0000
,
0001
0000
0001
0000
1000
0000
0000
0010
0000
0100
0000
0000
0010
0000
0000
0000
,
1000
0100
0010
0000
0001
0100
0010
0000
,
1000
0001
1000
0001
0100
0010
0100
0000
,
2002
0000
0000
0000
,
0000
0000
0000
3003
0020
0000
0130
0000
,
1000
0100
1000
0100
1000
0000
0001
0000
,
0100
0001
0100
0000
1001
0000
0000
0000
,
0001
0100
0001
0100
0001
0000
1000
0000
,
0010
0100
0010
0000
1001
0000
0000
0000
,
1000
0100
1000
0010
1000
0100
1000
0000
,
0001
0010
0100
0000
1001
0000
0000
0000
,
0001
0100
0001
0010
0001
0100
0001
0000
,
1000
0010
0100
0000
1001
0000
0000
0000
,
1010
1100
0101
0011
,
1000
0100
1000
0000
0202
0000
0303
0000
,
0011
0101
1100
1010
,
1000
0001
1000
0000
2002
0000
3003
0000
,
1000
0100
1000
0000
0001
0100
0001
0000
,
0100
0010
0100
0000
2002
0000
3003
0000
,
0001
0010
0100
0000
1000
0100
0001
0000
,
0010
0100
1000
0000
2002
0000
3003
0000
,
1100
0000
0100
0010
0001
0000
1001
0000
,
0010
0100
1000
0000
2002
0000
3003
0000
,
0110
0000
1000
0001
0100
0000
1001
0000
,
0010
1000
0001
0000
0220
0000
0330
0000
,
1000
0001
0100
0001
1000
0000
0101
0000
,
0001
1000
0100
0000
2200
0000
3300
0000
,
0001
0100
0010
1000
0100
0001
1000
0000
,
0010
0100
0001
0000
2002
0000
3003
0000
,
0200
0000
0310
1000
0002
0000
0103
0010
,
1000
0000
1000
0100
0000
0000
0100
0001
0000
0000
0001
0100
0000
0000
0100
1000
,
0000
0000
1000
0010
0000
0000
0010
0001
0000
0000
0001
0010
0000
0000
0010
0000
,
1000
0000
0000
0000
0100
1000
0010
0000
0100
0100
0100
0000
0010
0000
1001
0000
,
1000
0100
1000
0000
0001
0100
0001
0000
,
1000
0010
0100
0000
1001
0000
0110
0000
,
0010
0000
0000
0010
0000
0000
0001
0000
1000
0000
0000
1000
0000
0000
0001
0000
,
0010
0000
0000
0010
0000
0000
0001
0000
1000
0000
0000
1000
0000
0000
0100
0000
,
1000
0000
0000
1000
0000
0000
0001
0000
0010
0000
0000
0010
0000
0000
0001
0000
,
1000
0000
0000
1000
0000
0000
0001
0000
0100
0000
0000
0100
0000
0000
0100
0000
,
1001
0000
0000
1000
0000
0000
0000
0000
1001
0000
0000
0001
0000
0000
0000
0000
,
0100
0010
0100
0010
,
1000
0001
1000
0001
1000
0001
1000
0001
,
2000
3000
0110
0000
0000
0000
1001
0000
0000
0000
0000
0000
0000
0000
0000
0000
;

//---------------dance-single - ----------------
#NOTES:
     dance-single:
     :
     Hard:
     15:
     0.830606,1.078689,0.442833,0.295222,0.918469,709.000000,655.000000,54.000000,36.000000,0.000000,0.000000,0.830606,1.078689,0.442833,0.295222,0.918469,709.000000,655.000000,54.000000,36.000000,0.000000,0.000000:
0000
0000
0000
0000
,
0000
0000
0000
0000
,
0000
0000
0000
0000
,
0000
0000
0000
0000
,
0000
0000
0000
0000
,
1001
0000
0000
0000
0110
0000
0010
0000
0010
0000
0000
2000
0000
0000
3001
0000
,
0001
0000
0000
0000
0010
0000
0010
0000
2000
0000
0000
3002
0000
0000
0103
0000
,
0100
0000
0000
0000
0010
0000
0010
0000
0010
0000
0000
2000
0000
0000
3001
0000
,
1001
0000
1000
0100
0101
0000
0101
0000
,
1000
0000
0001
1000
0000
0010
1000
0000
0001
0000
1000
0001
0000
0100
0001
0000
,
1000
0000
0001
1000
0000
0010
1000
0000
0001
0000
1000
0001
0000
1000
0001
0000
,
1000
0000
0010
1000
0000
0010
1000
0000
0001
0000
1000
0001
0000
0100
0001
0000
,
0100
0000
0010
0100
0000
0001
0100
0000
0001
0000
1000
0000
0001
0000
0000
0000
,
1001
0000
1000
0001
0000
0000
0100
0000
1001
0000
0001
1000
0000
0000
0000
0000
,
1001
0001
1001
0000
1001
1000
1001
0000
,
1000
0000
0010
0000
1000
0000
0010
0000
0100
0001
0100
0000
0001
0000
0100
0001
,
0000
1000
0000
0000
0000
0000
0000
0000
0000
0000
0000
0000
0000
0000
0000
0000
0000
0000
0000
0000
0000
0000
0000
0000
0000
0000
0000
0000
0000
0000
0000
0000
0000
0000
0000
0000
0000
0000
0000
0000
0000
0000
0000
0000
0000
0000
0000
0000
2002
0000
0000
0000
0000
0000
0000
0000
0000
0000
0000
0000
0000
0000
0000
0000
0000
0000
0000
0000
0000
0000
0000
0000
3003
0000
0000
0000
0000
0000
0000
0000
0000
0000
0000
0000
0000
0000
0000
0000
0000
0000
0000
0000
0000
0000
0000
0000
1000
0000
0000
0000
0000
0000
0000
0000
0000
0000
0000
0000
0001
0000
0000
0000
0000
0000
0000
0000
0000
0000
0000
0000
1000
0000
0000
0000
0000
0000
0001
0000
0000
0000
0000
0000
0000
0000
0000
0000
0000
0000
1000
0000
0000
0000
0000
0000
0010
0000
0000
0000
0000
0000
1000
0000
0000
0000
0000
0000
0010
0000
0000
0000
0000
0000
0000
0000
0000
0000
0000
0000
0100
0000
0000
0000
0000
0000
0001
0000
0000
0000
0000
0000
0100
0000
0000
0000
0000
0000
0001
0000
0000
0000
0000
0000
,
0100
0000
1000
0001
1000
0000
1000
0010
0000
0100
0001
0100
0000
0010
1000
0010
,
0000
0001
0100
0001
0000
1000
0001
0100
0000
0001
1000
0100
1000
0010
1000
0100
,
1000
0000
0010
0000
0000
0000
0100
0000
0002
0000
0000
0000
0000
0000
0000
0000
1003
0000
0010
0000
0100
0001
0000
0001
0100
0010
0100
0000
0001
0100
0001
0000
,
1000
0010
1000
0010
2000
0000
0000
0000
3001
0000
0000
0000
0100
0000
0000
0000
0001
0000
0000
0000
1000
0000
0000
0000
0010
0000
0000
0000
1000
0000
0000
0000
,
0001
0000
0100
0000
0010
1000
0010
0000
1000
0001
1000
0001
1000
0000
0000
0000
,
1001
0000
0000
0000
0110
0000
0000
0000
1001
0000
0000
0000
1010
0000
0000
0101
,
0000
0000
1000
0000
1001
0000
0000
0000
1001
0000
0000
0000
0011
0000
0000
1100
,
0000
0000
0001
0000
1001
0000
0000
0100
0000
0000
0010
0000
0001
0000
0000
1000
,
0000
0000
0010
0000
1010
0000
0000
0010
0000
0000
0001
0000
0101
0000
0000
1100
,
0000
0000
0100
0000
0110
0000
0000
0000
0110
0000
0000
0000
0011
0000
0000
1010
,
0000
0000
0001
0000
1001
0000
0000
0000
1001
0000
0000
0000
1100
0000
0000
0110
,
0000
0000
1000
0000
0001
0000
1000
0000
0001
0000
1000
0000
0001
1000
0001
1000
,
0001
1000
0001
0000
0002
0100
0003
0000
0002
0100
0003
0000
0002
0100
0003
0000
,
2002
3003
0010
0000
1000
0000
0001
0100
0001
0100
0001
0000
1000
0000
0010
0000
,
0100
0000
0001
0000
1000
0000
0001
0100
0001
0100
0001
0000
1000
0000
0000
0000
,
0010
0000
1000
0000
0001
0000
0100
0001
0100
0001
0100
0000
0001
0000
1000
0000
,
0010
1000
0001
0001
0010
0001
1000
1000
,
0010
0000
0100
0000
0001
0000
1000
0100
1000
0100
1000
0000
0001
0000
0100
0000
,
0010
0000
1000
0000
0001
0000
0100
0010
0100
0010
0100
0000
0001
0000
0000
0000
,
1000
0000
0100
0000
0001
0000
0100
0010
0100
0010
0100
0000
0001
0000
0100
0000
,
1000
0000
0002
0000
0023
0000
2030
0000
3001
0100
0001
0000
1001
0000
0000
0000
,
1000
0000
0001
0000
0100
0000
0001
1000
0001
0000
0100
0000
0001
0000
1000
0001
,
1000
0001
1000
0001
1000
0001
1000
0001
1000
0000
0100
0000
0100
0000
1001
0000
,
0110
0000
1000
0000
0001
0000
1000
0000
0010
0100
0000
0001
0000
0000
0000
0100
,
0010
0000
0001
0000
1000
0100
0000
0020
0000
0000
0000
0000
1030
0000
0001
0100
,
0001
0000
0100
0000
0010
0000
1000
0000
0001
0100
0000
0020
0000
0000
0000
1030
,
0001
0000
0100
0000
0010
1000
0000
0002
0000
0000
0000
0000
0003
0000
1000
0001
,
1000
0000
0001
0000
1000
0000
0010
0000
1000
0100
0000
0200
0000
0000
0300
1000
,
0010
0000
0100
0000
0001
1000
0000
0002
0000
0000
0000
0000
0003
0000
1000
0100
,
1000
0000
0001
0000
1000
0000
0001
0000
1000
0001
0000
0002
0000
0000
0103
0001
,
0100
0000
0010
0000
1000
0001
0000
2000
0000
0000
0000
0000
3001
0000
0000
0000
,
1010
0000
0100
0000
0011
0000
0100
0000
1000
0010
0000
0010
1000
0000
0001
0000
,
0100
0000
0001
0000
0100
0010
0000
0020
0000
0000
0100
0000
0130
0000
0001
1000
,
0001
0000
0100
0000
1001
0000
0100
0000
0010
1000
0000
1000
0010
0000
0100
0000
,
0001
0000
1000
0000
0010
1000
0000
1000
0020
0000
0100
0000
0130
0000
0000
0001
,
1000
0000
0100
0000
1000
0000
0100
0000
1000
0001
0000
0001
1000
0000
0010
0000
,
0100
0000
0001
0000
0100
0001
0000
0002
0000
0000
0100
0000
0103
0000
0001
0100
,
0001
0000
0100
0000
0010
0000
1000
0000
0010
0100
0000
0001
1000
0000
0010
0000
,
1000
0000
0100
0000
0001
0100
0000
0002
0000
0000
0100
0000
0103
0000
0000
0000
,
1000
0001
1000
0000
0001
1000
0001
0000
1000
0100
0000
0100
1000
0000
0001
0000
,
0100
0001
0100
0000
0001
0100
0000
0200
0000
0000
0010
0000
0310
0000
0001
1000
,
0001
0000
1000
0100
1000
0000
0001
0000
0100
0001
0000
0001
0100
0000
0001
0000
,
1000
0100
1000
0000
0100
1000
0000
0020
0000
0000
0100
0000
0130
0000
1000
0001
,
1000
0000
0001
0100
0001
0000
1000
0000
0010
0100
0000
0100
0010
0000
1000
0100
,
1000
0000
0001
0000
0100
0001
0000
0002
0000
0000
1000
0000
1003
0000
0010
0100
,
0010
0000
1000
0000
0001
0000
0100
0000
0001
1000
0000
1000
0001
0000
0100
0000
,
0010
0000
0010
0000
0010
0100
0000
0000
2002
0000
3003
0000
2002
0000
3003
0000
,
1001
0000
0000
0000
0000
0000
0000
0000
0100
0000
0001
0000
1000
0001
0000
1000
0010
1000
0010
0000
1000
0001
1000
0000
0200
0000
0000
0000
0310
0000
1000
0000
,
0001
0000
0100
0001
0000
1000
0001
1000
0000
0001
1000
0001
0000
1000
0100
1000
,
0000
0001
0100
0001
0000
1000
0010
1000
0000
0001
0100
0001
0100
0010
0000
0010
,
0100
0000
0000
0000
1000
0000
0001
0000
1000
0100
1000
0000
0100
0010
0000
0010
0100
0010
0100
0010
0000
1000
0010
1000
0000
0001
0100
0001
0100
0000
0000
0000
,
1001
0000
0100
0000
0010
0000
0010
0000
0010
0000
1000
0001
0000
0001
1000
0001
,
0000
1000
0100
1000
0000
0001
0100
0001
0200
0000
0000
0000
0310
0000
0010
0000
,
1001
0000
1000
0100
0000
1000
0001
0000
1000
0000
0001
0100
0000
0001
1000
0000
,
0001
0000
1000
0001
0000
1000
0010
0000
0100
0000
0001
1000
0000
0001
1000
0000
,
0010
0000
1000
0001
0000
1000
0001
0000
1000
0000
0010
1000
0000
0010
1000
0000
,
0001
0000
0100
0001
0000
0100
0001
0000
0100
0000
0000
0010
0000
0000
0100
0000
,
1001
0000
0000
0100
0000
0000
0010
0000
1001
0000
0000
0010
0000
0000
0100
0000
,
1001
1000
1001
0000
1001
0001
1001
0000
,
1001
0000
0010
1000
0001
0000
0100
0000
1000
0001
1000
0000
0001
1000
0001
1000
,
0001
0110
0000
1001
0000
0000
0000
0000
;

//---------------dance-double - ----------------
#NOTES:
     dance-double:
     :
     Hard:
     14:
     0.713454,0.951784,0.369028,0.229617,0.615047,609.000000,564.000000,45.000000,28.000000,0.000000,0.000000,0.713454,0.951784,0.369028,0.229617,0.615047,609.000000,564.000000,45.000000,28.000000,0.000000,0.000000:
00000000
00000000
00000000
00000000
,
00000000
00000000
00000000
00000000
,
00000000
00000000
00000000
00000000
,
00000000
00000000
00000000
00000000
,
00000000
00000000
00000000
00000000
,
10100000
00000000
00000000
00000000
00010000
00000000
01000000
00000000
00010000
00000000
00000000
02000000
00000000
00000000
03001000
00000000
,
00001000
00000000
00000000
00000000
00010000
00000000
00001000
00000000
00020000
00000000
00000000
00030020
00000000
00000000
00000100
00000000
,
00000130
00000000
00000000
00000000
00001000
00000000
00000001
00000000
00001000
00000000
00000000
00000200
00000000
00000000
00010000
00000000
,
00010300
00000000
00001000
00010000
00011000
00000000
00011000
00000000
,
01000000
00000000
00010000
01000000
00000000
00010000
01000000
00000000
00010000
00000000
10000000
00010000
00000000
10000000
00010000
00000000
,
10000000
00000000
00100000
10000000
00000000
00100000
10000000
00000000
00010000
00000000
00000000
01000000
00000000
00000000
00001000
00000000
,
00010000
00000000
00000100
00010000
00000000
00000100
00010000
00000000
00000001
00000000
00001000
00000001
00000000
00001000
00000010
00000000
,
00001000
00000000
00000010
00010000
00000000
00000010
00010000
00000000
00001000
00000000
00000000
00000000
00011000
00000000
00000000
00000000
,
00011000
00000000
00000000
00010000
00000000
00000000
00000000
00000000
00011000
00000000
00000000
00001000
00000000
00000000
00000000
00000000
,
00010000
00100000
01000000
10000000
01000000
00010000
00001000
00000100
,
00000010
00000000
00000001
00000000
00000100
00000000
00001000
00000000
00010000
00000000
00001000
00000000
00010000
00000000
00001000
00010000
,
00000000
00001000
00000000
00000000
00000000
00000000
00000000
00000000
00000000
00000000
00000000
00000000
00000000
00000000
00000000
00000000
00000000
00000000
00000000
00000000
00000000
00000000
00000000
00000000
00000000
00000000
00000000
00000000
00000000
00000000
00000000
00000000
00000000
00000000
00000000
00000000
00000000
00000000
00000000
00000000
00000000
00000000
00000000
00000000
00000000
00000000
00000000
00000000
00020000
00000000
00000000
00000000
00000000
00000000
00000000
00000000
00000000
00000000
00000000
00000000
00000000
00000000
00000000
00000000
00000000
00000000
00000000
00000000
00000000
00000000
00000000
00000000
00000000
00000000
00000000
00000000
00000000
00000000
00000000
00000000
00000000
00000000
00000000
00000000
00000000
00000000
00000000
00000000
00000000
00000000
00000000
00000000
00000000
00000000
00000000
00000000
00031000
00000000
00000000
00000000
00000000
00000000
00000000
00000000
00000000
00000000
00000000
00000000
00010000
00000000
00000000
00000000
00000000
00000000
00000000
00000000
00000000
00000000
00000000
00000000
00100000
00000000
00000000
00000000
00000000
00000000
00000000
00000000
00000000
00000000
00000000
00000000
00000000
00000000
00000000
00000000
00000000
00000000
00000000
00000000
00000000
00000000
00000000
00000000
01000000
00000000
00000000
00000000
00000000
00000000
00000000
00000000
00000000
00000000
00000000
00000000
10000000
00000000
00000000
00000000
00000000
00000000
00000000
00000000
00000000
00000000
00000000
00000000
00100000
00000000
00000000
00000000
00000000
00000000
00000000
00000000
00000000
00000000
00000000
00000000
01000000
00000000
00000000
00000000
00000000
00000000
00000000
00000000
00000000
00000000
00000000
00000000
,
00020000
00000000
00031000
00000100
00000010
00000000
00000100
00000010
00000000
00001000
00000010
00001000
00000000
00000001
00000100
00000001
,
00000000
00001000
00000001
00001000
00000000
00000010
00001000
00000100
00000000
00000010
00001000
00000001
00000000
00001000
00000100
00000000
,
00001000
00000100
00000000
00010000
00002000
00000000
00000000
00000000
00103000
00010000
01000000
00000000
10000000
00100000
01000000
00001000
,
00010000
00000010
00000100
00000000
00001000
00000000
00010000
00000000
01000000
00000000
00100000
00000000
10000000
00000000
00100000
00000000
,
01000000
00001000
00010000
00000100
00001000
00000001
00001000
00000000
,
00010100
00000000
00000000
00000000
00011000
00000000
00000000
00000000
00011000
00000000
00000000
00000000
00110000
00000000
00000000
00011000
,
00000000
00000000
00001000
00000000
00011000
00000000
00000000
00000000
00011000
00000000
00000000
00000000
00001010
00000000
00000000
00011000
,
00000000
00000000
00010000
00000000
00110000
00000000
00000000
00000000
00110000
00000000
00000000
00000000
10100000
00000000
00000000
00100000
,
00000000
00000000
00001000
00000000
00011000
00000000
00000000
00000000
00010010
00000000
00000000
00000000
00001001
00000000
00000000
00001100
,
00000000
00000000
00000100
00000000
00011000
00000000
00000000
00000000
00011000
00000000
00000000
00000000
01001000
00000000
00000000
01000000
,
00000000
00000000
00010000
00000000
01010000
00000000
00000000
00000000
10010000
00000000
00000000
00000000
10100000
00000000
00000000
00010000
,
00000000
01000000
00001000
01000000
00001000
00010000
00001000
00010000
,
00000100
00001000
00000002
00000003
00000002
00000003
00002000
00003000
,
00001001
00000000
00000010
00000000
00001000
00000000
00000100
00001000
00000100
00001000
00000100
00000000
00010000
00000000
00001000
00000000
,
00100000
00000000
00010000
00000000
01000000
00000000
00010000
10000000
00010000
10000000
00010000
00000000
01000000
00000000
00001000
00000000
,
00010000
00000000
00000100
00000000
00001000
00000000
00000001
00001000
00000001
00001000
00000001
00000000
00001000
00000000
00000100
00000000
,
00010000
00001000
01000000
01000000
00010000
10000000
01000000
01000000
,
10000000
00000000
00010000
00000000
01000000
00000000
00001000
01000000
00001000
01000000
00001000
00000000
00010000
00000000
00000100
00000000
,
00001000
00000000
00000010
00000000
00010000
00000000
00001000
00100000
00001000
00100000
00001000
00000000
00100000
00000000
00001000
00000000
,
01000000
00000000
00010000
00000000
10000000
00000000
00100000
01000000
00100000
01000000
00100000
00000000
10000000
00000000
00010000
00000000
,
00100000
00001000
00010000
00000010
00001000
00000001
00001001
00000000
,
00022000
00000000
00000000
00000000
,
00000000
00000000
00000000
00033000
00001000
00100000
00010000
01000000
,
10010000
00000000
00000000
00000000
10000000
00000000
00000000
00000000
00010000
10000000
00000000
00010000
10000000
00000000
00000000
00000000
,
01000000
00000000
00100000
00000000
10000000
00010000
00000000
00020000
00000000
00000000
00000000
00000000
00130000
00000000
00001000
00000000
,
00010000
00000000
00000010
00000000
00001000
00000000
00000000
00000000
00000001
00001000
00000000
00001000
00000001
00000000
00001000
00000000
,
00000100
00000000
00010000
00000000
00001000
00100000
00000000
00200000
00000000
00000000
00000000
00000000
00310000
00000000
00000000
00000000
,
01000000
00100000
10000000
00000000
00100000
01000000
00010000
00000000
,
00100000
00000000
00001000
00000000
00010000
00001000
00000000
00020000
00000000
00000000
00000000
00000000
00030100
00000000
00000000
00000000
,
00001000
00000010
00000100
00000000
00000001
00001000
00000010
00000000
,
00000100
00000000
00010000
00000000
00001000
00010000
00000000
00022000
00000000
00000000
00033000
00000000
00011000
00000000
00000000
00000000
,
00001000
00000000
00010000
00000000
00100000
00000000
01000000
00000000
10000000
00010000
00000000
00010000
10000000
00000000
01000000
00000000
,
00010000
00000000
00100000
00000000
00001000
00010000
00000000
00020000
00000000
00000000
00000000
00000000
00030100
00000000
00001000
00000100
,
00001000
00000000
00000010
00000000
00000100
00000000
00000001
00000000
00001000
00000010
00000000
00000010
00001000
00000000
00000100
00000000
,
00010000
00000000
00001000
00000000
01000000
00010000
00000000
00020000
00000000
00000000
00000000
00000000
10030000
00000000
00100000
00000000
,
10000000
00000000
00100000
00000000
10000000
00000000
00010000
00000000
00100000
00001000
00000000
00001000
00100000
00000000
00010000
00000000
,
00000010
00000000
00000100
00000000
00000001
00001000
00000000
00002000
00000000
00000000
00000000
00000000
00003010
00000000
00000000
00000000
,
00000100
00000000
00000001
00000000
00001000
00000000
00000001
00000000
00000100
00000010
00000000
00000010
00000100
00000000
00000001
00000000
,
00001000
00000000
00000100
00000000
00010000
00001000
00000000
00022000
00000000
00000000
00000000
00000000
00033000
00000000
00000000
00000000
,
00001000
00000000
01000000
00000000
00010000
00000000
10000000
00000000
00100000
01000000
00000000
01000000
00100000
00000000
10000000
00000000
,
00010000
00000000
01000000
00000000
00001000
00010000
00000000
00020000
00000000
00000000
00000000
00000000
00030100
00000000
00001000
00000000
,
00000001
00000000
00001000
00000000
00000010
00000000
00010000
00000000
00001000
00010000
00000000
00010000
00001000
00000000
00100000
00000000
,
00010000
00000000
10000000
00000000
01000000
00100000
00000000
02000000
00000000
00000000
00000000
00000000
03100000
00000000
10000000
00000000
,
00100000
00000000
00010000
00000000
00001000
00000000
00000100
00000000
00000010
00000001
00000000
00000001
00000100
00000000
00000010
00000000
,
00001000
00000000
00000100
00000000
00010000
00001000
00000000
00002000
00000000
00000000
00000000
00000000
00103000
00000000
00010000
00000000
,
10000000
00000000
00100000
00000000
01000000
00000000
00001000
00000000
00010000
00000100
00000000
00000100
00010000
00000000
00001000
00000000
,
00100000
00000000
00010000
00000000
01000000
00100000
00000000
00000000
10010000
00000000
00000000
00000000
10010000
00000000
00000000
00000000
,
12000000
00000000
00000000
00000000
00000000
00000000
00000000
00000000
13000000
00000000
00100000
00000000
01000000
00010000
00000000
00010000
01000000
00000000
00100000
00000000
00001000
00000000
00000100
00000000
00000010
00000000
00000000
00000000
00001000
00000000
00000001
00000000
,
00000100
00000000
00000001
00001000
00000000
00000001
00001000
00000100
00000000
00000100
00001000
00000001
00000000
00000001
00001000
00000100
,
00000000
00000100
00010000
00001000
00000000
00001000
01000000
00010000
00000000
00010000
10000000
00100000
01000000
00010000
10000000
00100000
,
02000000
00000000
00000000
00000000
00000000
00000000
00000000
00000000
03100000
00000000
10000000
00000000
01000000
00100000
00000000
01000000
00100000
00000000
00010000
00000000
00001000
00000000
00000100
00000000
00000001
00001000
00000001
00001000
00000002
00000000
00000000
00000000
,
00000103
00000010
00001000
00000100
00010000
00001000
00100000
00010000
,
01000000
00100000
10000000
00010000
01000000
00000000
00011000
00000000
,
00000001
00000000
00001000
00000100
00000000
00001000
00000100
00000000
00001000
00000000
00000010
00001000
00000000
00000100
00010000
00000100
,
00010000
00000000
00001000
00010000
00000000
00001000
00100000
00000000
00010000
00000000
10000000
00010000
00000000
01000000
00100000
00000000
,
10010000
00000000
10000000
01000000
00000000
00100000
00010000
00000000
01000000
00000000
00001000
00010000
00000000
00001000
00010000
00000000
,
00000100
00000000
00001000
00000010
00000000
00000100
00000001
00000000
00001000
00000000
00000010
00000000
00001000
00000000
00000100
00000000
,
00011000
00000000
00000000
00010000
00000000
00000000
00000000
00000000
00011000
00000000
00000000
00001000
00000000
00000000
00000000
00000000
,
00110000
00010000
00010000
00000000
00001010
00001000
00001000
00000000
,
00010000
00001000
00010000
00001000
00010000
00001000
00010000
00001000
,
00010000
00001000
00000000
00011000
00000000
00000000
00000000
00000000
;

//---------------dance-double - ----------------
#NOTES:
     dance-double:
     :
     Medium:
     11:
     0.513125,0.539345,0.262420,0.319824,0.217316,438.000000,406.000000,32.000000,39.000000,0.000000,0.000000,0.513125,0.539345,0.262420,0.319824,0.217316,438.000000,406.000000,32.000000,39.000000,0.000000,0.000000:
00000000
00000000
00000000
00000000
,
00000000
00000000
00000000
00000000
,
00000000
00000000
00000000
00000000
,
00000000
00000000
00000000
00000000
,
00000000
00000000
00000000
00000000
,
00001000
00000000
00001000
00001000
00001000
00000000
00020000
00000000
,
00031000
00000000
00010000
00010000
00020000
00000000
00031000
00000000
,
01000000
00000000
01000000
01000000
01000000
00000000
00002000
00000000
,
00013000
00000000
00010000
00010000
00011000
00000000
00011000
00000000
,
00100000
00000000
00000000
00100000
00000000
00000000
00010000
00000000
10000000
00000000
00000000
10000000
00000000
00000000
00010000
00000000
,
00100000
00000000
00000000
00100000
00000000
00000000
00001000
00000000
00010000
00000000
00000000
00010000
00000000
00000000
00000010
00000000
,
00001000
00000000
00000000
00001000
00000000
00000000
00000001
00000000
00000100
00000000
00000000
00000100
00000000
00000000
00000001
00000000
,
00001000
00000000
00000000
00001000
00000000
00000000
00000100
00000000
00010000
00000000
00000000
00010000
00000000
00000000
00001000
00000000
,
00011000
00000000
00000000
00010000
00000000
00000000
00000000
00000000
00011000
00000000
00000000
00010000
00000000
00000000
00000000
00000000
,
00011000
00011000
00011000
01010000
,
10000000
01000000
10000000
01000000
00100000
00010000
00100000
00010000
,
00000000
00000000
00000000
00000000
10000000
00000000
00000000
00000000
01000000
00010000
10000000
00000000
00200000
00000000
00000000
00000000
,
02300000
00000000
03010000
00000000
10000000
00000000
01000000
10000000
00000000
00000000
10000000
01000000
00000000
00000000
01000000
00010000
,
00000000
00000000
00010000
00100000
00000000
00000000
00100000
00001000
00000000
00000000
00001000
00000000
00010000
00000000
00000100
00000000
,
00001000
00000000
00000001
00000000
00002000
00000000
00000000
00000000
00003001
00000100
00000010
00000000
00002000
00000000
00000000
00000000
,
00003001
00000020
00000130
00000000
00000010
00000000
00001000
00000100
,
00001000
00000010
00001000
00000001
00001000
00000100
00010000
00000000
,
00011000
00000000
00000000
00000000
00001000
00000000
00000000
00000000
00100000
00000000
00000000
00000000
01000000
00000000
00000000
01000000
,
00000000
00000000
01000000
00000000
00010000
00000000
00000000
00000000
10010000
00000000
00000000
00000000
00100000
00000000
00000000
00100000
,
00000000
00000000
00100000
00000000
10000000
00000000
00000000
00000000
00010000
00000000
00000000
00000000
01000000
00000000
00000000
01000000
,
00000000
00000000
01000000
00000000
00010000
00000000
00100000
00000000
00001000
00000000
00010000
00000000
00001000
00000000
00000000
00001000
,
00000000
00000000
00010000
00000000
00001000
00000000
00000000
00000000
00000100
00000000
00000000
00000000
00000010
00000000
00000000
00000010
,
00000000
00000000
00000010
00000000
00001000
00000000
00000000
00000000
00001001
00000000
00000000
00000000
00000100
00000000
00000000
00000100
,
00000000
00000000
00000100
00000000
00000001
00000000
00000000
00000000
00001000
00000000
00000000
00000000
00000010
00000000
00000000
00000010
,
00000000
00000010
00001000
00000100
00010000
00001000
00010000
00000000
,
00011000
00000000
00000000
00000000
00100000
00000000
00000000
10000000
00000000
00010000
00000000
00000000
01000000
00000000
00000000
00000000
,
00200000
00000000
00000000
00000000
01300000
00000000
00000000
00010000
00000000
00100000
00000000
00000000
00001000
00000000
00000000
00000000
,
00020000
00000000
00000000
00000000
00031000
00000000
00000000
00000100
00000000
00000010
00000000
00000000
00001000
00000000
00000000
00000000
,
00000002
00000000
00000000
00000000
00001003
00000000
00000000
00000010
00000000
00000100
00000000
00000000
00001000
00000000
00010000
00000000
,
00001000
00000000
01000000
00000000
00010000
00000000
00000000
01000000
00000000
00100000
00000000
00000000
01000000
00000000
00000000
00000000
,
10000000
00000000
00100000
00000000
10000000
00000000
00000000
00100000
00000000
01000000
00000000
00000000
00001000
00000000
00010000
00000000
,
00000100
00010000
00001000
00010000
00000010
00000100
00000010
00001000
,
00000001
00001000
00000001
00001000
00000010
00000100
00000010
00000000
,
00002002
00000000
00000000
00003003
,
00000020
00020030
00030200
00010300
,
00001000
00010000
00001000
00000000
00010000
00100000
01000000
00000000
,
10000000
00010000
10000000
00000000
00200000
00000000
00300000
00000000
,
10000000
00010000
10000000
00000000
00001000
01000000
00001000
00000000
,
00010000
00001000
00010000
00000000
00000200
00000000
00000300
00000000
,
00001000
00000001
00000010
00000000
00000100
00000001
00001000
00000000
,
00000100
00010000
00001000
00000000
00020000
00000000
00030000
00000000
,
00001000
01000000
00010000
00000000
10000000
00010000
01000000
00000000
,
00010000
00100000
00001000
00000000
00020000
00000000
00031000
00000000
,
00010000
00000100
00010000
00000100
00010000
00000000
00000010
00000000
,
00000100
00000001
00001000
00000000
00000220
00000000
00000330
00000000
,
00000010
00001000
00000010
00001000
00000010
00000000
00000100
00000000
,
00010000
00001000
00010000
00000000
00022000
00000000
00033000
00000000
,
00010000
01000000
00010000
01000000
10000000
00000000
01000000
00000000
,
10000000
00100000
10000000
00000000
20020000
00000000
30030000
00000000
,
01000000
00010000
01000000
00000000
00001000
00010000
00001000
00000000
,
00010000
00001000
00000100
00000000
00002002
00000000
00003003
00000000
,
00000010
00001000
00000100
00001000
00000010
00000000
00001001
00000000
,
00000100
00001000
00010000
00000000
00022000
00000000
00033000
00000000
,
00010000
01000000
00010000
00100000
00010000
00000000
10010000
00000000
,
00100000
00001000
00010000
00000000
00022000
00000000
00033000
00000000
,
00000010
00001000
00000100
00000010
00001000
00000001
00001000
00000000
,
00000100
00001000
00010000
00000000
00022000
00000000
00033000
00000000
,
00100000
00010000
01000000
00100000
10000000
01000000
00010000
00000000
,
00100000
00001000
00010000
00000000
00001100
00000000
00000101
00000000
,
00000001
00000000
00000000
00000000
00000010
00001000
00000001
00000000
00000200
00000000
00000000
00000000
00000320
00000000
00001030
00000000
,
00000001
00000000
00000010
00000001
00000000
00000000
00000001
00000010
00000000
00000000
00000010
00001000
00000000
00000000
00001000
00000100
,
00000000
00000000
00000100
00010000
00000000
00000000
00010000
00000000
00001000
00000000
00100000
00000000
00010000
00000000
10000000
00000000
,
00020000
00000000
00000000
00000000
10030000
00100000
01000000
00000000
00020000
00000000
00000000
00000000
10030000
00000000
02000000
00000000
,
03100000
00000000
01000000
00000000
00010000
00100000
00010000
01000000
,
00010000
10000000
00010000
00100000
00001000
00000000
00011000
00000000
,
00000010
00000000
00000000
00000010
00000000
00000000
00001000
00000000
00000001
00000000
00000000
00000001
00000000
00000000
00001000
00000000
,
00000100
00000000
00000000
00000100
00000000
00000000
00010000
00000000
00001000
00000000
00000000
00001000
00000000
00000000
01000000
00000000
,
00010000
00000000
00000000
00010000
00000000
00000000
10000000
00000000
00100000
00000000
00000000
00100000
00000000
00000000
10000000
00000000
,
00010000
00000000
00000000
00010000
00000000
00000000
00100000
00000000
00001000
00000000
00000000
00001000
00000000
00000000
00010000
00000000
,
00011000
00000000
00000000
00001000
00000000
00000000
00000000
00000000
00011000
00000000
00000000
00001000
00000000
00000000
00000000
00000000
,
00011000
00011000
00011000
00001010
,
00000001
00000010
00000001
00000010
00000100
00001000
00000100
00001000
,
00000000
00001000
00000000
00011000
00000000
00000000
00000000
00000000
;

//---------------dance-double - ----------------
#NOTES:
     dance-double:
     :
     Easy:
     6:
     0.297565,0.412440,0.098407,0.213216,0.000000,254.000000,242.000000,12.000000,26.000000,0.000000,0.000000,0.297565,0.412440,0.098407,0.213216,0.000000,254.000000,242.000000,12.000000,26.000000,0.000000,0.000000:
00000000
00000000
00000000
00000000
,
00000000
00000000
00000000
00000000
,
00000000
00000000
00000000
00000000
,
00000000
00000000
00000000
00000000
,
00000000
00000000
00000000
00000000
,
00100000
10000000
00010000
00010000
,
00100000
00001000
00010000
00010000
,
00000010
00001000
00000001
00000001
,
00001000
00000100
00001100
00001100
,
00000200
00000300
00020000
00030000
,
00000200
00000300
00001000
00100000
,
02000000
03000000
00020000
00030000
,
02000000
03000000
00010000
10000000
,
00100000
00000000
00100000
00000000
,
01000000
00001000
00010000
00001000
,
00020000
00030000
00002000
00003000
,
00011000
00000000
00010000
00000000
00000010
00000100
00002000
00000000
,
00003001
00000010
00000100
00000000
00000001
00000000
00001000
00000000
,
00000001
00000100
00010000
00001000
,
01000000
00000000
00100000
00000000
10000000
01000000
00200000
00000000
,
01300000
00100000
00010000
00000000
01000000
00000000
00001000
00000000
,
00010000
00000100
00001000
00000001
,
00001001
00000010
00000010
00000010
,
00000000
00000100
00000100
00000100
,
00000000
00000010
00000010
00000010
,
00000000
00010000
00001000
00010000
,
00000000
01000000
01000000
01000000
,
00000000
00100000
00100000
00100000
,
00000000
01000000
01000000
01000000
,
00000000
00001000
00010000
00001000
,
00000000
00010000
00000100
00000100
,
00001000
00000001
00000010
00000010
,
00000001
00000100
00010000
00010000
,
00000100
00001000
00010000
00100000
,
00010000
10000000
01000000
01000000
,
10000000
00010000
00100000
00100000
,
00001000
00010000
00000010
00000100
,
00000002
00000000
00002000
00003003
,
00002002
00000000
00000000
00000000
,
00000000
00003003
00000100
00010000
,
00011000
00000000
00001000
00000000
,
00010000
00010000
00020000
00030000
,
00001000
00000000
00010000
00000000
,
00001000
00001000
00002000
00003000
,
00010000
00000000
00100000
00000000
,
00010000
00010000
00020000
00030000
,
00000100
00000000
00001000
00000000
,
00000100
00000100
00000200
00000300
,
00010000
00001000
01000000
00000000
,
00010000
10000000
00010000
00000000
,
01000000
00001000
00010000
00000000
,
00001000
00010000
00001000
00000000
,
00010000
00000010
00001000
00000000
,
00000001
00001000
00000001
00000000
,
00001000
00000010
00010000
00000000
,
00001000
00010000
00001000
00000000
,
00001000
01000000
00010000
10000000
,
01000000
00010000
00001000
00000000
,
00010000
00000100
00001000
00000001
,
00000100
00001000
00010000
00000000
,
00010000
00000100
00001000
00000001
,
00000010
00010000
00001000
00000000
,
01000000
00010000
10000000
00001000
,
00010000
00000010
00001001
00001001
,
00001000
00000000
01000000
00100000
00020000
00000000
10030000
01000000
,
00100000
10000000
00010000
10000000
,
00100000
00001000
00010000
00000010
,
00000100
00000000
00000001
00000010
00000200
00000000
00000310
00000100
,
00001000
00000010
00010000
00001000
,
00100000
00010000
10000000
10010000
,
02000000
03000000
00200000
00300000
,
02000000
03000000
00001000
00010000
,
00000020
00000030
00000200
00000300
,
00000020
00000030
00001000
00000100
,
00011000
00000000
00011000
00000000
,
00001000
00010000
01000000
10000000
,
01000000
00001000
00010000
00001000
,
00000000
00010000
00000000
00011000
00000000
00000000
00000000
00000000
;
