#TITLE:Howling;
#SUBTITLE:;
#ARTIST:PON;
#TITLETRANSLIT:;
#SUBTITLETRANSLIT:;
#ARTISTTRANSLIT:;
#GENRE:;
#CREDIT:;
#MENUCOLOR:;
#METERTYPE:DDR;
#BANNER:Howling.png;
#BACKGROUND:Howling-jacket.png;
#LYRICSPATH:;
#CDTITLE:;
#MUSIC:Howling.mp3;
#OFFSET:-0.020;
#SAMPLESTART:18.583;
#SAMPLELENGTH:15.000;
#SELECTABLE:YES;
#LISTSORT:;
#DISPLAYBPM:155.000;
#BPMS:0.000=155.000;
#STOPS:;
#BGCHANGES:;
#ATTACKS:;

//---------------dance-single - ----------------
#NOTES:
     dance-single:
     :
     Challenge:
     10:
     0.336,0.565,0.363,0.027,0.009:
0000
0000
0000
0000
,
0000
0000
0000
0000
,
0000
0000
0000
0000
,
0000
0000
0000
0000
,
0000
0000
0000
0000
,
0010
MMMM
0100
MMMM
,
0010
MMMM
0100
MMMM
,
0001
MMMM
1000
MMMM
,
0020
0000
0000
0000
,
0000
0000
0000
0030
,
0100
MMMM
0100
0000
0010
MMMM
0010
0000
,
1000
MMMM
1000
0000
0001
0000
1001
0000
,
1000
MMMM
0001
MMMM
,
1000
MMMM
0001
MMMM
,
0010
MMMM
0100
MMMM
,
0010
0100
0010
0100
0010
0000
MMMM
0000
,
0001
MMMM
1000
MMMM
,
0001
MMMM
1000
MMMM
,
0010
MMMM
0100
MMMM
,
0010
0000
0010
0000
MMMM
MMMM
MMMM
MMMM
,
0100
0100
0100
0100
,
0001
MMMM
0001
MMMM
0010
MMMM
0010
MMMM
,
0001
0001
0100
0100
,
1000
MMMM
1000
MMMM
0100
MMMM
0100
MMMM
,
0010
0010
1000
1001
,
0001
MMMM
0001
MMMM
0010
MMMM
0010
MMMM
,
0001
1001
1000
1001
,
0010
0110
0100
0110
,
1000
0100
1000
0000
0001
0000
0100
0000
,
0001
0100
0001
0000
0100
0000
0001
0000
,
0010
0100
0010
0000
0100
0000
0010
0000
,
1000
0100
1000
0000
MMMM
0000
MMMM
0000
,
0001
0100
0001
0000
0010
0000
0010
0000
,
1000
0100
1000
0000
0010
0000
0010
0000
,
0001
1000
0001
0000
0100
0000
0100
0000
,
1000
0001
1000
0000
0010
0000
0010
0000
,
1010
MMMM
0101
MMMM
,
0110
MMMM
1001
MMMM
,
1100
MMMM
0011
MMMM
,
1100
MMMM
1100
MMMM
0011
MMMM
0011
MMMM
,
0110
MMMM
1001
MMMM
,
1100
MMMM
0011
MMMM
,
0010
0100
0010
0000
0100
0010
0100
0000
,
1000
0001
1000
0000
0001
1000
0001
0000
,
1000
0100
1000
0000
0001
0100
0001
0000
,
1000
0100
0010
0001
1000
0001
1000
0000
,
1001
MMMM
0110
MMMM
,
1100
MMMM
0011
MMMM
,
0110
MMMM
1001
MMMM
,
1000
MMMM
0100
MMMM
1000
0000
0000
0000
,
0010
MMMM
0100
MMMM
,
0001
MMMM
1000
MMMM
,
0010
MMMM
0100
MMMM
,
0010
0000
0000
0000
MMMM
0000
0000
0000
1000
0001
0000
1000
0001
0000
1000
0000
,
0001
0000
MMMM
0010
0010
0000
MMMM
0100
,
0100
0000
MMMM
0001
0001
0000
MMMM
1000
,
1000
0000
MMMM
0010
0010
0000
MMMM
0000
,
0100
0100
0100
0100
0100
0000
MMMM
0000
,
1001
0000
MMMM
0010
0010
0000
MMMM
0100
,
0100
0000
MMMM
0001
0001
0000
MMMM
1000
,
1000
0000
MMMM
0010
0010
0000
MMMM
0000
,
0010
0010
0010
0010
MMMM
MMMM
MMMM
MMMM
,
0010
MMMM
0100
MMMM
,
0001
MMMM
1000
MMMM
,
0001
1000
0001
1000
0000
0010
0000
0100
,
0000
0010
0000
0100
0010
0000
0110
0000
,
1001
MMMM
1100
MMMM
,
1001
MMMM
0101
MMMM
,
0110
MMMM
0110
MMMM
1001
MMMM
1001
MMMM
,
1100
MMMM
0110
MMMM
0011
MMMM
0110
MMMM
,
2002
0000
0000
0000
,
3003
0000
0000
0000
;

//---------------dance-double - ----------------
#NOTES:
     dance-double:
     :
     Challenge:
     10:
     0.335,0.439,0.380,0.053,0.009: // measure 1
00000000
00000000
00000000
00000000
,  // measure 2
00000000
00000000
00000000
00000000
,  // measure 3
00000000
00000000
00000000
00000000
,  // measure 4
00000000
00000000
00000000
00000000
,  // measure 5
00000000
00000000
00000000
00000000
,  // measure 6
00000010
MMMMMMMM
00000100
MMMMMMMM
,  // measure 7
00000010
MMMMMMMM
00000001
MMMMMMMM
,  // measure 8
00001000
MMMMMMMM
00000001
MMMMMMMM
,  // measure 9
00000200
00000000
00020300
00000000
,  // measure 10
00032000
00000000
00203000
00300000
,  // measure 11
00100000
MMMMMMMM
00100000
00000000
01000000
MMMMMMMM
01000000
00000000
,  // measure 12
00100000
MMMMMMMM
00001000
00000000
00010000
00000000
00000010
00000000
,  // measure 13
00000100
MMMMMMMM
00000100
MMMMMMMM
,  // measure 14
00000010
MMMMMMMM
00000100
MMMMMMMM
,  // measure 15
00001000
MMMMMMMM
00000010
MMMMMMMM
,  // measure 16
00001000
00000100
00001000
00000100
00010000
00001000
01000000
00000000
,  // measure 17
01010000
MMMMMMMM
10100000
MMMMMMMM
,  // measure 18
00010000
MMMMMMMM
00100000
MMMMMMMM
,  // measure 19
00001000
MMMMMMMM
01000000
MMMMMMMM
,  // measure 20
00010000
00010000
00010000
00000010
,  // measure 21
00000001
00000010
00000100
00001000
,  // measure 22
00000100
MMMMMMMM
00000100
MMMMMMMM
00001000
MMMMMMMM
00001000
MMMMMMMM
,  // measure 23
00000100
00010000
00001000
00100000
,  // measure 24
10010000
MMMMMMMM
10010000
MMMMMMMM
01100000
MMMMMMMM
01100000
MMMMMMMM
,  // measure 25
01100000
00100000
00010000
00000100
,  // measure 26
00001000
MMMMMMMM
00000100
MMMMMMMM
,  // measure 27
00001000
00001000
00010000
00010000
,  // measure 28
00011000
00110000
MMMMMMMM
MMMMMMMM
,  // measure 29
10000000
01000000
10000000
00000000
01000000
00000000
00010000
00000000
,  // measure 30
00100000
00001000
00100000
00000000
00010000
00000000
00000100
00000000
,  // measure 31
00001000
00000010
00001000
00000000
00000001
00000000
00000100
00000000
,  // measure 32
00000010
00000100
00000010
00000000
MMMMMMMM
00000000
MMMMMMMM
00000000
,  // measure 33
00000010
00000100
00000010
00000000
00000100
00000000
00000001
00000000
,  // measure 34
00001000
00000010
00001000
00000000
00000100
00000000
00010000
00000000
,  // measure 35
00001000
00100000
00001000
00000000
00010000
00000000
00001000
00000000
,  // measure 36
01000000
00010000
01000000
00000000
00100000
00000000
01100000
00000000
,  // measure 37
10010000
MMMMMMMM
01100000
MMMMMMMM
,  // measure 38
00110000
MMMMMMMM
10100000
MMMMMMMM
,  // measure 39
11000000
MMMMMMMM
01100000
MMMMMMMM
,  // measure 40
00001000
00010000
00000100
00001000
,  // measure 41
00001001
MMMMMMMM
00000110
MMMMMMMM
,  // measure 42
00000011
MMMMMMMM
00001100
MMMMMMMM
,  // measure 43
00000001
00000010
00000100
00001000
,  // measure 44
00000100
00010000
00001000
00100000
,  // measure 45
00010000
10000000
01000000
00100000
,  // measure 46
00010000
00000100
00001000
00000010
,  // measure 47
00001001
MMMMMMMM
00000110
MMMMMMMM
,  // measure 48
00000011
MMMMMMMM
00001100
MMMMMMMM
,  // measure 49
00000110
MMMMMMMM
00001001
MMMMMMMM
,  // measure 50
00000100
00010000
00001000
01000000
,  // measure 51
00100000
MMMMMMMM
01100000
MMMMMMMM
,  // measure 52
10010000
MMMMMMMM
10010000
MMMMMMMM
,  // measure 53
01100000
MMMMMMMM
01100000
MMMMMMMM
,  // measure 54
10010000
00000000
00000000
00000000
MMMMMMMM
00000000
00000000
00000000
10000000
00010000
00000000
10000000
00010000
00000000
00000000
00000000
,  // measure 55
10010000
00000000
MMMMMMMM
00000000
00100000
00000000
MMMMMMMM
00001000
,  // measure 56
00001000
00000000
MMMMMMMM
00010000
00010000
00000000
MMMMMMMM
00000100
,  // measure 57
00000100
00000000
MMMMMMMM
00000010
00000010
00000000
MMMMMMMM
00000000
,  // measure 58
00011000
00011000
00011000
MMMMMMMM
,  // measure 59
00001001
00000000
MMMMMMMM
00000000
00000100
00000000
MMMMMMMM
00010000
,  // measure 60
00010000
00000000
MMMMMMMM
00001000
00001000
00000000
MMMMMMMM
00100000
,  // measure 61
00100000
00000000
MMMMMMMM
01000000
01000000
00000000
MMMMMMMM
00000000
,  // measure 62
00011000
00110000
MMMMMMMM
MMMMMMMM
,  // measure 63
01100000
00000000
MMMMMMMM
00001000
00001000
00000000
MMMMMMMM
00001000
,  // measure 64
00000100
00000000
MMMMMMMM
00000100
00010000
00000000
MMMMMMMM
00000000
,  // measure 65
00010000
10000000
00010000
10000000
00000000
00100000
00000000
00010000
,  // measure 66
00000000
00000100
00000000
00001000
00000100
00000000
00000110
00000000
,  // measure 67
00000110
00000000
MMMMMMMM
00010000
00010000
00000000
MMMMMMMM
00010000
,  // measure 68
00100000
00000000
MMMMMMMM
00100000
00001000
00000000
MMMMMMMM
00000000
,  // measure 69
00010000
00010000
00001000
00001000
,  // measure 70
00010000
00001000
00010000
00001000
,  // measure 71
00022000
00000000
00000000
00000000
,  // measure 72
00033000
00000000
00000000
00000000
;

//---------------dance-double - ----------------
#NOTES:
     dance-double:
     :
     Hard:
     12:
     0.605,0.722,0.354,0.548,0.199:
00000000
00000000
00000000
00000000
,
00000000
00000000
00000000
00000000
,
00000000
00000000
00000000
00000000
,
00000000
00000000
00000000
00000000
,
00000000
00000000
00000000
00000000
,
20000000
00000000
30000000
00010000
02000000
00000000
03000000
00010000
,
00200000
00000000
00300000
00001000
00020000
00000000
00030000
00000100
,
00002000
00000000
00003000
00000010
00000200
00000000
00000300
00000010
,
00002000
00000000
00000000
00000100
00000000
00000000
00000100
00000000
00000100
00000000
00000000
00000100
00000000
00000000
00003200
00000000
,
00010000
00000000
00000000
00010000
00000000
00000000
00010000
00000000
00010000
00000000
00000000
00010000
00000000
00000000
00010300
00000000
,
00010000
00001000
00010000
00001000
00000000
00010000
00001000
00000000
00100000
00010000
00100000
00010000
00000000
00100000
00010000
00000000
,
01000000
00100000
01000000
00100000
00000000
01000000
00100000
00000000
00010000
00000000
01000000
00000000
00100000
00000000
10000000
00000000
,
02000000
00000000
03000000
00010000
20000000
00000000
30000000
00100000
,
02000000
00000000
03000000
00001000
00020000
00000000
00030000
00000010
,
00000200
00000000
00000300
00000001
00002000
00000000
00003000
00000000
,
00000010
00001000
00000100
00001000
00000020
00000000
00001030
00000000
,
00000200
00000000
00000300
00010000
00002000
00000000
00003000
00100000
,
00020000
00000000
00030000
01000000
00200000
00000000
00300000
10000000
,
02000000
00000000
03000000
00100000
00002000
00000000
00003000
00000000
,
00010000
00000100
00010000
00000100
00010000
00001000
00011000
00011000
,
00010000
00000000
00000000
00001000
00000000
00000000
00010000
00000000
00001000
00000000
00000000
00100000
00000000
00000000
00001000
00000000
,
00100000
00000000
00000000
00010000
00000000
00000000
01000000
00000000
00100000
00000000
00000000
10000000
00000000
00000000
01000000
00000000
,
00100000
00000000
00000000
00001000
00000000
00000000
00010000
00000000
00000010
00000000
00000000
00001000
00000000
00000000
00000100
00000000
,
00000010
00000000
00000000
00000001
00000000
00000000
00000100
00000000
00001010
00000000
00000000
00000000
00000101
00000000
00000000
00000000
,
00000010
00000000
00000000
00000100
00000000
00000000
00000010
00000000
00010000
00000000
00000000
00000100
00000000
00000000
00010000
00000000
,
00000100
00000000
00000000
00001000
00000000
00000000
00000100
00000000
00001000
00000000
00000000
00000001
00000000
00000000
00000010
00000000
,
00000100
00000000
00000000
00010000
00000000
00000000
00001000
00000000
00010000
00000000
00000000
00001000
00000000
00000000
00100000
00000000
,
00010000
00000000
00000000
10000000
00000000
00000000
00100000
00000000
01010000
00000000
00000000
00000000
10100000
00000000
00000000
00000000
,
01000000
00000000
00100000
00000000
01000000
00000000
00000000
00000000
10000000
00000000
00000000
00010000
00000000
00000000
10000000
00000000
,
00100000
00000000
01000000
00000000
00100000
00000000
00000000
00000000
00001000
00000000
00000000
00010000
00000000
00000000
00001000
00000000
,
00010000
00000000
00000100
00000000
00010000
00000000
00000000
00000000
00000010
00000000
00000000
00000010
00000000
00000000
00000010
00000000
,
00000100
00000000
00000010
00000000
00000100
00000000
00000000
00000000
00000001
00000000
00001000
00000001
00000000
00001000
00000001
00000000
,
00000010
00000000
00000100
00000000
00000010
00000000
00000000
00000000
00000001
00000000
00000000
00001000
00000000
00000000
00000001
00000000
,
00000100
00000000
00000010
00000000
00000100
00000000
00000000
00000000
00010000
00000000
00000000
00001000
00000000
00000000
00010000
00000000
,
00001000
00000000
00100000
00000000
00001000
00000000
00000000
00000000
01000000
00000000
00000000
01000000
00000000
00000000
01000000
00000000
,
00100000
01000000
00100000
00000000
20020000
00000000
30030000
00000000
,
01000000
01000000
00000000
00100000
01000000
01000000
00000000
00100000
,
10000000
10000000
00000000
00100000
01000000
01000000
00000000
00100000
,
00001000
00001000
00000000
00100000
00010000
00010000
00000000
00100000
,
01000000
01000000
00100000
00010000
00100000
00001000
00010000
00000010
,
00001000
00001000
00000000
00000100
00001000
00001000
00000000
00000100
,
00000010
00000010
00000000
00000100
00000001
00000001
00000000
00000010
,
00000010
00001000
00001000
00000100
00000100
00010000
00010000
00001000
,
00100000
00010000
01000000
00100000
10000000
00000000
00010000
01000000
,
01000000
00010000
00010000
00100000
00100000
00001000
00001000
00010000
,
00010000
00000010
00001000
00000100
00000010
00000001
00000000
00000000
,
00002001
00000000
00003000
00000100
00000020
00000000
00000030
00001000
,
00000200
00000000
00000300
00010000
00002000
00000000
00003000
01000000
,
00200000
00000000
00300000
10000000
00020000
00000000
00030000
00000000
,
11000000
01000000
01100000
00100000
00110000
00000000
01010000
00000000
,
00102000
00000000
00003000
00010000
00010200
00000000
00000300
00001000
,
00000120
00000000
00000030
00000100
00000102
00000000
00000003
00000010
,
00002010
00000000
00003000
00000100
00021000
00000000
00030000
00001000
,
00220000
00000000
00000000
00000000
00330000
00000000
00000000
00000000
00100000
01000000
00000000
00100000
01000000
00000000
00100000
01000000
,
00100000
00000000
00000000
10100000
20200000
00000000
30300000
01000000
,
02020000
00000000
03030000
00100000
00202000
00000000
00303000
00010000
,
00020200
00000000
00030300
00001000
00022000
00000000
00033000
00000000
,
00001000
00100000
00010000
00100000
00002000
00000000
00013000
00000000
,
00020200
00000000
00030300
00001000
00002200
00000000
00003300
00000010
,
00000220
00000000
00000330
00000001
00002002
00000000
00003003
00000100
,
00002200
00000000
00003300
00000100
00020200
00000000
00030300
00000000
,
00001000
00100000
00010000
01000000
01100000
01100000
01100000
01100000
,
10010000
00000000
00000000
10000000
00010000
00000000
01000000
00000000
00100000
00000000
00000000
00010000
10000000
00000000
00100000
00000000
,
01000000
00000000
00000000
10000000
00010000
00000000
01000000
00000000
00010000
00000000
00100000
00000000
00001000
00000000
00010000
00000000
,
00000100
00001000
00000010
00000001
00000000
00001001
00000100
00000010
,
00000000
00001001
00000000
00000110
00000001
00000100
00000010
00001000
,
00000100
00000000
00000000
00010000
00000100
00000000
00010000
00000000
00001000
00000000
00000000
00100000
00010000
00000000
00100000
00000000
,
00010000
00000000
00000000
01000000
00100000
00000000
10000000
00000000
01000000
00000000
00000000
00100000
01000000
00000000
00100000
00000000
,
10000000
01000000
00100000
00001000
00010000
00000100
00001000
00000001
,
00000010
00000100
00001000
00010000
00001000
00010000
00001000
00100000
,
20020000
00000000
00000000
00000000
,
30030000
00000000
00000000
00000000
;

//---------------dance-single - ----------------
#NOTES:
     dance-single:
     :
     Hard:
     13:
     0.664,0.816,0.371,0.389,0.367:
0000
0000
0000
0000
,
0000
0000
0000
0000
,
0000
0000
0000
0000
,
0000
0000
0000
0000
,
0000
0000
0000
0000
,
0020
0000
0030
0100
0002
0000
0003
1000
,
0020
0000
0030
1000
0200
0000
0300
1000
,
0002
0000
0003
0100
0020
0000
0030
1000
,
0200
0000
0000
1000
0000
0000
1000
0000
1000
0000
0000
1000
0000
0000
2300
0000
,
0010
0000
0000
0010
0000
0000
0010
0000
0010
0000
0000
0010
0000
0000
3020
0000
,
0130
0010
0100
0010
0000
0100
0010
0000
0001
1000
0001
1000
0000
0001
1000
0000
,
1000
0100
1000
0100
0000
0010
0001
0000
0101
0000
0100
0000
0110
0000
0010
0000
,
2010
0000
0000
0000
3100
0000
0010
0000
0002
0000
0000
0003
0100
0000
0010
0000
,
2000
0000
3100
0001
0020
0000
0130
0001
,
2000
0000
3010
0100
0002
0000
0103
0000
,
0010
1000
0100
0001
0220
0000
0330
0000
,
1002
0000
0103
0010
1200
0000
0310
0100
,
0120
0000
1030
0100
0021
0000
0130
1000
,
1200
0000
0310
0001
0102
0000
0013
0000
,
0001
0010
0100
1000
0010
0010
0110
0110
,
1001
0000
0000
1000
0000
0000
1000
0000
0010
0000
0000
0010
0000
0000
0010
0000
,
0100
0000
0000
0100
0000
0000
0100
0000
0001
0000
0000
0001
0000
0000
0001
0000
,
0010
0000
0000
1000
0000
0000
0010
0000
0001
0000
0000
0100
0000
0000
0001
0000
,
1000
0000
0000
0010
0000
0000
1000
0000
0100
0000
0010
0000
0001
0000
0100
0000
,
0010
0000
0000
1000
0000
0000
0010
0000
0100
0000
0000
0001
0000
0000
0100
0000
,
0010
0000
0000
1000
0000
0000
0010
0000
0100
0000
0000
0010
0000
0000
0100
0000
,
0001
0000
0000
0010
0000
0000
0100
0000
1000
0000
0000
0100
0000
0000
0010
0000
,
0001
0000
0000
1000
0000
0000
0100
0000
0010
0000
0000
0000
0110
0000
0000
0000
,
1000
0000
0100
0000
1000
0000
0100
0000
1000
0000
0000
0010
0000
0000
0100
0000
,
0001
0000
0010
0000
0001
0000
0010
0000
0001
0000
0000
0100
0000
0000
0010
0000
,
1000
0000
0100
0000
1000
0000
0100
0000
1000
0000
0000
0010
0000
0000
0100
0000
,
0001
0000
0010
0000
0001
0000
0000
0000
0010
0000
0100
0010
0000
0100
0010
0000
,
0001
0000
0100
0000
0001
0000
0100
0000
0001
0000
0000
1000
0000
0000
0010
0000
,
0100
0000
1000
0000
0100
0000
1000
0000
0100
0000
0000
0010
0000
0000
1000
0000
,
0001
0000
0100
0000
0001
0000
0100
0000
0001
0000
0000
1000
0000
0000
0100
0000
,
1000
0010
1000
0010
1000
0000
1001
0000
,
0110
0010
0000
1000
1100
1000
0000
0001
,
0101
0001
0000
0010
0110
0010
0000
1000
,
1100
1000
0000
0001
0101
0001
0000
0010
,
0110
0000
0000
0010
0000
0000
1000
0000
0000
0100
0000
0000
0001
0000
0010
0000
0001
0000
0010
0000
0001
0000
0010
0000
,
0001
0011
0000
0100
0110
0010
0000
1000
,
1100
0100
0000
0010
0110
0100
0000
0001
,
1000
0000
0100
0010
0100
0000
1000
0000
0001
0000
0100
0010
0100
0000
0001
0000
,
1000
0000
0010
0100
0010
0000
1000
0000
0001
0000
0100
0000
0010
0000
1000
0000
,
0100
0000
0001
0010
0001
0000
0100
0000
0010
0000
1000
0010
1000
0000
0010
0000
,
0100
0000
0001
0000
0010
0000
0100
0000
1000
0001
1000
0001
0000
0000
0000
0000
,
0200
0000
0000
0310
0020
0000
0000
1030
,
1000
0000
0000
0000
0100
0000
0000
0000
0010
0000
0000
0000
0001
0000
0000
0000
0000
0000
0100
0000
0000
0000
0000
0000
0001
0000
0000
0000
0000
0000
0001
0000
0000
1000
0000
0000
0001
0000
0000
0000
0000
0000
0100
0000
0000
0000
0000
0000
,
0200
0000
0000
0310
0020
0000
0000
0030
,
1000
0100
0010
0001
1001
0000
0110
0000
,
0002
0000
0000
0100
0000
0000
0103
0000
0020
0000
0000
1000
0000
0000
1030
0000
,
0200
0000
0000
0010
0000
0000
0310
0000
2000
0000
0000
0100
0000
0000
3100
0000
,
0002
0000
0000
0100
0000
0000
0103
0000
0020
0000
0000
1000
0000
0000
1030
0000
,
0200
0000
0000
0010
0000
0000
0310
0000
0001
1000
0000
0001
1000
0000
0001
0100
,
0001
0000
0000
0001
0100
0000
0100
0000
0001
0000
0000
0001
1000
0000
1000
0000
,
0010
0000
0000
0010
1000
0000
1000
0000
0100
0000
0000
0100
0010
0000
0010
0000
,
1000
0000
0000
1000
0100
0000
0100
0000
0010
0000
0000
0010
0001
0000
0100
0000
,
0001
0010
0100
1000
1001
0000
0110
0000
,
1001
0000
0000
1000
0100
0000
0100
0000
0010
0000
0000
0010
0100
0000
0100
0000
,
0001
0000
0000
0001
0010
0000
0010
0000
0100
0000
0000
0100
1000
0000
1000
0000
,
0010
0000
0000
0010
0100
0000
0100
0000
0001
0000
0000
0001
0010
0000
0100
0000
,
0010
0100
1000
0010
0100
0010
1001
1001
,
1200
0000
0000
1300
0000
0000
0100
1000
0200
0000
0000
1300
0000
0000
0010
0000
,
0200
0000
0000
0301
0000
0000
0010
0001
0020
0000
0000
0031
0000
0000
0100
0000
,
0010
1000
0100
0010
0000
0101
0000
1010
,
0000
0001
0010
0100
1001
0000
0110
0000
,
0102
0000
0000
0103
0000
0000
0001
0100
0002
0000
0000
0103
0000
0000
1000
0000
,
0002
0000
0000
0103
0000
0000
0010
0100
0020
0000
0000
0130
0000
0000
0110
0000
,
1000
0100
0010
0001
0100
0010
0100
0001
,
0010
0100
1000
0010
0100
0000
0110
0000
,
2002
0000
0000
0000
,
3003
0000
0000
0000
;

//---------------dance-double - ----------------
#NOTES:
     dance-double:
     :
     Medium:
     8:
     0.419,0.439,0.203,0.663,0.027:
00000000
00000000
00000000
00000000
,
00000000
00000000
00000000
00000000
,
00000000
00000000
00000000
00000000
,
00000000
00000000
00000000
00000000
,
00000000
00000000
00000000
00000000
,
00020000
00030000
00200000
00300000
,
00002000
00003000
00020000
00030000
,
00000200
00000300
00000020
00000030
,
00002002
00000000
00000000
00000000
,
00000000
00000000
00000000
00003003
,
00000020
00000030
00000200
00000300
,
00000020
00000000
00000030
00000000
00001000
00000001
00001000
00000001
,
00002000
00000000
00003000
00001000
00000200
00000000
00000300
00000000
,
00000002
00000000
00000003
00000001
00000200
00000000
00000300
00000000
,
00000020
00000000
00000030
00000010
00002000
00000000
00003000
00000000
,
00000100
00000100
00001001
00000000
,
00002000
00000000
00003000
00001000
00020000
00000000
00030000
00000000
,
00002000
00000000
00003000
00001000
00200000
00000000
00300000
00000000
,
00020000
00000000
00030000
00010000
02000000
00000000
03000000
00000000
,
00100000
00100000
10010000
01000000
,
00200000
10300000
20000000
31000000
,
02000000
03010000
00200000
00301000
,
00020000
00030010
00000020
00000031
,
00000002
00000103
00000110
00000110
,
00000020
00001030
00000200
00010300
,
00002000
01003000
00200000
01300000
,
20000000
31000000
00200000
00310000
,
00200000
00301000
00011000
00011000
,
00010000
00001000
00010000
00000000
00010000
00000000
00000100
00000000
,
00001000
00000010
00001000
00000000
00000100
00000000
00010000
00000000
,
00001000
00100000
00001000
00000000
00100000
00000000
00010000
00000000
,
01000000
00100000
01000000
00000000
11000000
00000000
11000000
00000000
,
10000000
01000000
10000000
00000000
00100000
00000000
01000000
00000000
,
00010000
00100000
00010000
00000000
00001000
00000000
01000000
00000000
,
00010000
00100000
00010000
00000000
00100000
00000000
00001000
00000000
,
00010000
00000010
00010000
00000000
00000100
00000000
00001000
00000000
,
00000010
00000001
00000000
00000000
00000010
00000001
00000000
00000000
,
00000100
00001000
00000000
00000000
00000100
00001000
00000000
00000000
,
00010000
00001000
00000000
00000000
00010000
00001000
00000000
00000000
,
00001000
00100000
00002000
00003000
,
00100000
00010000
00000000
00000000
00100000
00010000
00000000
00000000
,
01000000
00100000
00000000
00000000
01000000
00100000
00000000
00000000
,
20000000
30000000
00020000
00030000
,
20000000
30000000
00020000
00030000
,
01000000
01000000
01000000
01000000
,
00100000
00010000
00100000
00010000
00200000
00000000
01300000
00000000
,
01100000
00000000
10010000
00000000
,
10000000
01000000
00100000
00000000
00000000
00000000
10010000
00000000
00000000
00000000
00000000
00000000
,
00200000
00300000
00002000
00003000
,
00010000
00001000
00010000
00001000
00020000
00000000
00030000
00000000
,
00020100
00030000
00001200
00000300
,
00001020
00000030
00000012
00000003
,
00000201
00000300
00002100
00003000
,
00020100
00000000
00000000
00000000
00030000
00000000
00000000
00000000
00010000
00000000
00000000
00001000
00000000
00000000
00010000
00000000
,
00002000
00000000
00000000
00013000
00020000
00000000
00000000
00130000
,
00200000
00000000
00000000
01300000
02000000
00000000
00000000
03010000
,
00020000
00000000
00000000
00030100
00000200
00000000
00000000
00000300
,
00000100
00000010
00001001
00000000
,
00000002
00000000
00000000
00000013
00000020
00000000
00000000
00000130
,
00000200
00000000
00000000
00001300
00002000
00000000
00000000
00003100
,
00000200
00000000
00000000
00010300
00020000
00000000
00000000
00030000
,
00010000
00001000
00100000
10010000
,
02000000
00000000
03000000
00100000
02000000
00000000
03000000
00000000
,
20000000
00000000
30000000
00010000
20000000
00000000
30000000
00000000
,
01000000
00100000
01000000
00100000
00000000
10000000
00000000
00010000
,
00000000
01000000
00000000
00100000
00100000
00000000
10010000
00000000
,
02000000
00000000
03000000
00100000
00020000
00000000
00030000
00000000
,
00020000
00000000
00000000
00000000
00030000
00000000
00001000
00000000
00020000
00000000
00000000
00000000
00031000
00000000
00000000
00010000
,
00000000
00000000
00001000
00000000
00000000
00010000
00000000
00000000
00001000
00000000
00000000
00010000
00000000
00000000
00001000
00000000
,
00010000
00010000
00001000
00001000
,
00022000
00000000
00000000
00000000
,
00033000
00000000
00000000
00000000
;

//---------------dance-double - ----------------
#NOTES:
     dance-double:
     :
     Easy:
     4:
     0.273,0.345,0.115,0.221,0.000:
00000000
00000000
00000000
00000000
,
00000000
00000000
00000000
00000000
,
00000000
00000000
00000000
00000000
,
00000000
00000000
00000000
00000000
,
00000000
00000000
00000000
00000000
,
00100000
00000000
10000000
00000000
,
00100000
00000000
00010000
00000000
,
00100000
00000000
00001000
00000000
,
00020000
00000000
00000000
00000000
,
00000000
00000000
00000000
00030000
,
00002000
00003000
00020000
00030000
,
00002000
00003000
00010000
00010000
,
00000100
00000000
00000010
00000000
,
00000001
00000000
00000100
00000000
,
00000010
00000000
00001000
00000000
,
00000100
00000100
00000100
00000000
,
00001000
00000000
00000100
00000000
,
00010000
00000000
00001000
00000000
,
00100000
00000000
00010000
00000000
,
01000000
00100000
01000000
00100000
,
02000000
03000000
00200000
00300000
,
20000000
30000000
00020000
00030000
,
02000000
03000000
00200000
00300000
,
00010000
00001000
00010000
00000000
,
00000200
00000300
00002000
00003000
,
00000020
00000030
00000002
00000003
,
00000200
00000300
00000020
00000030
,
00001000
00000100
00001000
00000000
,
00000100
00001000
00000100
00001000
,
00000010
00000001
00000010
00000001
,
00000100
00000010
00000100
00000010
,
00001000
00000100
00010000
00001000
,
00100000
00010000
00100000
00010000
,
01000000
10000000
01000000
10000000
,
00100000
01000000
00100000
01000000
,
00100000
00001000
00010000
00000100
,
00001000
00000000
00001000
00000000
,
00010000
00000000
00010000
00000000
,
00001000
00000000
00001000
00000000
,
00010000
00100000
01000000
10000000
,
01000000
00000000
01000000
00000000
,
00100000
00000000
00100000
00000000
,
00001000
00010000
00001000
00000000
,
00010000
00000100
00010000
00000000
,
00001000
00000100
00000010
00000001
,
00000010
00000100
00001000
00000000
,
00011000
00000000
00011000
00000000
,
00110000
00000000
01100000
00000000
,
00110000
00000000
00011000
00000000
,
00001100
00001100
00001100
00000000
,
00020000
00030000
00002000
00003000
,
00020000
00030000
00002000
00003000
,
00200000
00300000
00020000
00030000
,
02000000
03000000
00100000
00100000
,
10010000
00000000
01000000
00000000
,
00100000
00000000
00001000
00000000
,
00010000
00000000
00000100
00000000
,
00000010
00000100
00001001
00000000
,
00000010
00000000
00000100
00000000
,
00010000
00000000
00001000
00000000
,
00100000
00000000
01000000
00000000
,
10000000
01000000
00010000
10010000
,
00100000
00100000
10000000
10000000
,
01000000
01000000
00010000
00010000
,
00100000
00100000
00001000
00001000
,
00000100
00000100
00000001
00000001
,
00000010
00000010
00001000
00001000
,
00000100
00000100
00010000
00010000
,
00001000
00010000
00001000
00010000
,
00100000
00001000
00010000
00000100
,
00022000
00000000
00000000
00000000
,
00033000
00000000
00000000
00000000
;

//---------------dance-single - ----------------
#NOTES:
     dance-single:
     :
     Easy:
     4:
     0.278,0.344,0.221,0.239,0.000:
0000
0000
0000
0000
,
0000
0000
0000
0000
,
0000
0000
0000
0000
,
0000
0000
0000
0000
,
0000
0000
0000
0000
,
0020
0030
0002
0003
,
0200
0300
2000
3000
,
0020
0030
0200
0300
,
2002
0000
0000
0000
,
0000
0000
0000
3003
,
0020
0030
0200
0300
,
0020
0030
0100
0100
,
0001
0000
1001
0000
,
1000
0000
1001
0000
,
0010
0000
0110
0000
,
1000
0100
0001
0000
,
0100
0000
1001
0000
,
0010
0000
1001
0000
,
0100
0000
0110
0000
,
1000
0001
1000
0001
,
0200
0300
0010
0000
,
2000
3000
0001
0000
,
0002
0003
1000
0000
,
0010
0010
0020
0030
,
0200
0300
1001
0000
,
0020
0030
1001
0000
,
2000
3000
1001
0000
,
0002
0003
1001
0000
,
0100
0100
0100
0001
,
0010
0010
0010
0001
,
1000
1000
1000
0100
,
0010
0001
0010
1001
,
0010
0010
0010
1000
,
0100
0100
0100
0001
,
0010
0001
0010
1000
,
0010
0001
0100
1001
,
0010
0000
0010
0000
,
0100
0000
0100
0000
,
0010
0000
0010
0000
,
0100
0100
0100
0100
,
0001
0000
0001
0000
,
1000
0000
1000
0000
,
0010
0100
0010
0000
,
0100
0010
0100
0000
,
0001
0100
0001
0100
,
1000
0100
1000
0000
,
1001
0000
0010
0000
,
0110
0000
0100
0000
,
1001
0000
1000
0000
,
0100
0000
0011
0000
,
0110
0000
0110
0000
,
1001
0000
1001
0000
,
1000
0000
0100
0000
,
0001
0000
0010
0010
,
0010
0000
0001
0000
,
0100
0000
1000
0000
,
0010
0000
0100
0000
,
0001
1000
1001
0000
,
0100
0000
0001
0000
,
0010
0000
1000
0000
,
0020
0030
0200
0300
,
0001
1000
1001
1001
,
0010
0000
0200
0300
,
0100
0000
0020
0030
,
1000
0001
1000
0001
,
0100
0010
0100
0010
,
1000
0000
2000
3000
,
0001
0000
0002
0003
,
0100
0010
0100
0010
,
1000
0100
0010
0001
,
2002
0000
0000
3003
;

//---------------dance-single - ----------------
#NOTES:
     dance-single:
     :
     Medium:
     9:
     0.461,0.565,0.336,0.424,0.018:
0000
0000
0000
0000
,
0000
0000
0000
0000
,
0000
0000
0000
0000
,
0000
0000
0000
0000
,
0000
0000
0000
0000
,
2000
3000
0002
0003
,
2000
3000
0002
0003
,
0020
0030
0200
0300
,
2000
0000
0000
0000
,
0000
0000
0000
3000
,
1000
1000
0001
0001
,
0010
0010
0100
0110
,
0020
1030
0200
1300
,
0020
1030
0200
1300
,
0002
0013
2000
3100
,
0001
1000
0001
1000
0001
0000
0000
0000
,
0200
1300
0020
1030
,
0200
1300
0020
1030
,
0002
0013
2000
3100
,
0001
0001
0110
0110
,
1000
1000
1000
1000
,
0100
0010
0100
0000
0010
0100
0010
0000
,
0001
0001
1000
1000
,
0010
0100
0010
0000
0100
0010
0100
0000
,
0001
0001
1000
1001
,
0100
0100
0001
1001
,
0100
0110
0010
0110
,
0001
1001
1000
1001
,
0100
1000
0100
0000
0001
0000
1001
0000
,
0010
1000
0010
0000
1000
0000
1001
0000
,
0010
1000
0010
0000
0100
0000
0001
0000
,
0100
1000
0100
0000
0010
0000
1000
0000
,
0100
1000
0100
0000
1000
0000
1001
0000
,
0010
1000
0010
0000
0001
0000
1001
0000
,
0100
0010
0100
0000
1000
0000
1001
0000
,
0010
0100
0010
0000
0001
0000
1001
0000
,
0010
0001
0000
1000
0100
1000
0000
0001
,
1000
0001
0000
0100
0010
0100
0000
1000
,
0010
1000
0000
0001
0100
0001
0000
0001
,
1000
0000
1010
0000
0001
0001
0001
0000
,
1000
0001
0000
0010
0100
0010
0000
1000
,
0010
1000
0000
0001
0100
0001
0000
0000
,
0001
1000
0001
0000
1000
0001
1000
0000
,
0010
0100
0010
0000
0100
0010
0100
0000
,
0010
1000
0010
0000
0100
1000
0100
0000
,
0010
1000
0001
0100
0010
0100
0010
0000
,
0110
0000
1001
0000
,
0010
1000
0010
0000
0000
0000
0101
0000
0000
0000
0000
0000
,
1001
0000
0110
0000
,
0010
1000
0010
1000
0010
0000
0000
0000
,
0002
0000
0003
0001
2000
0000
3000
1000
,
0200
0000
0300
0100
0020
0000
0030
0010
,
0002
0000
0003
0001
2000
0000
3000
1000
,
0002
0000
0000
0000
0003
0000
0000
0000
0010
0100
0000
0010
0100
0000
0000
0000
,
0210
0000
0300
0001
0002
0000
0003
1000
,
2000
0000
3000
0100
0200
0000
0300
0010
,
0020
0000
0030
0001
0002
0000
0003
0000
,
0010
0100
0010
0100
0020
0000
0030
0000
,
1002
0000
0003
0100
0200
0000
0300
0010
,
0020
0000
0030
1000
2000
0000
3000
0001
,
0002
0000
0003
0100
0200
0000
0300
0000
,
0100
0010
0100
0010
0100
0000
1001
0000
,
0200
0000
0300
0100
0020
0000
0030
0010
,
2000
0000
3000
1000
0002
0000
0003
0000
,
1000
0001
1000
0001
0000
0100
0000
0010
,
0000
0100
0000
0010
0100
0000
0110
0000
,
2001
0000
3000
0010
0021
0000
0030
0001
,
1002
0000
0003
1000
1010
0000
0000
0000
,
0110
0110
1001
1001
,
0011
0110
1100
0110
,
2002
0000
0000
0000
,
3003
0000
0000
0000
;

//---------------dance-single - ----------------
#NOTES:
     dance-single:
     :
     Beginner:
     2:
     0.128,0.186,0.018,0.062,0.000:
0000
0000
0000
0000
,
0000
0000
0000
0000
,
0000
0000
0000
0000
,
0000
0000
0000
0000
,
0000
0000
0000
0000
,
0010
0000
0000
0000
,
0100
0000
0000
0000
,
0001
0000
1000
0000
,
0020
0000
0000
0000
,
0030
0000
0000
0000
,
0000
0000
0000
0000
,
0000
0000
0000
0000
,
0100
0000
0100
0000
,
0100
0000
0100
0000
,
0001
0000
0001
0000
,
1000
0000
0000
0000
,
0010
0000
0010
0000
,
0010
0000
0010
0000
,
1000
0000
1000
0000
,
0001
0000
0000
0000
,
0100
0000
0000
0000
,
0010
0000
0000
0000
,
1000
0000
0000
0000
,
0001
0000
0001
0000
,
0001
0000
0000
0000
,
0010
0000
0000
0000
,
0100
0000
0000
0000
,
1000
0000
1000
0000
,
1000
0000
0000
0000
,
0010
0000
0000
0000
,
0100
0000
0000
0000
,
0001
0000
0001
0000
,
0001
0000
0000
0000
,
0100
0000
0000
0000
,
0010
0000
0000
0000
,
1000
0000
1000
0000
,
1000
0000
0000
0000
,
0001
0000
0000
0000
,
1000
0000
0001
0000
,
1000
1000
1000
0000
,
0001
0000
1000
0000
,
0001
0000
0100
0000
,
1001
0000
0010
0000
,
0010
0000
0010
0000
,
0100
0000
0100
0000
,
0100
0100
0100
0000
,
0020
0000
0030
0000
,
0200
0000
0300
0000
,
0002
0000
0003
0000
,
1000
1000
1000
0000
,
0010
0000
0000
0000
,
0100
0000
0000
0000
,
0001
0000
0001
0000
,
0001
0000
0002
0003
,
0001
0000
0000
0000
,
1000
0000
0000
0000
,
0001
0000
0000
0000
,
1000
0000
1000
0000
,
0010
0000
0000
0000
,
0100
0000
0000
0000
,
0010
0000
0000
0000
,
0100
0000
0100
0000
,
0010
0000
0010
0000
,
0100
0000
0100
0000
,
0020
0000
0000
0030
,
0000
0000
0000
0000
,
1000
0000
1000
0000
,
0001
0000
0001
0000
,
0200
0000
0000
0300
,
0000
0000
0000
0000
,
1001
0000
0000
0000
;
