#TITLE:Heavenly;
#SUBTITLE:;
#ARTIST:Makou;
#TITLETRANSLIT:;
#SUBTITLETRANSLIT:;
#ARTISTTRANSLIT:;
#GENRE:;
#CREDIT:;
#BANNER:Heavenly.png;
#BACKGROUND:Heavenly-bg.png;
#LYRICSPATH:;
#CDTITLE:;
#MUSIC:Heavenly.ogg;
#OFFSET:-0.180000;
#SAMPLESTART:48.180000;
#SAMPLELENGTH:15.360001;
#SELECTABLE:YES;
#DISPLAYBPM:125.000000;
#BPMS:0.000000=124.999992
;
#STOPS:
;
#BGCHANGES:0.000=Heavenly.avi=1.000=0=0=1=====,
99999=-nosongbg-=1.000=0=0=0 // don't automatically add -songbackground-
;
#KEYSOUNDS:;
#ATTACKS:;

//---------------dance-single - ----------------
#NOTES:
     dance-single:
     :
     Hard:
     10:
     0.448781,0.455770,0.240331,0.077249,0.304705,366.000000,338.000000,28.000000,9.000000,0.000000,0.000000,0.448781,0.455770,0.240331,0.077249,0.304705,366.000000,338.000000,28.000000,9.000000,0.000000,0.000000:
0000
0000
0000
0000
,
0000
0000
0000
0000
,
0000
0000
0000
0000
,
0000
0000
0000
0000
,
0000
0000
0000
0000
,
1000
0000
0100
0000
1000
0000
0100
0000
1000
0100
0000
0100
0000
0000
0001
0000
,
0010
0000
0100
0000
0001
1000
0000
0000
0100
0000
0000
0000
1000
0000
0100
0000
,
0010
0000
0001
0000
0010
0000
0001
0000
0010
0100
0000
0100
0000
0000
0000
0000
,
0000
1000
0000
0000
0001
0000
0010
0000
0100
0010
0000
0010
0000
0000
0000
0000
,
0010
0100
0010
0100
0001
0000
1000
0000
,
0010
0000
0100
0000
1000
0100
0001
0000
,
0010
0000
0000
0001
0000
0000
0100
0000
0000
1000
0000
0000
0010
0000
0000
0000
,
0000
0000
0000
0000
1000
0000
0001
0000
0000
0100
0000
0000
0010
0000
0000
0000
,
0001
1000
0001
1000
0001
0000
0010
0000
,
0100
0000
1000
0000
0001
0100
1000
0000
,
0010
0000
0000
0100
0000
0000
1000
0000
0001
1000
0001
0000
0100
0000
0000
0001
,
0000
0000
0100
0000
0100
0000
0000
0000
0010
1000
0000
0010
0000
0000
0000
0000
,
0002
0100
0103
0000
0010
0000
2000
0001
,
3001
0000
0020
0000
2030
0000
3001
0100
,
0010
0100
0010
0000
1000
0100
0001
0000
,
0001
0010
0001
0010
0100
1000
0100
0000
,
0001
0100
1000
0100
0001
0000
0010
1000
,
0100
2002
3003
0010
,
1100
0000
0000
0000
0000
0000
0000
0000
0001
0100
0001
0000
0100
0000
0010
0100
,
0000
0000
0001
0000
0100
0000
0000
0000
1000
0010
0000
0010
0000
0000
0000
0000
,
0010
0000
0100
0000
0010
0000
0100
0000
0010
0100
0000
0100
0000
0000
0001
0000
,
0100
0000
0010
0000
1000
0100
0000
0000
0100
0000
0000
0000
1000
0000
0100
0000
,
0010
0000
0001
0000
0010
0000
0001
0000
0100
0010
0000
0010
0000
0000
0000
0000
,
0000
0001
0000
0000
1000
0000
0001
0000
1000
0100
0000
0100
0000
0000
0000
0000
,
0100
0000
0010
0000
0100
0000
0010
0000
0100
0010
0000
0010
0000
0000
1000
0000
,
0010
0000
0100
0000
0001
0010
0000
0000
0010
0000
0000
0000
0001
0000
0010
0000
,
0100
0000
1000
0000
0100
0000
1000
0000
0010
0100
0000
0100
0000
0000
0000
0000
,
0000
1000
0000
0000
0001
0000
1000
0000
0001
0010
0000
0010
0000
0000
0000
0000
,
0110
0000
1001
0000
0001
0010
1000
0000
,
0110
0000
1001
0000
1000
0100
0001
0000
,
1100
0000
0101
0000
0001
0100
0100
0000
,
0101
0000
1100
0000
1000
0100
0100
0000
,
0011
0000
1100
0001
0100
0001
0100
0000
,
1100
0000
0011
1000
0010
1000
0010
0000
,
1100
0101
1100
0101
,
1010
0011
1010
0011
,
1000
0100
1000
0100
0010
0001
0010
0001
,
0100
0000
0010
0000
0100
0000
0010
0000
0000
0000
0000
1000
0000
0001
0000
0000
,
1000
0000
0000
0000
0000
0100
1000
0000
0000
0001
0000
0000
1000
0000
0000
0000
0000
0100
1000
0000
0000
0010
0000
0000
,
0001
0000
0000
0000
0000
0100
0001
0000
0000
1000
0000
0000
0001
0000
0000
0000
0000
0100
0001
0000
0000
0010
0000
0000
,
1000
0000
0000
0000
0000
0100
1000
0000
0000
0000
0000
0010
0000
0000
0001
0000
0000
0100
0000
0000
0000
0000
0000
0000
,
0000
0000
0000
1000
0000
0000
0100
0000
0000
0000
0000
0000
0010
0000
0000
0000
0000
0000
0100
0000
0000
0000
0010
0000
0000
0000
0000
0000
0010
0000
0000
0000
0000
0000
0010
0000
0000
0000
0000
0000
0000
0000
0000
0000
0000
0000
0000
0000
,
0001
0000
0000
0000
0000
0010
0001
0000
0000
1000
0000
0000
0001
0000
0000
0000
0000
0010
0001
0000
0000
0100
0000
0000
,
1000
0000
0000
0000
0000
0010
1000
0000
0000
0001
0000
0000
1000
0000
0000
0000
0000
0010
1000
0000
0000
0100
0000
0000
,
0001
0000
0000
0000
0000
0010
0001
0000
0000
0000
0000
0100
0000
0000
1000
0000
0000
0010
0000
0000
0000
0000
0000
0000
,
0000
0000
0000
0001
0000
0000
0010
0000
0000
0000
0000
0000
0100
0000
0000
0000
0000
0000
0010
0000
0000
0000
0100
0000
0000
0000
0000
0000
0100
0000
0000
0000
0000
0000
0100
0000
0000
0000
0000
0000
0000
0000
0000
0000
0000
0000
0000
0000
,
2100
0000
0001
0001
3001
0000
0012
0000
,
1003
0000
0210
0000
0301
0010
0100
1000
,
0001
0000
0000
0000
0000
0000
1100
0000
0000
0000
0000
0001
0000
0000
0010
0000
0000
0100
0000
0000
0000
0000
0000
0000
,
0000
0000
1000
0001
0000
0000
0010
0000
0000
0100
0000
0010
0000
0000
0010
0000
0000
0010
0000
0000
0000
0000
0000
0000
,
1000
0001
0100
0010
1000
0000
0001
0100
,
1000
0000
0101
0000
1000
0100
0001
0000
,
1000
0010
1000
0000
0001
0000
0000
0000
0001
0010
0001
0000
1000
0000
0000
0000
,
1000
0100
0010
0001
1000
0100
0010
0001
,
1001
0000
0000
0000
;

//---------------dance-double - ----------------
#NOTES:
     dance-double:
     :
     Hard:
     10:
     0.427936,0.455770,0.291830,0.085832,0.248914,349.000000,315.000000,34.000000,10.000000,0.000000,0.000000,0.427936,0.455770,0.291830,0.085832,0.248914,349.000000,315.000000,34.000000,10.000000,0.000000,0.000000:
00000000
00000000
00000000
00000000
,
00000000
00000000
00000000
00000000
,
00000000
00000000
00000000
00000000
,
00000000
00000000
00000000
00000000
,
00000000
00000000
00000000
00000000
,
10000000
00000000
01000000
00000000
10000000
00000000
01000000
00000000
10000000
01000000
00000000
01000000
00000000
00000000
00100000
00000000
,
00010000
00000000
00001000
00000000
00000100
00001000
00000000
00000000
00000010
00000000
00000000
00000000
00000001
00000000
00000010
00000000
,
00000100
00000000
00001000
00000000
00000100
00000000
00001000
00000000
00000100
00000010
00000000
00000010
00000000
00000000
00000000
00000000
,
00000000
00000001
00000000
00000000
00001000
00000000
00000100
00000000
00000010
00000100
00000000
00000100
00000000
00000000
00000000
00000000
,
00000100
00000010
00000100
00000010
00001000
00000000
00010000
00000000
,
00100000
00000000
01000000
00000000
10000000
01000000
00010000
00000000
,
00100000
00000000
00000000
00010000
00000000
00000000
01000000
00000000
00000000
10000000
00000000
00000000
00100000
00000000
00000000
00000000
,
00000000
00000000
00000000
00000000
10000000
00000000
00010000
00000000
00000000
01000000
00000000
00000000
00100000
00000000
00000000
00000000
,
00100000
01000000
00100000
01000000
00010000
00000000
00001000
00000000
,
00000100
00000000
00000010
00000000
00000001
00000010
00001000
00000000
,
00000100
00000000
00000000
00001000
00000000
00000000
00000010
00000000
00000000
00000000
00000001
00000000
00000100
00000000
00000000
00000001
,
00000000
00000000
00000010
00000000
00000001
00000000
00000000
00000000
00000000
00001000
00000000
00000100
00000000
00000000
00000000
00000000
,
00020000
00001000
00031000
00000000
00100000
00000000
20000000
00010000
,
30010000
00000000
00200000
00000000
00320000
00000000
00030000
00000200
,
00001000
00000000
00001300
00000000
00001000
00000100
00000001
00000000
,
00000001
00000010
00000001
00000010
00000100
00001000
00000100
00000000
,
00010000
00000000
00010000
01000000
10000000
00000000
00100000
10000000
,
01000000
20020000
30030000
00100000
,
11000000
00000000
00000000
00000000
00000000
00000000
00000000
00000000
00010000
01000000
00010000
00000000
01000000
00000000
00100000
01000000
,
00000000
00000000
00010000
00000000
00001000
00000000
00000000
00000000
00000100
00000010
00000000
00000010
00000000
00000000
00000000
00000000
,
00000001
00000000
00000010
00000000
00000001
00000000
00000010
00000000
00000001
00000100
00000000
00000100
00000000
00000000
00000010
00000000
,
00001000
00000000
00000100
00000000
00000000
00001000
00000000
00000000
00000100
00000000
00000000
00000000
00000100
00000000
00001000
00000000
,
00010000
00000000
00100000
00000000
00010000
00000000
00010000
00000000
01000000
00100000
00000000
00100000
00000000
00000000
00000000
00000000
,
00000000
00010000
00000000
00000000
10000000
00000000
00010000
00000000
10000000
01000000
00000000
01000000
00000000
00000000
00000000
00000000
,
10000000
00000000
01000000
00000000
10000000
00000000
01000000
00000000
10000000
00100000
00000000
00100000
00000000
00000000
01000000
00000000
,
00010000
00000000
00100000
00000000
00000000
00010000
00000000
00000000
00100000
00000000
00000000
00000000
00100000
00000000
00010000
00000000
,
00001000
00000000
00000100
00000000
00001000
00000000
00001000
00000000
00000010
00000100
00000000
00000100
00000000
00000000
00000000
00000000
,
00000000
00001000
00000000
00000000
00000001
00000000
00001000
00000000
00000001
00000010
00000000
00000010
00000000
00000000
00000000
00000000
,
00000011
00000000
00000110
00000000
00001000
00010000
00100000
00000000
,
01100000
00000000
11000000
00000000
01000000
00100000
00010000
00000000
,
00001100
00000000
00000110
00000000
00000001
00000100
00001000
00000000
,
00000110
00000000
00000110
00000000
00001000
00010000
00100000
00000000
,
01100000
00000000
10010000
00000000
10000000
01000000
00010000
00000000
,
00011000
00000000
00001100
00000000
00000100
00000001
00001000
00000000
,
00001010
00001100
00011000
00110000
,
01100000
10100000
01100000
00110000
,
00100000
00010000
00100000
00010000
00001000
00000100
00001000
00000100
,
00000010
00000000
00001000
00000000
00000010
00000000
00001000
00000000
00010000
00000000
00000000
00001000
00000000
00010000
00000000
00000000
,
00100000
01000000
10000000
01000000
00100000
00000000
01100000
00000000
,
11000000
00000000
00110000
00000000
01000000
00100000
00010000
00000000
,
00001000
00000000
00000100
00000000
00000010
00000000
00000000
00000001
00000000
00000010
00000000
00000100
00000000
00000000
00000000
00000000
,
00000100
00000000
00010000
00000000
00001000
00000000
00000000
00100000
00000000
00010000
00000000
01000000
00000000
00000000
00000000
00000000
,
00100000
01000000
10000000
01000000
00100000
00000000
01100000
00000000
,
11000000
00000000
00110000
00000000
01000000
00100000
00010000
00000000
,
00001000
00000000
00000100
00000000
00000010
00000000
00000000
00000001
00000000
00000010
00000000
00000100
00000000
00000000
00000000
00000000
,
00000100
00000000
00010000
00000000
00001000
00000000
00000000
00100000
00000000
00010000
00000000
01000000
00000000
00000000
00000000
00000000
,
21000000
00000000
00010000
00010000
30010000
00000000
00120000
00000000
,
10030000
00000000
02010000
00000000
03001000
00000000
00010000
00001000
,
00000100
00000000
00000000
00000000
00000000
00000000
00000011
00000000
00000000
00000000
00000000
00001000
00000000
00000000
00000100
00000000
00000000
00000010
00000000
00000000
00000000
00000000
00000000
00000000
,
00000000
00000000
00000001
00001000
00000000
00000000
00000100
00000000
00000000
00000010
00000000
00000100
00000000
00000000
00000100
00000000
00000000
00000100
00000000
00000000
00000000
00000000
00000000
00000000
,
00000001
00001000
00000001
00001000
00000100
00000000
00010000
00000000
,
00001000
00000000
01010000
00000000
10000000
01000000
00010000
00000000
,
10000000
00100000
10000000
00000000
00010000
00000000
00000000
00000000
00010000
00100000
00010000
00000000
10000000
00000000
00000000
00000000
,
10000000
01000000
00100000
00010000
00001000
00000100
00000010
00000001
,
00001001
00000000
00000000
00000000
;

//---------------dance-single - ----------------
#NOTES:
     dance-single:
     :
     Beginner:
     2:
     0.136106,0.177244,0.000000,0.000000,0.000000,111.000000,111.000000,0.000000,0.000000,0.000000,0.000000,0.136106,0.177244,0.000000,0.000000,0.000000,111.000000,111.000000,0.000000,0.000000,0.000000,0.000000:
0000
0000
0000
0000
,
0000
0000
0000
0000
,
0000
0000
0000
0000
,
0000
0000
0000
0000
,
0000
0000
0000
0000
,
0010
0000
0000
0000
,
0001
0000
0000
0000
,
0100
0000
0000
0000
,
1000
0000
0000
0000
,
0010
0000
0010
0000
,
0010
0000
0000
0000
,
0100
0000
0100
0000
,
0100
0000
0000
0000
,
0010
0000
0010
0000
,
0010
0000
0000
0000
,
0100
0000
0100
0000
,
0100
0000
0000
0000
,
0001
0000
1000
0000
,
0000
0001
0001
0000
,
1000
0000
0000
0000
,
0010
0010
0010
0000
,
0100
0000
0100
0000
,
0100
0000
0000
0000
,
0001
0000
1000
0000
,
0001
0000
1000
0000
,
0010
0010
0010
0000
,
1000
0000
0001
0000
,
0010
0010
0010
0000
,
0001
0000
1000
0000
,
0100
0100
0100
0000
,
1000
0000
0001
0000
,
0100
0100
0100
0000
,
0001
0000
1000
0000
,
0010
0010
0000
0000
,
0100
0100
0000
0000
,
0010
0010
0000
0000
,
0100
0100
0000
0000
,
0001
0001
0000
0000
,
1000
1000
0000
0000
,
0010
0000
0010
0000
,
0010
0000
0010
0000
,
0010
0010
0010
0010
,
0010
0010
0000
0000
,
0100
0000
0010
0000
,
0100
0100
0000
0000
,
0001
0000
0001
0000
,
1000
1000
1000
0000
,
0010
0000
0100
0000
,
0010
0010
0000
0000
,
1000
0000
0001
0000
,
1000
1000
1000
0000
,
0001
0000
0100
0000
,
1000
0000
0100
0000
,
0001
0000
0010
0000
,
1000
0000
0010
0000
,
0001
0000
0001
0000
,
1000
1000
1000
0000
,
0100
0000
0100
0000
,
0010
0010
0010
0010
,
0010
0000
0000
0000
;

//---------------dance-single - ----------------
#NOTES:
     dance-single:
     :
     Medium:
     7:
     0.280795,0.430450,0.231748,0.197415,0.000000,229.000000,202.000000,27.000000,23.000000,0.000000,0.000000,0.280795,0.430450,0.231748,0.197415,0.000000,229.000000,202.000000,27.000000,23.000000,0.000000,0.000000:
0000
0000
0000
0000
,
0000
0000
0000
0000
,
0000
0000
0000
0000
,
0000
0000
0000
0000
,
0000
0000
0000
0000
,
0100
0100
0100
0000
0001
0000
1000
0000
,
0010
0100
1001
0000
,
0010
0010
0010
0000
1000
0000
0001
0000
,
0100
0010
1001
0000
,
0001
0010
0100
1000
,
0001
2002
0000
3003
,
0020
0030
2000
3000
,
0200
0300
0002
0003
,
1000
0100
0010
0001
,
1000
2002
0000
3003
,
0020
0030
0002
0003
,
0200
0300
2000
3000
,
0020
0030
1000
0002
,
0003
0100
0010
0000
,
1000
0001
1000
0001
,
0100
0010
0100
0010
,
0001
1000
0100
0010
,
0100
2002
0000
3003
,
0110
0000
0001
0000
,
1000
1000
1000
0000
,
0010
0010
0010
0000
1000
0000
0100
0000
,
0010
0010
0010
0000
0001
0000
0100
0000
,
1000
0000
0001
0000
0100
0100
0100
0000
,
0001
0000
1000
0000
0100
0100
0100
0000
,
1000
1000
1000
0000
0001
0000
0010
0000
,
0001
0001
0001
0000
1000
0000
0100
0000
,
1000
0010
1000
0000
0100
0000
0100
0000
,
0001
0100
0001
0000
0010
0000
0010
0000
,
1010
0101
0000
0000
,
1010
0101
0000
0000
,
0011
1100
0000
0000
,
0011
1100
0000
0000
,
0010
0100
1001
0000
0000
0000
0000
0000
,
0100
0010
1001
0000
0000
0000
0000
0000
,
0110
0110
0110
0110
,
1001
1001
1001
1001
,
1000
0001
1000
0001
1000
0001
1000
0001
,
1000
0001
1000
0001
0000
0000
0000
0000
,
0010
0010
0010
0000
1000
0000
0100
0000
,
0010
0002
0000
0003
,
0100
0000
0100
0000
0001
0100
0001
0000
,
0010
0000
0010
0000
1000
0100
1000
0000
,
0010
0010
0010
0000
0001
0000
0010
0000
,
0100
2000
0000
3000
,
0100
0000
0100
0000
1000
0100
1000
0000
,
0010
0000
0010
0000
0001
0100
0001
0000
,
2000
3000
0001
0100
,
0000
0001
1000
0100
,
0010
0000
0001
0000
1000
0100
1000
0000
,
0010
0000
1000
0000
0001
0100
0001
0000
,
1000
0100
1000
0100
1000
0000
0010
0000
,
0100
0000
0001
0000
0100
0010
0100
0000
,
2002
3003
0220
0330
,
1000
0100
0010
0001
,
1001
0000
0000
0000
;

//---------------dance-double - ----------------
#NOTES:
     dance-double:
     :
     Medium:
     8:
     0.307771,0.430450,0.223164,0.085832,0.000000,251.000000,225.000000,26.000000,10.000000,0.000000,0.000000,0.307771,0.430450,0.223164,0.085832,0.000000,251.000000,225.000000,26.000000,10.000000,0.000000,0.000000:
00000000
00000000
00000000
00000000
,
00000000
00000000
00000000
00000000
,
00000000
00000000
00000000
00000000
,
00000000
00000000
00000000
00000000
,
00000000
00000000
00000000
00000000
,
00100000
00000000
00100000
00000000
10000000
10000000
10000000
00000000
,
01000000
00100000
00010000
00001000
,
00000100
00000000
00000010
00000000
00000001
00000001
00000001
00000000
,
00000010
00001000
00000100
00010000
,
00100000
00000000
00100000
01000000
00100000
00000000
11000000
00000000
,
01010000
20020000
00000000
30030000
,
00100000
00001000
00000100
00001000
,
00100000
10000000
01000000
10000000
,
00100000
00000000
00001000
00001000
00001000
00000000
00010000
00000000
,
00000100
00002002
00000000
00003003
,
00000010
00000000
00001000
00000000
00000100
00000100
00000100
00000000
,
00010000
00000000
00001000
00000000
01000000
01000000
01000000
00000000
,
00200000
00300000
10000000
02000000
,
03000000
00010000
00100000
10000000
,
01000000
00000000
00100000
00000000
00010000
00001000
00010000
00000000
,
00001000
00000000
00000100
00000000
00000010
00000001
00000010
00000000
,
00000100
00000100
00000100
00000000
00001000
00000000
00000010
00000000
,
00010000
00022000
00000000
00033000
,
00001000
01000000
00100000
10000000
,
01000000
00100000
00010000
00001000
,
00000001
00000100
00000001
00000000
00000010
00000000
00000010
00000000
,
00001000
00000100
00001000
00000000
00000010
00000000
00000010
00000000
,
00000001
00001000
00000001
00000000
00000100
00000000
00000100
00000000
,
00001000
00000001
00001000
00000000
00000100
00000000
00010000
00000000
,
00010000
01000000
00010000
00000000
00100000
00000000
00100000
00000000
,
10000000
01000000
10000000
00000000
00100000
00000000
00100000
00000000
,
00010000
10000000
00010000
00000000
01000000
00000000
01000000
00000000
,
10000000
00010000
10000000
00000000
01000000
00000000
00010000
00000000
,
00011000
00011000
00000000
00000000
,
00000110
00001001
00000000
00000000
,
00011000
00011000
00000000
00000000
,
01100000
10010000
00000000
00000000
,
00011000
00011000
00000000
00000000
,
00000110
00001001
00000000
00000000
,
00011000
00011000
01010000
01010000
,
00011000
00011000
00001100
00001100
,
00010000
00001000
00010000
00001000
00100000
00010000
00100000
00010000
,
00001000
00010000
00001000
00010000
00000000
00000000
00000000
00000000
,
00000100
00001000
00000100
00001000
00000100
00000000
00000010
00000000
,
00000001
00000100
00000000
00000000
,
00001000
00000000
00010000
00000000
00100000
00010000
00100000
00000000
,
10000000
00000000
01000000
00000000
10000000
01000000
10000000
00000000
,
00100000
01000000
00100000
01000000
00100000
00000000
10000000
00000000
,
01000000
00010000
00000000
00000000
,
00001000
00000000
00010000
00000000
00000100
00000100
00000100
00000000
,
00000010
00000000
00000001
00000000
00000100
00000100
00000100
00000000
,
00002000
00003000
00010000
00200000
,
00300000
10000000
01000000
00010000
,
00001000
00000000
00000100
00000000
00000001
00000010
00000001
00000000
,
00000100
00000000
00001000
00000000
00010000
00100000
00010000
00000000
,
10000000
01000000
00100000
00010000
,
00001000
00000100
00000010
00000001
,
00000010
00001000
00000100
00010000
,
00100000
00010000
00100000
00010000
00001000
00010000
00001000
00000000
,
00011000
00000000
00000000
00000000
;

//---------------dance-double - ----------------
#NOTES:
     dance-double:
     :
     Easy:
     5:
     0.268533,0.455770,0.377663,0.051499,0.000000,219.000000,175.000000,44.000000,6.000000,0.000000,0.000000,0.268533,0.455770,0.377663,0.051499,0.000000,219.000000,175.000000,44.000000,6.000000,0.000000,0.000000:
// measure 0
00000000
00000000
00000000
00000000
,  // measure 1
00000000
00000000
00000000
00000000
,  // measure 2
00000000
00000000
00000000
00000000
,  // measure 3
00000000
00000000
00000000
00000000
,  // measure 4
00000000
00000000
00000000
00000000
,  // measure 5
00000000
00010000
00000000
00010000
,  // measure 6
00000000
00001000
00000000
00001000
,  // measure 7
00000000
00010000
00000000
00010000
,  // measure 8
00000000
00001000
00000000
00001000
,  // measure 9
00000010
00000001
00000100
00001000
,  // measure 10
00010000
00200000
00300000
10000000
,  // measure 11
01000000
00010000
01000000
00010000
,  // measure 12
00001000
00010000
00001000
00010000
,  // measure 13
00000100
00000001
00000010
00001000
,  // measure 14
00010000
00002000
00000000
00003000
,  // measure 15
00010000
01000000
00010000
01000000
,  // measure 16
10000000
01000000
10000000
10010000
,  // measure 17
00200000
00000000
00300000
00002000
,  // measure 18
00003000
00010000
00000200
00000300
,  // measure 19
00000001
00000010
00000100
00001000
,  // measure 20
00010000
00100000
01000000
00000000
,  // measure 21
10000000
00010000
10000000
01000000
,  // measure 22
00100000
00020000
00000000
00030000
,  // measure 23
00000100
00001000
00000010
00000001
,  // measure 24
00001000
00000100
00010000
00001000
,  // measure 25
00100000
00100000
10010000
00000000
,  // measure 26
01000000
01000000
10010000
00000000
,  // measure 27
10000000
10010000
00010000
00000000
,  // measure 28
00010000
00011000
00001000
00000000
,  // measure 29
00000010
00000010
00001001
00000000
,  // measure 30
00000100
00000100
00001001
00000000
,  // measure 31
00000001
00001001
00001000
00000000
,  // measure 32
00001000
00011000
00010000
00000000
,  // measure 33
01010000
01010000
00000000
00000000
,  // measure 34
00011000
00011000
00000000
00000000
,  // measure 35
00001100
00001100
00000000
00000000
,  // measure 36
00011000
00011000
00000000
00000000
,  // measure 37
01010000
00011000
00000000
00000000
,  // measure 38
00001100
00011000
00000000
00000000
,  // measure 39
01010000
01010000
00011000
00011000
,  // measure 40
00001100
00001100
00011000
00011000
,  // measure 41
01010000
00011000
00001100
00011000
,  // measure 42
01010000
00011000
00000000
00000000
,  // measure 43
00000010
00000010
00001001
00000110
,  // measure 44
00001000
00000110
00001001
00000000
,  // measure 45
00000100
00001000
00010000
00100000
,  // measure 46
10000000
01000000
00100000
00010000
,  // measure 47
00100000
00100000
10010000
01100000
,  // measure 48
10000000
01100000
10010000
00000000
,  // measure 49
00100000
00010000
00001000
00000100
,  // measure 50
00000010
00000001
00000010
00000100
,  // measure 51
00001000
00001000
00010000
00010000
,  // measure 52
00100000
10000000
01000000
00100000
,  // measure 53
00010000
00010000
00001000
00001000
,  // measure 54
00000010
00001000
00000100
00000010
,  // measure 55
00000001
00000001
00001000
00001000
,  // measure 56
00010000
00010000
10000000
10000000
,  // measure 57
01000000
00100000
00010000
00001000
,  // measure 58
00000001
00000010
00000100
00010000
,  // measure 59
00011000
00000000
00000000
00000000
;

//---------------dance-single - ----------------
#NOTES:
     dance-single:
     :
     Easy:
     5:
     0.240331,0.430450,0.240331,0.034333,0.000000,196.000000,168.000000,28.000000,4.000000,0.000000,0.000000,0.240331,0.430450,0.240331,0.034333,0.000000,196.000000,168.000000,28.000000,4.000000,0.000000,0.000000:
0000
0000
0000
0000
,
0000
0000
0000
0000
,
0000
0000
0000
0000
,
0000
0000
0000
0000
,
0000
0000
0000
0000
,
0000
1000
0000
1000
,
0000
0001
0000
0001
,
0000
0100
0000
0100
,
0000
0010
0000
0010
,
1000
1000
0001
0001
,
0100
0110
0000
0000
,
0001
0010
0100
1000
,
1000
0100
0010
0001
,
1000
1000
0001
0001
,
0100
0110
0000
0000
,
1000
0100
0010
0001
,
0001
0010
0100
1000
,
0001
0000
0100
1000
,
0000
1000
0010
0000
,
0010
0001
0100
0000
,
0010
1000
0100
0000
,
0001
0001
1000
1000
,
0010
0110
0000
0000
,
0110
0000
1001
0000
,
1000
0100
0010
0001
,
0100
0100
0100
0000
,
0010
0010
0010
0000
,
1000
0100
0001
0000
,
0001
0100
1000
0000
,
0010
0010
0010
0000
,
0100
0100
0100
0000
,
1000
0010
0001
0000
,
0001
0010
1000
0000
,
0110
1001
0000
0000
,
0110
1001
0000
0000
,
1001
0110
0000
0000
,
1001
0110
0000
0000
,
1001
1100
0000
0000
,
1001
0101
0000
0000
,
1001
1100
1001
0101
,
1001
0110
1001
0110
,
0010
0010
0010
0010
,
0010
0010
0010
0010
0000
0000
0000
0000
,
0100
1000
0010
0001
,
0100
2200
0000
3300
,
0010
1000
0100
0000
,
0010
0001
0100
0000
,
0010
1000
0100
0001
,
0010
0022
0000
0033
,
0100
1000
0010
0000
,
0100
0001
0010
0000
,
0100
0100
0100
0001
,
0010
0010
0010
1000
,
0100
0001
0010
1000
,
0100
1000
0010
0001
,
0010
0010
0010
1000
,
0010
0010
0010
0001
,
0010
1000
0100
0001
,
0010
0001
0100
1000
,
1001
0000
0000
0000
;
