#TITLE:焱影;
#SUBTITLE:;
#ARTIST:RoughSkreamZ feat. 楽天斎;
#TITLETRANSLIT:HIKAGE;
#SUBTITLETRANSLIT:;
#ARTISTTRANSLIT:RoughSkreamZ feat. Rakutensai;
#GENRE:;
#CREDIT:;
#MENUCOLOR:;
#METERTYPE:DDR;
#BANNER:Hikage.png;
#BACKGROUND:Hikage-jacket.png;
#LYRICSPATH:;
#CDTITLE:;
#MUSIC:Hikage.ogg;
#OFFSET:-0.123;
#SAMPLESTART:28.460;
#SAMPLELENGTH:12.430;
#SELECTABLE:YES;
#LISTSORT:;
#DISPLAYBPM:136.000;
#BPMS:0.000=136.000;
#STOPS:;
#BGCHANGES:0.000=Hikage.avi=1.000=0=0=0,
99999=-nosongbg-=1.000=0=0=0 // don't automatically add -songbackground-
;
#ATTACKS:;

//---------------dance-single - ----------------
#NOTES:
     dance-single:
     :
     Hard:
     14:
     0.709,0.873,0.418,0.385,0.665:
0000
0000
0000
0000
,
0000
0000
0000
0000
,
0001
0000
0000
0001
0000
0000
0001
0000
0000
0000
0010
0000
1000
0000
0100
0000
,
1000
0000
0000
1000
0000
0000
1000
0000
0000
0000
0100
0000
0001
0000
0010
0000
,
0100
0000
0000
0100
0000
0000
0100
0000
0000
0000
1000
0000
0100
0000
0001
0000
,
0010
0000
0000
0010
0000
0000
1000
0000
0000
0000
0001
0000
0100
0000
0010
0000
,
0100
0000
0000
1000
0000
0000
0001
0000
0000
0000
1000
0000
0010
0100
0010
0000
,
0001
0000
0000
0100
0000
0000
0001
0000
0000
0000
0010
0000
1000
0010
1000
0000
,
0010
0000
0000
0100
0000
0000
1000
0000
0000
0000
0100
0000
0001
0010
0001
0000
,
0100
0000
0000
0100
0000
0000
0001
0000
0000
0000
1000
0000
0001
0000
0000
0000
,
0000
1000
0100
1000
0100
1000
0000
0010
0100
0010
0000
0100
0001
0100
0001
0000
,
1000
0010
1000
0000
0010
1000
0000
0100
0001
0100
0001
0000
0100
0010
1000
0000
,
0100
0010
0000
0100
0010
0000
1000
0000
0001
0100
0000
0001
0000
0100
0000
0000
,
1000
0100
1000
0100
1000
0000
0010
0000
0001
0100
0001
0100
0001
0000
0010
0000
,
1000
0000
0010
0100
0010
0000
1000
0000
0001
0010
0100
0000
0001
0000
1000
0000
,
0100
0010
0100
0010
0100
0000
0001
0100
0001
0000
1000
0000
0100
0000
0010
0000
,
1000
0000
0100
1000
0100
1000
0100
0000
0001
0000
0100
0000
0001
0000
1000
0000
,
0001
0000
0100
0000
0010
1000
0010
1000
0000
0000
1001
0000
1001
0000
0000
0000
,
2200
0000
3300
0000
0202
0000
0303
0000
1000
0010
0100
0010
1000
0001
1000
0000
,
0202
0000
0303
0000
2020
0000
3030
0000
0001
0100
0001
1000
0001
1000
0010
0000
,
0110
0000
0110
0000
0110
0000
0000
0000
1000
0010
1000
0100
1000
0010
1000
0000
,
0001
0100
0001
0100
0010
0100
0010
1000
0000
0010
0000
1000
0100
1000
0100
0000
,
0022
0000
0033
0000
2200
0000
3300
0000
0001
0010
0001
0100
0001
0010
0001
0000
,
2200
0000
3300
0000
0022
0000
0033
0000
1000
0100
1000
0010
1000
0100
1000
0000
,
1001
0000
1001
0000
1001
0000
0000
0000
0010
0100
0001
0100
0010
0100
0010
0000
,
1000
0100
1000
0100
0010
0100
0010
1000
0000
0100
0000
0010
1000
0100
1000
0000
,
0100
0010
0100
0000
0001
1000
0001
0000
,
1000
0100
1000
0000
0001
0010
0001
0000
,
1000
0000
0001
0100
0001
0100
0010
0000
,
0100
0000
0100
0000
0100
0000
0100
0000
0001
1000
0001
1000
0000
0010
0100
0010
,
0100
0001
0000
0001
0000
1000
0010
0000
0100
0001
0100
0000
0010
0000
0000
0000
,
1000
0010
1000
0000
0001
0000
0100
0000
0001
0100
0001
0000
0010
0000
0100
0000
,
1100
0000
0000
1010
0000
0000
1010
0000
0100
0000
0000
0101
0000
0000
0101
0000
,
0001
0000
0000
0101
0000
0100
0001
0100
0000
0010
1000
0010
0200
0000
0000
0000
,
0302
0000
0000
0000
,
0203
0000
0000
0000
,
2300
0000
0000
0000
,
3020
0000
0000
0030
,
1000
0000
0000
1000
0000
0000
1000
0000
0000
0000
0010
0000
0100
0000
0010
0000
,
0001
0000
0000
0001
0000
0000
0001
0000
0000
0000
0100
0000
0010
0000
0100
0000
,
1100
0000
0000
1100
0000
0000
0100
0000
0101
0000
0000
0101
0000
0000
0001
0000
,
0100
0000
0010
0100
0010
0000
1000
0001
0000
1000
0001
0000
1000
0100
1000
0000
,
0002
0000
0010
0000
0010
0000
0013
0100
,
0010
0000
0000
1000
0000
0000
0002
0000
0000
0000
0203
0000
0000
0000
0310
0000
,
2000
0000
0000
3100
0000
0000
0010
0000
0200
0000
0000
0310
0000
0000
0001
0000
,
0200
0000
0010
0310
,
1000
0000
0000
0100
0000
0000
0001
0000
0000
0000
0100
0000
0010
0000
0100
0000
,
0001
0000
0000
0100
0000
0000
1000
0000
0000
0000
0010
0000
0100
0000
0010
0000
,
1000
0000
0000
0010
0000
0000
0001
0000
0000
0000
1000
0000
0100
0000
1000
0000
,
2002
0000
0000
3003
,
0110
0000
0000
0101
0000
0000
1010
0000
0000
0000
0010
0100
0010
0100
0010
0000
,
1010
0000
0000
0110
0000
0000
0101
0000
0000
0000
0010
1000
0010
1000
0010
0000
,
0101
0000
0000
0110
0000
0000
1010
0000
0000
0000
0001
0010
0001
0010
0001
0000
,
0100
0010
0100
0010
0000
1000
0100
0000
1000
0010
0100
0010
0100
0000
0000
0000
,
0022
0000
0033
0000
2020
0000
3030
0000
0001
0100
0010
0100
0001
1000
0001
0000
,
2020
0000
3030
0000
0202
0000
0303
0000
1000
0010
1000
0001
1000
0001
0100
0000
,
0110
0000
0110
0000
0110
0000
0000
0000
0001
0100
0001
0010
0001
0100
0001
0000
,
1000
0010
1000
0010
0100
0010
0100
0001
0000
0100
0000
0001
0010
0001
0010
0000
,
2200
0000
3300
0000
0022
0000
0033
0000
1000
0100
1000
0010
1000
0100
1000
0000
,
0022
0000
0033
0000
2200
0000
3300
0000
0001
0010
0001
0100
0001
0010
0001
0000
,
1001
0000
1001
0000
1001
0000
0000
0000
0100
0010
1000
0010
0100
0010
0100
0000
,
0001
0010
0001
0010
0100
0010
0100
0001
0000
0010
0000
0100
0001
0010
0001
0000
,
1000
0000
0000
0010
1000
0000
0010
0000
0100
0000
0001
0001
0100
0000
0001
0000
,
0100
0000
0000
0010
0100
0000
0010
0000
1000
0000
0001
0001
1000
0000
0001
0000
,
0100
0000
0000
0010
0100
0000
0010
0000
1000
0100
1000
0100
0010
0001
0010
0001
,
0200
0300
0000
0000
;

//---------------dance-double - ----------------
#NOTES:
     dance-double:
     :
     Hard:
     14:
     0.616,0.682,0.393,0.385,0.418:
00000000
00000000
00000000
00000000
,
00000000
00000000
00000000
00000000
,
00010000
00000000
00000000
00010000
00000000
00000000
00010000
00000000
00000000
00000000
00000010
00000000
00001000
00000000
00000100
00000000
,
00000001
00000000
00000000
00000001
00000000
00000000
00000001
00000000
00000000
00000000
00000010
00000000
00001000
00000000
00000100
00000000
,
00000010
00000000
00000000
00000010
00000000
00000000
00000010
00000000
00000000
00000000
00000001
00000000
00000100
00000000
00000010
00000000
,
00010000
00000000
00000000
00010000
00000000
00000000
00000100
00000000
00000000
00000000
00010000
00000000
00001000
00000000
00100000
00000000
,
00010000
00000000
00000000
00100000
00000000
00000000
00010000
00000000
00000000
00000000
01000000
00000000
00100000
00000000
00001000
00000000
,
00010000
00000000
00000000
00001000
00000000
00000000
00010000
00000000
00000000
00000000
00001000
00000000
00100000
00000000
00010000
00000000
,
01000000
00000000
00000000
01000000
00000000
00000000
10000000
00000000
00000000
00000000
00010000
00000000
01000000
00000000
00010000
00000000
,
01000000
00000000
00000000
01000000
00000000
00000000
00010000
00000000
00000000
00000000
00100000
00000000
00010000
00000000
00000000
00000000
,
00000000
00100000
00001000
00100000
00001000
00100000
00000000
00001000
00010000
00001000
00000000
00010000
00000010
00010000
00000010
00000000
,
00000100
00000001
00000100
00000000
00001000
00000001
00000000
00001000
00000100
00001000
00000100
00000000
00010000
00000100
00010000
00000000
,
00001000
00100000
00000000
00001000
00100000
00000000
01000000
00000000
00010000
01000000
00000000
00010000
00000000
01000000
00000000
00000000
,
10000000
00100000
10000000
00100000
10000000
00000000
01000000
00000000
00010000
00100000
00010000
00100000
00010000
00000000
00100000
00000000
,
00001000
00000000
00010000
00001000
00010000
00000000
00010000
00000000
00000100
00000000
00010000
00000000
00001000
00000000
00100000
00000000
,
00001000
00010000
00001000
00010000
00001000
00000000
00010000
00000000
00000010
00000000
00001000
00000000
00000010
00000000
00000100
00000000
,
00000001
00000000
00000010
00000001
00000010
00000001
00000010
00000000
00001000
00000000
00000010
00000000
00001000
00000000
00000001
00000000
,
00000010
00000000
00001000
00000000
00000100
00000000
00010000
00001000
00000000
00000000
00011000
00000000
00011000
00000000
00000000
00000000
,
00220000
00330000
02020000
03030000
10000000
01000000
00100000
00000000
,
02020000
03030000
20200000
30300000
01000000
00100000
00010000
00000000
,
00110000
00110000
00110000
00000000
00100000
00001000
00010000
00000000
,
00010000
00000000
00000100
00000000
00001000
00000010
00000000
00000100
00000000
00000010
00000000
00000100
00000000
00000010
00001000
00000000
,
00002200
00003300
00000220
00000330
00000001
00000010
00000100
00000000
,
00000220
00000330
00002200
00003300
00000100
00010000
00001000
00000000
,
00011000
00011000
00011000
00000000
00001000
00100000
00010000
01000000
,
00100000
00000000
10000000
00000000
01000000
00100000
01000000
00100000
00000000
10000000
00000000
00010000
01000000
00010000
01000000
00000000
,
01000000
00100000
01000000
00000000
00010000
10000000
00010000
00000000
,
00100000
00010000
00100000
00000000
00001000
00010000
00001000
00000000
,
00000100
00000000
00010000
00001000
00010000
00001000
00100000
00000000
,
00010000
00000000
00010000
00000000
00010000
00000000
00010000
00000000
00001000
00010000
00001000
00010000
00001000
00000000
00010000
00000000
,
00000100
00010000
00000000
00001000
00000000
00010000
00000100
00000000
00001000
00000000
00100000
00000000
00010000
00000000
00000000
00000000
,
01000000
00010000
01000000
00000000
00100000
00000000
00000000
00000000
00001000
00010000
00001000
00000000
00010000
00000000
00000100
00000000
,
00001000
00000000
00000000
00001100
00000000
00000000
00001100
00000000
00000010
00000000
00000000
00000110
00000000
00000000
00000110
00000000
,
00000001
00000000
00000000
00000101
00000000
00000100
00000001
00000100
00000000
00000010
00001000
00000010
00000200
00000000
00000000
00000000
,
00000302
00000000
00000000
00000000
,
00000203
00000000
00000000
00000000
,
00000320
00000000
00000000
00000000
,
00020030
00000000
00000000
00030000
,
00001000
00000000
00000000
00001000
00000000
00000000
00001000
00000000
00000000
00000000
00001000
00000000
01000000
00000000
00010000
00000000
,
01000000
00000000
00000000
01000000
00000000
00000000
01000000
00000000
00000000
00000000
10000000
00000000
00100000
00000000
01000000
00000000
,
11000000
00000000
00000000
11000000
00000000
00000000
01000000
00000000
01010000
00000000
00000000
01010000
00000000
00000000
00010000
00000000
,
01000000
00000000
00100000
01000000
00100000
00000000
00010000
00100000
00000000
00010000
00100000
00000000
00001000
00000000
00010000
00000000
,
00002000
00000000
00010000
00000000
00013000
00000000
00010000
00000100
,
00002000
00000000
00000000
00010000
00000000
00000000
00020000
00000000
00000000
00000000
00033000
00000000
00000000
00000000
00010000
00000000
,
00000200
00000000
00000000
00000000
00000000
00000000
00000000
00000000
00000300
00001000
00000000
00000000
00000000
00000000
00000000
00000000
00000000
00000000
00000100
00000000
00000000
00000000
00000000
00000000
00000020
00000000
00000000
00000000
00000000
00000000
00000000
00000000
00000000
00000130
00000000
00000000
00000000
00000000
00000000
00000000
00000000
00000000
00001000
00000000
00000000
00000000
00000000
00000000
,
00000020
00000000
00000100
00000130
,
00000001
00000000
00000000
00000010
00000000
00000000
00001000
00000000
00000000
00000000
00000100
00000000
00001000
00000000
00000100
00000000
,
00001000
00000000
00000000
00000100
00000000
00000000
00010000
00000000
00000000
00000000
00001000
00000000
00100000
00000000
00001000
00000000
,
00010000
00000000
00000000
00001000
00000000
00000000
01000000
00000000
00000000
00000000
00010000
00000000
00100000
00000000
00010000
00000000
,
20020000
00000000
00000000
30030000
,
01100000
00000000
00000000
01010000
00000000
00000000
10100000
00000000
00000000
00000000
01000000
00000000
00100000
00000000
00010000
00000000
,
00110000
00000000
00000000
00101000
00000000
00000000
00011000
00000000
00000000
00000000
00010000
00000000
00010000
00000000
00010000
00000000
,
00011000
00000000
00000000
00001000
00000000
00000000
00000100
00000000
00000001
00000000
00000000
00000001
00000000
00000000
00000100
00000000
,
00000010
00001000
00000010
00001000
00000000
00000100
00010000
00000000
00001000
00100000
00001000
00100000
00001000
00000000
00000000
00000000
,
00220000
00330000
02020000
03030000
10000000
01000000
00100000
00000000
,
02020000
03030000
20200000
30300000
01000000
00100000
00010000
00000000
,
00110000
00110000
00110000
00000000
00100000
00001000
00010000
00000000
,
00010000
00000000
00000100
00000000
00001000
00000010
00000000
00000100
00000000
00000010
00000000
00000100
00000000
00000010
00001000
00000000
,
00002200
00003300
00000220
00000330
00000001
00000010
00000100
00000000
,
00000220
00000330
00002200
00003300
00000100
00010000
00001000
00000000
,
00011000
00011000
00011000
00000000
00001000
00100000
00010000
01000000
,
00100000
00000000
10000000
00000000
01000000
00100000
01000000
00100000
00000000
10000000
00000000
00010000
01000000
00010000
01000000
00000000
,
10000000
00000000
00000000
00100000
10000000
00000000
00100000
00000000
01000000
00000000
00010000
00010000
01000000
00000000
00010000
00000000
,
00100000
00000000
00000000
00001000
00100000
00000000
00001000
00000000
00010000
00000000
00000100
00000100
00010000
00000000
00001000
00000000
,
00100000
00000000
00000000
00001000
00100000
00000000
00010000
00000000
00100000
01000000
00100000
01000000
00010000
10000000
00010000
10000000
,
02000000
03000000
00000000
00000000
;

//---------------dance-double - ----------------
#NOTES:
     dance-double:
     :
     Medium:
     9:
     0.422,0.409,0.117,0.334,0.142:
00000000
00000000
00000000
00000000
,
00000000
00000000
00000000
00000000
,
00000010
00000000
00000000
00000010
00000000
00000000
00000010
00000000
00000000
00000000
00000010
00000000
00000000
00000000
00000100
00000000
,
00010000
00000000
00000000
00010000
00000000
00000000
00010000
00000000
00000000
00000000
00001000
00000000
00000000
00000000
00010000
00000000
,
00100000
00000000
00000000
00100000
00000000
00000000
00100000
00000000
00000000
00000000
10000000
00000000
00000000
00000000
01000000
00000000
,
10000000
00000000
00000000
10000000
00000000
00000000
10000000
00000000
00000000
00000000
00200000
00000000
00000000
00000000
00300000
00000000
,
01000000
00000000
00000000
01000000
00000000
00000000
01000000
00000000
00000000
00000000
00100000
00000000
00000000
00000000
00001000
00000000
,
00010000
00000000
00000000
00010000
00000000
00000000
00010000
00000000
00000000
00000000
00001000
00000000
00000000
00000000
00000010
00000000
,
00000100
00000000
00000000
00000100
00000000
00000000
00000100
00000000
00000000
00000000
00001000
00000000
00000000
00000000
00000100
00000000
,
00000001
00000000
00000000
00000001
00000000
00000000
00000001
00000000
00000000
00000000
00000020
00000000
00000000
00000000
00000030
00000000
,
00000000
00000001
00001000
00000001
00001000
00000100
00001000
00000000
,
00000100
00010000
00010000
00000000
00001000
01000000
01000000
00000000
,
00010000
01000000
00010000
01000000
00100000
10000000
00100000
00000000
,
01000000
01000000
01000000
00000000
00100000
00100000
00100000
00000000
,
00100000
10000000
00100000
00000000
01000000
00010000
01000000
00000000
,
00001000
00010000
00001000
00000000
00010000
00000100
00000100
00000000
,
00010000
00000000
00000100
00000000
00010000
00000100
00010000
00000100
,
00001000
00000000
00000000
00000000
00000010
00000000
00000000
00000100
00000000
00000000
00000001
00000000
00001001
00000000
00000000
00000000
,
00000020
00000000
00000130
00000000
00000001
00000010
00000100
00000000
,
00002000
00000000
00003100
00000000
00000100
00010000
00001000
00000000
,
00020000
00000000
00031000
00000000
00100000
00010000
00100000
00000000
,
00010000
01000000
00100000
00000000
10000000
00000000
01000000
00100000
,
20000000
00000000
30100000
00000000
01000000
00100000
00010000
00000000
,
00200000
00000000
00301000
00000000
00010000
00001000
00010000
00000000
,
00000200
00000000
00001300
00000000
00001000
00000010
00001000
00000000
,
00000001
00000100
00000010
00000000
00000010
00000000
00000010
00001000
,
00000200
00000000
00001300
00000100
,
00002000
00000000
00003100
00010000
,
00002000
00000000
00013000
00001000
,
00010000
00000000
00000000
00010000
00000000
00000000
01000000
00000000
10000000
00000000
00000000
10000000
00000000
00000000
01000000
00000000
,
00010000
00000000
00000000
00100000
00000000
00000000
00010000
00000000
00000000
00100000
00000000
00000000
00001000
00000000
00010000
00000000
,
00000100
00000000
00000000
00010000
00000000
00000000
00000100
00000000
00000000
00010000
00000000
00000000
00000010
00000000
00000100
00000000
,
00000010
00000000
00000000
00001000
00000000
00000000
00001000
00000000
00000100
00000000
00000000
00010000
00000000
00000000
00010000
00000000
,
00001000
00000000
00100000
00000000
00001000
00000000
00000000
00100000
00000000
00100000
00000000
00000000
00110000
00000000
00000000
00000000
,
02000000
00000000
00000000
00000000
,
23000000
00000000
00000000
00000000
,
30200000
00000000
00000000
00010000
,
00320000
00000000
00000000
00000000
00000000
00000000
00000000
00000000
01030000
00000000
00000000
00100000
00000000
00000000
00010000
00000000
,
00100000
00000000
00000000
00100000
00000000
00000000
00100000
00000000
00000000
00000000
00000000
00000000
00000000
00000000
00000000
00000000
,
00001000
00000000
00000000
00001000
00000000
00000000
00001000
00000000
00000000
00000000
00000000
00000000
00000000
00000000
00000000
00000000
,
00011000
00000000
00000000
00010000
00000000
00000000
00010000
00000000
00001000
00000000
00000000
00001000
00000000
00000000
00001000
00000000
,
00010000
00000000
00000100
00000000
00001000
00000000
00000000
00000010
00000000
00000100
00000000
00000000
00001001
00000000
00000000
00000000
,
00000020
00000000
00000000
00000000
00000000
00000000
00000030
00001000
,
00000200
00000000
00000300
00020000
00000000
00032000
00000000
00013000
,
00002000
00000000
00003000
00100000
00020000
00000000
00030000
01000000
,
00200000
00000000
20000000
00000000
00000000
30300000
00000000
00000000
,
02000000
00000000
03100000
00000000
20000000
00100000
30100000
00000000
,
02000000
00000000
03010000
00000000
00200000
00001000
00301000
00000000
,
00020000
00032000
00023000
00030200
,
00002000
00000000
00000000
00003300
,
00000110
00000000
00000000
00000010
00000000
00000000
00000010
00000000
00000000
00000000
00000000
00000000
00001100
00000000
00000000
00000000
,
00011000
00000000
00000000
00001000
00000000
00000000
00001000
00000000
00000000
00000000
00000000
00000000
01001000
00000000
00000000
00000000
,
10100000
00000000
00000000
00100000
00000000
00000000
00100000
00000000
00000000
00000000
00000000
00000000
01100000
00000000
00000000
00000000
,
11000000
00000000
01010000
00000000
00100000
00010000
00110000
00000000
,
02000000
00000000
03100000
00000000
10000000
01000000
00100000
00000000
,
00020000
00000000
00130000
00000000
00100000
00001000
00010000
00000000
,
00002000
00000000
00013000
00000000
00000100
00001000
00000100
00000000
,
00001000
00000010
00000100
00000000
00000001
00000000
00000010
00000100
,
00000002
00000000
00000103
00000000
00000010
00000100
00001000
00000000
,
00000200
00000000
00010300
00000000
00001000
00010000
00001000
00000000
,
00200000
00000000
00310000
00000000
00010000
01000000
00010000
00000000
,
10000000
00100000
01000000
00000000
01000000
00000000
01000000
00010000
,
00100000
00000000
00000000
00010000
00000000
00000000
10000000
00000000
00000000
00000000
10000000
00010000
00000000
00000000
10000000
00000000
,
00100000
00000000
00000000
01000000
00000000
00000000
01000000
00000000
00000000
00000000
00100000
01000000
00000000
00000000
00100000
00000000
,
00001000
00000000
00000000
00010000
00000000
00000000
00001000
00000000
00010000
00000000
00010000
00000000
00001000
00000000
00001000
00000000
,
00022000
00033000
00000000
00000000
;

//---------------dance-single - ----------------
#NOTES:
     dance-single:
     :
     Medium:
     9:
     0.422,0.409,0.150,0.351,0.138: // measure 1
0000
0000
0000
0000
,  // measure 2
0000
0000
0000
0000
,  // measure 3
0010
0000
0000
0010
0000
0000
0010
0000
0000
0000
1000
0000
0000
0000
0100
0000
,  // measure 4
0001
0000
0000
0001
0000
0000
0001
0000
0000
0000
1000
0000
0000
0000
0100
0000
,  // measure 5
0010
0000
0000
0010
0000
0000
0010
0000
0000
0000
0001
0000
0000
0000
0010
0000
,  // measure 6
1000
0000
0000
1000
0000
0000
1000
0000
0000
0000
0020
0000
0000
0000
0030
0000
,  // measure 7
0001
0000
0000
0001
0000
0000
0001
0000
0000
0000
0010
0000
0000
0000
1000
0000
,  // measure 8
0100
0000
0000
0100
0000
0000
0100
0000
0000
0000
0010
0000
0000
0000
1000
0000
,  // measure 9
0001
0000
0000
0001
0000
0000
0001
0000
0000
0000
0100
0000
0000
0000
0001
0000
,  // measure 10
0010
0000
0000
0010
0000
0000
0010
0000
0000
0000
0002
0000
0000
0000
0003
0000
,  // measure 11
0000
0100
0010
0100
0010
1000
0010
0000
,  // measure 12
0100
0010
0100
0000
1000
0100
1000
0000
,  // measure 13
0001
0100
0001
0100
0010
1000
0010
0000
,  // measure 14
0100
0100
0100
0000
0010
0010
0010
0000
,  // measure 15
0010
1000
0010
0000
0100
0001
0100
0000
,  // measure 16
1000
0001
1000
0000
0001
0100
0001
0000
,  // measure 17
0010
0100
0010
0000
0001
1000
0001
1000
,  // measure 18
0010
0000
0100
0000
0010
0000
0000
0100
0000
0000
0000
0000
1001
0000
0000
0000
,  // measure 19
2000
0000
3002
0000
0013
0010
0010
0000
,  // measure 20
0002
0000
2003
0000
3010
0010
0010
0000
,  // measure 21
1000
0001
1000
0000
0010
0100
0010
0000
,  // measure 22
0001
0100
0010
0000
0100
0000
1000
0010
,  // measure 23
0200
0000
0320
0000
1030
1000
1000
0000
,  // measure 24
0020
0000
0230
0000
0301
0001
0001
0000
,  // measure 25
1000
0010
1000
0000
0001
0100
0001
0000
,  // measure 26
0010
0100
0010
0000
1001
0000
0100
0010
,  // measure 27
0200
0000
0000
0310
,  // measure 28
2000
0000
3002
0000
,  // measure 29
0203
0000
0301
0000
,  // measure 30
0001
0000
0000
0001
0000
0000
0100
0000
1000
0000
0000
1000
0000
0000
0100
0000
,  // measure 31
0001
0000
0000
0010
0000
0000
0001
0000
0000
0000
0000
0000
0010
0000
0000
0000
,  // measure 32
1000
0000
0000
0001
0000
0000
1000
0000
0000
0000
0000
0000
0010
0000
0000
0000
,  // measure 33
0100
0000
0000
0110
0000
0000
0000
0000
0010
0000
0000
0110
0000
0000
0000
0000
,  // measure 34
1000
0000
0010
1000
0000
0000
0000
0010
0000
0010
0000
0000
1001
0000
0000
0000
,  // measure 35
0200
0000
0000
0000
,  // measure 36
0320
0000
0000
0000
,  // measure 37
2030
0000
0000
0001
,  // measure 38
3002
0000
0000
0000
0000
0000
0000
0000
0103
0000
0000
0010
0000
0000
0001
0000
,  // measure 39
0010
0000
0000
0010
0000
0000
0010
0000
0000
0000
0000
0000
0000
0000
0000
0000
,  // measure 40
1000
0000
0000
1000
0000
0000
1000
0000
0000
0000
0000
0000
0000
0000
0000
0000
,  // measure 41
0001
0000
0000
0001
0000
0000
0001
0000
1000
0000
0000
1000
0000
0000
1000
0000
,  // measure 42
0001
0100
0010
1000
,  // measure 43
0200
0000
0000
0000
0000
0000
0300
0010
,  // measure 44
2000
0000
0000
3002
0000
0103
0000
0001
,  // measure 45
0020
0000
0030
0100
0002
0000
0003
0100
,  // measure 46
0020
0000
2000
0000
0000
3030
0000
0000
,  // measure 47
0200
0000
0310
0000
2000
0010
3010
0000
,  // measure 48
0200
0000
0301
0000
0020
0100
0130
0000
,  // measure 49
0002
0103
0020
1030
,  // measure 50
2002
0000
0000
3003
,  // measure 51
0110
0000
0000
0100
0000
0000
0100
0000
0000
0000
0000
0000
1000
0000
0000
0000
,  // measure 52
1001
0000
0000
0001
0000
0000
0001
0000
0000
0000
0000
0000
0100
0000
0000
0000
,  // measure 53
1010
0000
0000
0010
0000
0000
0010
0000
0000
0000
0000
0000
0110
0000
0000
0000
,  // measure 54
1100
0000
0101
0000
0010
0001
0011
0000
,  // measure 55
0020
0000
0230
0000
0310
0010
0010
0000
,  // measure 56
0200
0000
0320
0000
0130
0100
0100
0000
,  // measure 57
0010
0001
0010
0000
1000
0100
1000
0000
,  // measure 58
0001
0100
0010
0000
0100
0000
1000
0010
,  // measure 59
2000
0000
3002
0000
1003
1000
1000
0000
,  // measure 60
0002
0000
2003
0000
3001
0001
0001
0000
,  // measure 61
1000
1000
1000
0000
0001
0001
0001
0000
,  // measure 62
0010
0100
0010
0000
1001
0000
0100
0010
,  // measure 63
0010
0000
0000
0010
0000
0000
0010
0000
0000
0000
1000
0001
0000
0000
1001
0000
,  // measure 64
0000
0000
0000
0100
0000
0000
0100
0000
0000
0000
0001
1000
0000
0000
0110
0000
,  // measure 65
0000
0000
0000
1001
0000
0000
1001
0000
0100
0000
0010
0000
0100
0010
0100
0010
,  // measure 66
0200
0300
0000
0000
;

//---------------dance-single - ----------------
#NOTES:
     dance-single:
     :
     Easy:
     5:
     0.388,0.436,0.502,0.359,0.000:
0000
0000
0000
0000
,
0000
0000
0000
0000
,
0010
0100
0010
1001
,
0100
0010
0100
1001
,
0010
1000
0100
1001
,
0010
0001
0100
1001
,
0010
0011
0100
1010
,
1000
1100
0010
0101
,
0001
0110
1000
0110
,
1000
1100
0001
0011
,
0100
0100
0100
0000
0010
0000
1001
0000
,
0010
1100
0010
0101
,
0010
0010
0010
0000
1100
0000
1001
0000
,
0010
0100
0010
0000
0100
0010
0100
0000
,
0001
0000
1001
0000
1000
0001
1000
0000
,
1000
0000
1001
0000
0001
1000
0001
0000
,
1000
0001
0100
0001
,
0010
0200
0300
1001
,
0200
0020
0330
0000
,
0020
0200
0330
0000
,
1000
0001
1000
0000
0010
0000
0010
0000
,
0001
0100
2000
3001
,
0002
2000
3003
0000
,
2000
0002
3003
0000
,
0010
0100
0010
0000
1000
0000
0100
0000
,
0001
0010
2000
3100
,
0020
0000
0000
0030
,
0002
0000
0000
0003
,
0200
0000
0300
0000
,
0010
0010
0010
1001
,
0200
0000
0301
1000
,
0020
0000
1030
0001
,
0100
1010
0100
0011
,
1010
1100
0011
0110
,
1001
0000
0010
0001
,
0100
1000
0010
0001
,
0100
1000
0010
0001
,
0100
1000
0010
0001
,
2001
0000
0000
0000
,
3020
0000
0000
0030
,
0110
0110
1001
1001
,
1100
0010
0001
0110
,
0002
0000
0003
1000
,
0020
0030
0200
0300
,
0002
0003
2000
3000
,
0020
0000
0000
0030
,
1000
0100
0001
0010
,
0001
0100
1000
0010
,
1100
0100
0101
0100
,
0011
0010
1010
0010
,
0220
0330
1000
0001
,
2002
3003
1000
0100
,
0022
0033
0001
0100
,
1010
0110
0101
1001
,
2000
3002
0103
0100
,
0002
2003
3010
0010
,
2000
3200
0301
0001
,
0110
1001
1100
0101
,
0020
0230
0301
1000
,
0200
0320
1030
0001
,
1100
0011
0100
1001
,
0011
1100
0110
1001
,
0200
0010
0010
0010
,
0010
0010
0010
0010
,
0010
0310
1100
0011
,
2002
3003
0000
0000
;

//---------------dance-single - ----------------
#NOTES:
     dance-single:
     :
     Beginner:
     3:
     0.192,0.273,0.134,0.259,0.000:
0000
0000
0000
0000
,
0000
0000
0000
0000
,
0010
0000
0000
0000
,
0010
0000
0000
0000
,
0100
0000
0000
0000
,
0100
0000
0000
0000
,
0001
0000
0000
0000
,
0001
0000
0000
0000
,
1000
0000
0000
0000
,
1000
0000
0000
0000
,
0000
0010
0010
0010
,
0000
0100
0000
0010
,
0000
1000
1000
1000
,
0000
0001
0000
1000
,
0000
0010
0010
0010
,
0000
0100
0100
0100
,
0000
0001
0001
0001
,
0001
0001
0000
0010
,
0010
0010
0000
0000
,
0100
0100
0000
0000
,
0001
0001
0000
0000
,
1000
1000
1000
0000
,
0001
0002
0003
0000
,
1000
2000
3000
0000
,
0010
0020
0030
0000
,
0100
0100
0100
0000
,
0002
0000
0003
0000
,
2000
0000
3000
0000
,
0020
0000
0030
0000
,
0200
0000
0300
0000
,
1001
0000
0000
0000
,
0110
0000
0000
0000
,
1001
0000
1001
0000
,
0110
0000
0110
0000
,
2002
0000
0000
0000
,
3003
0000
0000
0000
,
0020
0000
0030
0000
,
0200
0000
0300
0000
,
0002
0000
0003
0000
,
2000
0000
3000
0000
,
0010
0000
0010
0000
,
2002
0000
3003
0000
,
0020
0000
0030
0000
,
0100
0000
0100
0000
,
0001
0000
0001
0000
,
2000
0000
3000
0000
,
0001
0000
0001
0000
,
1000
0000
1000
0000
,
0010
0000
0010
0000
,
0100
0000
0100
0000
,
2002
0000
3003
0000
,
0220
0000
0330
0000
,
2002
0000
3003
0000
,
0110
0110
0000
0000
,
1000
2000
3000
0000
,
0001
0002
0003
0000
,
0010
0020
0030
0000
,
0100
0100
0100
0000
,
0001
0002
0003
0000
,
1000
2000
3000
0000
,
0010
0020
0030
0000
,
1001
1001
0000
0000
,
0010
0010
0010
0010
,
0010
0010
0010
0010
,
0010
0010
0010
0000
,
2002
3003
0000
0000
;

//---------------dance-double - ----------------
#NOTES:
     dance-double:
     :
     Easy:
     5:
     0.373,0.464,0.401,0.368,0.000:
00000000
00000000
00000000
00000000
,
00000000
00000000
00000000
00000000
,
00100000
00001000
00100000
00010000
,
00000100
00010000
00000100
00001000
,
00000010
00001000
00000100
00001001
,
00000010
00000001
00000100
00001000
,
00000100
00010000
00001000
01000000
,
00100000
10000000
00100000
01000000
,
00010000
00100000
01000000
01100000
,
10000000
11000000
00010000
00110000
,
01000000
01000000
01000000
00000000
00100000
00000000
00010000
00000000
,
00100000
00001000
00010000
00000010
,
00000100
00000100
00000100
00000000
00001100
00000000
00001001
00000000
,
00000010
00000100
00000010
00000000
00001000
00000100
00001000
00000000
,
00001100
00000100
00010000
00001000
,
00100000
00110000
01000000
11000000
,
10000000
00010000
01000000
00010000
,
00100000
00002000
00003000
00010000
,
00002000
00200000
00303000
00000000
,
00020000
00000200
00030300
00000000
,
00000100
00000100
00000100
00000000
00001000
00000000
00001000
00000000
,
00010000
01000000
20000000
30010000
,
00020000
02000000
03030000
00000000
,
00020000
00000200
00030300
00000000
,
00001000
00010000
00001000
00000000
00010000
00000000
00001000
00000000
,
00100000
00010000
20000000
31000000
,
00200000
00000000
00000000
00300000
,
00020000
00000000
00000000
00030000
,
00000200
00000000
00000300
00000000
,
00001000
00010000
00100000
10010000
,
02000000
00000000
03010000
00100000
,
00002000
00003000
00010000
00000100
,
00001000
00000010
00000001
00000010
,
00001010
00001100
00000011
00000110
,
00001001
00000000
00000100
00001000
,
00010000
00100000
10000000
01000000
,
00010000
00100000
00001000
00010000
,
00000100
00000001
00000010
00001000
,
00012000
00000000
00000000
00000000
,
00203000
00000000
00000000
00300000
,
01100000
01100000
10010000
10010000
,
11000000
00100000
00010000
00011000
,
00002000
00000000
00003000
00000010
,
00000200
00000300
00020000
00030000
,
00002000
00003000
00020000
00030000
,
00200000
00000000
00000000
00300000
,
10000000
01000000
00010000
00100000
,
00010000
00000100
00001000
00000010
,
00001100
00001000
00011000
00010000
,
00110000
00100000
10100000
00100000
,
02200000
03300000
10000000
00010000
,
00220000
00330000
00100000
00010000
,
00002200
00003300
00010000
00000100
,
00001010
00000110
00000101
00001001
,
00000010
00000200
00000301
00000001
,
00000200
00020300
00031000
00001000
,
00020000
02030000
03010000
00010000
,
01100000
10010000
11000000
01010000
,
00200000
02300000
03010000
00001000
,
00020000
00030200
00010300
00001000
,
00000110
00001010
00000110
00000011
,
00000110
00001100
00110000
00010100
,
00002000
00100000
00100000
00103000
,
00200000
00010000
00010000
00310000
,
00002000
00013000
00110000
00010100
,
00022000
00033000
00000000
00000000
;
