#TITLE:HADES;
#SUBTITLE:;
#ARTIST:Massive New Krew;
#TITLETRANSLIT:;
#SUBTITLETRANSLIT:;
#ARTISTTRANSLIT:;
#GENRE:;
#CREDIT:;
#BANNER:HADES.png;
#BACKGROUND:HADES-bg.png;
#LYRICSPATH:;
#CDTITLE:;
#MUSIC:HADES.ogg;
#OFFSET:-0.044000;
#SAMPLESTART:83.622002;
#SAMPLELENGTH:10.000000;
#SELECTABLE:YES;
#DISPLAYBPM:155.000000;
#BPMS:0.000000=155.000000
;
#STOPS:55.666668=1.548000
;
#BGCHANGES:0.000=HADES.avi=1.000=0=0=0=StretchNoLoop====,
99999=-nosongbg-=1.000=0=0=0 // don't automatically add -songbackground-
;
#KEYSOUNDS:;
#ATTACKS:;

//---------------dance-single - ----------------
#NOTES:
     dance-single:
     :
     Hard:
     14:
     0.661297,0.707374,0.417958,0.189264,0.484989,587.000000,534.000000,53.000000,24.000000,0.000000,0.000000,0.661297,0.707374,0.417958,0.189264,0.484989,587.000000,534.000000,53.000000,24.000000,0.000000,0.000000:
0000
0000
0000
0000
,
0000
0000
0000
0000
,
0000
0000
0000
0000
,
0000
0000
0000
0000
,
0000
0000
0000
0000
,
0000
0000
0000
0000
,
0010
0000
0000
0010
0000
0000
0001
0000
0100
0000
0000
0100
0000
0000
1000
0000
,
0010
0000
0000
0100
0000
0000
2002
0000
0000
0000
0000
0000
0000
3003
0000
0000
,
1000
0000
0000
0100
0000
0000
0001
0000
2002
0000
0000
0000
0000
0000
3003
0000
,
0010
0000
0100
0010
0000
0100
0020
0000
0100
0000
0000
0100
0030
0000
0010
0000
,
1001
0000
0000
1000
0000
0000
1000
0000
1001
0000
0000
0001
0000
0000
0001
0000
,
0101
0000
0000
0100
0000
0000
0100
0000
0110
0000
0000
0010
0000
0000
0010
0000
,
1010
0100
0000
1000
1100
0100
0000
0100
,
0101
0000
0000
0100
0000
0000
1100
0000
0000
1000
0000
0000
1001
0000
0010
0000
0100
0000
1000
0000
0100
0000
0010
0000
,
0001
0010
0100
0000
2002
0000
3003
0000
,
1100
0000
0000
0001
0000
0100
0001
0000
0100
0000
0010
0000
0100
0000
0010
0000
,
0100
0000
0000
0010
0000
1000
0010
0000
0100
0000
0001
0000
0100
0000
0001
0000
,
1000
0000
0000
0010
0000
1000
0010
0000
0100
0000
0001
0000
0100
0000
0010
0000
,
0100
0000
0000
0001
0000
1000
0001
0000
0000
0000
0020
0000
0000
0000
0230
0000
,
0000
0000
0000
0301
0000
0000
0010
0000
1000
0000
0100
0000
0010
0000
0001
0000
,
1000
0000
0000
0010
0000
0010
0100
0000
0001
0000
0010
0000
0100
0000
1000
0000
,
0001
0000
0000
0001
0000
1000
0001
0000
1000
0000
0100
0000
0010
0000
0001
0000
,
0001
0000
0001
0100
0000
0100
0020
0000
0000
0000
0000
0000
0130
0000
0000
0000
,
1001
0000
0000
0000
0000
0000
0010
0000
0010
0100
0010
0000
0000
0000
1000
0000
,
0001
0100
0001
0100
0010
1000
0010
1000
0001
0000
0010
0000
0100
0000
1000
0000
,
0010
0000
0100
0100
0110
0100
0000
0001
,
0000
1000
0100
1000
1001
0001
0100
0001
,
0100
0010
0100
0100
0110
0100
0000
0100
,
0010
0001
1000
1000
0001
0100
0020
0000
,
0130
0100
0010
0010
0001
0010
0100
1000
,
0000
0010
0010
0010
1000
0100
1001
0000
,
0110
0000
0000
0001
1000
0001
1000
0000
0110
0000
0000
0000
1001
0000
0000
0000
,
1000
0000
1000
0010
0000
0010
0200
0000
0000
0000
0000
0300
0010
0000
0000
0000
,
2002
0000
0000
3003
,
1100
1010
0101
0011
,
1001
0000
0000
0000
1000
0000
0001
0100
0001
0000
0000
0000
1000
0000
0001
0100
,
0001
0000
0000
0000
0010
0000
0000
0000
1000
0000
0001
0100
0001
0000
1000
0100
,
1000
0000
0000
0010
0100
0000
0001
0100
0001
0000
0000
0000
0100
0000
0001
0000
,
1000
0000
0000
0000
0000
0000
0100
0000
0000
0001
0000
0000
0100
0000
0000
0000
0000
0000
0010
0000
0000
0000
0000
0000
0010
0000
0000
0000
0000
0000
1000
0000
0000
0010
0000
0000
1000
0000
0000
0000
0000
0000
0001
0000
0100
0000
0001
0000
,
0100
0000
0000
0001
0100
0000
0010
0000
0100
0000
0000
1000
0010
0000
0100
0000
,
0010
0000
0000
0001
0100
0000
0010
0000
0100
0001
0100
0001
0100
0000
1000
0010
,
1000
0000
0000
1000
0001
0000
1000
0000
0100
0000
0010
1000
0010
0000
0100
0000
,
0001
0000
0001
0100
0000
0100
0020
0000
0000
0000
0000
0000
1030
0000
0000
0000
,
1100
0101
1100
0101
,
1000
0100
0010
0100
0010
0001
0010
0100
,
1000
0101
1100
0101
,
0001
0010
0100
1000
0010
0100
1000
0001
,
1001
1000
0100
0100
0010
0010
0001
0001
,
1001
0001
0010
0010
0100
0100
1000
1000
,
0001
0010
0100
1000
0001
0010
0100
1000
,
0001
0100
0001
0100
0010
0100
0010
1000
0010
1000
0100
1000
,
0100
0100
0100
0110
,
1001
0001
0001
0000
0110
0000
1001
0000
,
1001
0000
1000
0000
1000
0000
0000
0000
1001
0000
0000
0000
0001
0000
0100
0001
,
0100
0000
0000
0010
0000
0000
0110
0000
0000
0000
1001
0000
0100
0010
0100
0010
,
0100
0000
0000
0010
0100
0000
0001
0100
0001
0000
0000
0000
1000
0000
0010
0000
,
0100
0000
0000
0001
1000
0000
0010
0000
0100
0001
0100
0001
0100
0000
0010
0100
,
0010
0000
0100
0001
0100
0000
0010
0000
1000
0000
0000
1000
0100
0000
0010
0000
,
0001
0000
0000
0001
0100
0000
0010
0000
2000
0000
0001
0000
3001
0000
0100
0010
,
0100
0000
0100
0001
0100
0000
0000
0000
1000
0000
1000
0010
1000
0000
0100
0000
,
0010
0000
1000
0001
0000
1000
0002
0000
0000
0000
0000
0000
0103
0000
0000
0000
,
1000
0000
0000
0001
0000
0000
0100
0010
0100
0000
0000
0001
0000
0000
1000
0010
,
1000
0000
0100
0010
0100
0000
0010
0000
0000
0000
0001
0000
0010
1000
0010
1000
,
0010
0000
0000
0100
1000
0000
0001
0100
0001
0000
0000
0010
0100
0000
1000
0000
,
0100
0000
0000
0001
0000
0000
1000
0000
0010
0100
0010
0100
0010
0000
0001
0100
,
0010
0000
1000
0001
1000
0000
0010
0000
0100
0000
0001
1000
0001
0000
0010
0000
,
1000
0000
0100
1000
0000
0100
2000
0000
0000
0000
3010
0000
0100
0001
0100
0001
,
0100
0000
0000
0010
1000
0000
0100
0000
0001
0000
0000
0010
0100
0000
1000
0000
,
0001
0000
0100
0010
0000
0100
0020
0000
0000
0000
0100
0000
0100
0000
0130
0000
,
0001
0000
1000
0000
0010
0100
0000
0010
0100
0000
0001
0000
1000
0100
1000
0000
,
0001
0100
0001
0000
0100
0001
0100
0000
0020
0000
1030
0000
0020
0000
1030
0000
,
0100
0010
0000
0001
0000
0010
0100
0000
0010
0000
1000
0100
1000
0000
0010
0000
,
0100
0000
0001
0100
0001
0000
0010
0000
1000
0001
1000
0001
1000
0000
0000
0000
,
1001
1000
1000
1000
0110
0010
0010
0010
,
1100
0100
0100
0100
0011
0010
0010
0010
,
1001
0110
1001
0110
,
0010
0000
1000
0010
0000
0100
0002
0000
0000
0000
0000
0000
1003
0000
0000
0000
,
2002
0000
0000
0000
,
3003
0000
0000
0000
;

//---------------dance-single - ----------------
#NOTES:
     dance-single:
     :
     Beginner:
     4:
     0.172365,0.212528,0.070974,0.039430,0.000000,153.000000,144.000000,9.000000,5.000000,0.000000,0.000000,0.172365,0.212528,0.070974,0.039430,0.000000,153.000000,144.000000,9.000000,5.000000,0.000000,0.000000:
0000
0000
0000
0000
,
0000
0000
0000
0000
,
0000
0000
0000
0000
,
0000
0000
0000
0000
,
0000
0000
0000
0000
,
0000
0000
0000
0000
,
0010
0000
0001
0000
,
0100
0000
1000
0000
,
0010
0000
0000
0000
,
0100
0000
0100
0000
,
1001
0000
0001
0000
,
0010
0000
0010
0000
,
0100
0000
0100
0000
,
1000
1000
1000
1000
,
0000
0000
0000
0000
,
0010
0000
0010
0010
,
0010
0000
0001
0001
,
0001
0000
0100
0100
,
0100
0000
1000
0000
,
0010
0000
1000
1000
,
1000
0000
0100
0100
,
0100
0000
0010
0000
,
2002
0000
3003
0000
,
0110
0000
0000
0000
,
0010
0010
0010
0000
,
0100
0000
0100
0000
,
0000
0000
0001
0000
,
0000
0000
0010
0000
,
0000
0000
1000
1000
,
0000
0000
0001
0000
,
0000
0000
0100
0100
,
0100
0000
0100
0000
,
0200
0000
0300
0000
,
1001
0000
0000
0000
,
0010
0010
0010
0000
,
0001
0000
0100
0000
,
2000
0000
3000
0000
,
1000
0000
0100
0000
,
0010
0000
0001
0000
,
0001
0000
0010
0000
,
0100
0000
1000
0000
,
0010
0000
0010
0000
,
0200
0000
0300
0000
,
1001
0000
0000
0000
,
0000
0000
0000
0000
,
0110
0000
0000
0000
,
0000
0000
0000
0000
,
0001
0000
0001
0000
,
1000
0000
1000
0000
,
0010
0000
0010
0000
,
0100
0100
0100
0100
,
0000
0000
0000
0000
,
0010
0010
0010
0000
,
0001
0000
0100
0000
,
0001
0001
0001
0000
,
1000
0000
0100
0000
,
1000
1000
1000
0000
,
0010
0000
0100
0000
,
0010
0010
0010
0000
,
0100
0000
0010
0000
,
0100
0100
0100
0000
,
0001
0000
1000
0000
,
0010
0010
0010
0000
,
1000
0000
0001
0000
,
0100
0100
0100
0000
,
0001
0000
0010
0000
,
1000
1000
1000
0000
,
0100
0000
1000
0000
,
0001
0001
0001
0000
,
0010
0000
0010
0000
,
0100
0000
0100
0000
,
0010
0000
0010
0000
,
1001
0000
1001
0000
,
0010
0000
0100
0000
,
1000
0000
0001
0000
,
0010
0010
0010
0010
,
0010
0000
0000
0000
,
1001
0000
0000
0000
;

//---------------dance-double - ----------------
#NOTES:
     dance-double:
     :
     Hard:
     14:
     0.573425,0.676619,0.670310,0.252352,0.279953,509.000000,424.000000,85.000000,32.000000,0.000000,0.000000,0.573425,0.676619,0.670310,0.252352,0.279953,509.000000,424.000000,85.000000,32.000000,0.000000,0.000000:
// measure 0
00000000
00000000
00000000
00000000
,  // measure 1
00000000
00000000
00000000
00000000
,  // measure 2
00000000
00000000
00000000
00000000
,  // measure 3
00000000
00000000
00000000
00000000
,  // measure 4
00000000
00000000
00000000
00000000
,  // measure 5
00000000
00000000
00000000
00000000
,  // measure 6
00100000
00000000
00000000
00100000
00000000
00000000
00001000
00000000
00010000
00000000
00000000
00010000
00000000
00000000
00000100
00000000
,  // measure 7
00000010
00000000
00000000
00000001
00000000
00000000
00000200
00000000
00000000
00000000
00000000
00000000
00000310
00000000
00000000
00000000
,  // measure 8
00000010
00000000
00000000
00000100
00000000
00000000
00001000
00000000
00020000
00000000
00000000
00000000
00030000
00000000
00000000
00000000
,  // measure 9
00100000
00000000
00000000
00100000
00000000
00000000
00200000
00000000
01000000
00000000
00000000
01000000
00000000
00000000
01300000
00000000
,  // measure 10
10010000
01000000
00110000
00001000
,  // measure 11
00000011
00000100
00011000
00100000
,  // measure 12
11000000
00100000
00011000
00000010
,  // measure 13
00000101
00001100
00101000
10010000
,  // measure 14
00000010
00000001
00000100
00000000
00002002
00000000
00003003
00000000
,  // measure 15
00000010
00000000
00000000
00000100
00000000
00000000
00010000
00000000
00001000
00000000
01000000
00000000
00010000
00000000
10000000
00000000
,  // measure 16
01000000
00000000
00000000
00010000
00000000
00000000
00100000
00000000
00001000
00000000
00010000
00000000
00000100
00000000
00000010
00000000
,  // measure 17
00001000
00000000
00000000
00000100
00000000
00000010
00000001
00000000
00000100
00000000
00001000
00000000
00000010
00000000
00010000
00000000
,  // measure 18
00001000
00000000
00000000
01000000
00000000
00100000
00010000
00000000
00000000
00000000
20000000
00000000
00000000
00000000
30200000
00000000
,  // measure 19
00000000
00000000
00000000
01300000
00000000
00000000
00010000
00000000
10000000
00000000
01000000
00000000
00100000
00000000
00001000
00000000
,  // measure 20
00010000
00000000
00000000
00000100
00000000
00000000
00000001
00000000
00000010
00000000
00000100
00000000
00010000
00000000
00001000
00000000
,  // measure 21
01000000
00000000
00000000
00010000
00000000
00000000
10000000
00000000
00100000
00000000
01000000
00000000
00001000
00000000
00010000
00000000
,  // measure 22
00000010
00000000
00000000
00000100
00000000
00000000
00002002
00000000
00000000
00000000
00000000
00000000
00003003
00000000
00000000
00000000
,  // measure 23
00001100
00000000
00000000
00000000
00010000
00000000
00000000
00000000
01000000
10000000
01000000
00000000
00000000
00000000
10000000
00000000
,  // measure 24
01000000
00010000
00001000
00000100
00000001
00000010
00000100
00001000
,  // measure 25
00000100
00000000
00000100
00001000
00011000
00010000
00000000
01000000
,  // measure 26
00000000
00010000
10000000
00100000
01100000
01000000
01000000
00000000
,  // measure 27
00001000
00000000
00010000
00000010
00010000
00000010
00000000
00000100
,  // measure 28
00000001
00001000
00000100
00000010
00000001
00000010
00000100
00001000
,  // measure 29
00000100
00000000
00010000
00001000
01000000
00010000
00000000
00000000
,  // measure 30
10000000
01000000
00100000
00000000
00001000
00000100
00000001
00000000
,  // measure 31
00001001
00000000
00000000
00000010
00000000
00000000
00000100
00000000
00000000
00001000
00000000
00000000
00011000
00000000
00000000
00000000
,  // measure 32
00010000
00000000
00000000
01000000
00000000
00000000
20020000
00000000
00000000
00000000
00000000
00000000
30030000
00000000
00000000
00000000
,  // measure 33
02200000
00000000
00000000
03300000
,  // measure 34
11000000
00011000
00001100
00000101
,  // measure 35
00001001
00000100
00000100
00000100
,  // measure 36
00011000
00000000
00000000
00000000
00010000
00000000
00000000
00000000
00010000
00000000
00001000
01000000
00001000
00000000
00010000
01000000
,  // measure 37
00010000
00000000
00000000
00100000
00000000
00000000
01000000
00000000
20000000
00000000
00000000
00000000
30100000
00000000
00000000
00000000
,  // measure 38
01000000
00000000
00000000
00100000
00000000
00000000
00001000
00000000
00010000
00000000
00001000
00010000
00001000
00000000
00010000
00000100
,  // measure 39
00010000
00000000
00000000
00000010
00000000
00000000
00001000
00000000
00000001
00000000
00000000
00001000
00000000
00000000
00000100
00000000
,  // measure 40
00010000
00000000
00000000
00001000
00000000
00000000
01000000
00000000
00100000
10000000
00100000
10000000
00100000
00000000
01000000
00000000
,  // measure 41
00001000
00000000
00000000
00010000
00000000
00000000
00000100
00000000
00001000
00000000
00000000
00000001
00000000
00000000
00001000
00000000
,  // measure 42
00000100
00000000
00000000
00010000
00000000
00000000
00002000
00000000
00000000
00000000
00000000
00000000
00013000
00000000
00000000
00000000
,  // measure 43
00001001
00011000
10010000
11000000
,  // measure 44
10000000
01000000
00100000
00000000
00010000
00000010
00001000
00000000
,  // measure 45
00001001
00001100
00101000
10010000
,  // measure 46
10000000
00100000
01000000
00000000
00001000
00010000
00000010
00000000
,  // measure 47
00001001
00001010
00001100
00011000
,  // measure 48
01010000
00110000
10010000
01100000
,  // measure 49
10000000
01000000
00100000
00010000
00001000
00000100
00000010
00000001
,  // measure 50
00000001
00000010
00000100
00001000
00010000
00100000
01000000
10000000
,  // measure 51
10010000
00011000
00001001
00011000
,  // measure 52
10000000
01000000
00100000
00000000
00011000
00000000
00000000
00000000
,  // measure 53
00001100
00011000
01010000
00011000
,  // measure 54
00001010
00000000
00000000
00001010
00000000
00000000
00001020
00000000
00000000
00000000
00000130
00000000
00000001
00000100
00000001
00000100
,  // measure 55
00000001
00000101
00001100
00011000
,  // measure 56
01010000
00000000
00000000
00000000
11000000
00000000
00000000
00000000
10000000
01000000
00100000
00010000
10000000
00000000
00100000
01000000
,  // measure 57
00100000
01010000
01010000
00000000
00011000
00000000
00001100
00000000
,  // measure 58
00000101
00000000
00000000
00001001
00000000
00000000
00002010
00000000
00000000
00000000
00003010
00000000
00010000
00000000
00001000
00000000
,  // measure 59
01000000
01000000
00002000
00000000
00013000
00010000
00000020
00000000
,  // measure 60
00000130
00000000
00000000
00020000
00000000
00000000
00002000
00000000
00000000
00000000
00000000
00000000
00033000
00000000
00000000
00000000
,  // measure 61
11000000
00000000
00000000
00100000
00000000
00000000
00001000
00000000
00010000
00000000
00000000
00000100
00000000
00000000
00001000
00000100
,  // measure 62
00000001
00000000
00000000
00001010
00000000
00000000
00001100
00000000
00000000
00000000
00000010
00000000
00001000
00000000
00000100
00010000
,  // measure 63
00001000
00000000
00000000
00100000
00000000
00000000
00010000
01000000
10000000
00000000
00000000
00000000
10010000
00000000
00000000
00000000
,  // measure 64
11000000
00000000
00000000
01010000
00000000
00000000
00011000
00000000
00010000
00001000
00010000
00001000
00010000
00000000
00000100
00001000
,  // measure 65
00000001
00000000
00000001
00000010
00001000
00000000
00000000
00000000
00010000
00000000
01000000
00000000
10000000
00000000
00000000
00000000
,  // measure 66
10100000
00000000
00000000
00110000
00000000
00000000
00022000
00000000
00000000
00000000
00000000
00000000
00033000
00000000
00000100
00001000
,  // measure 67
00000001
00001001
00002200
00003300
00010000
00011000
02002000
03003000
,  // measure 68
01100000
00000000
10000000
00010000
00000000
10000000
00020000
00000000
00000000
00000000
00000000
00000000
01030000
00000000
00000000
00000000
,  // measure 69
11000000
00000000
11000000
00000000
00100000
00010000
00000000
00100000
00001000
00000000
00010000
00000000
00000100
00000000
00001000
00000000
,  // measure 70
00000010
00000001
00000100
00000000
00000010
00001000
00000100
00000000
00001000
00000000
00000100
00000000
00010000
00000000
00001000
00000000
,  // measure 71
00100000
00000000
00010000
01000000
00000000
00100000
10000000
00000000
01000000
00000000
00100000
00000000
00010000
00000000
00001000
00000000
,  // measure 72
00000100
00000000
00000010
00000000
00000001
00000000
00000001
00000000
00001000
00000100
00000010
00000001
00000200
00000000
00000000
00000000
,  // measure 73
00000301
00000010
00000100
00001000
00010000
00100000
01000000
10000000
,  // measure 74
10000000
01000000
00100000
00010000
00001000
00000100
00000010
00000001
,  // measure 75
00001001
00000000
00000000
00000100
00010000
00000100
00010000
00000000
00000000
00011000
00000000
00000000
01010000
00000000
00000000
00000000
,  // measure 76
10000000
00000000
01000000
00100000
00000000
01000000
00002000
00000000
00000000
00000000
00000000
00000000
00023000
00000000
00000000
00000000
,  // measure 77
00002000
00000000
00000000
00000000
,  // measure 78
00033000
00000000
00000000
00000000
;

//---------------dance-double - ----------------
#NOTES:
     dance-double:
     :
     Medium:
     12:
     0.452882,0.553597,0.583564,0.291782,0.078860,402.000000,328.000000,74.000000,37.000000,0.000000,0.000000,0.452882,0.553597,0.583564,0.291782,0.078860,402.000000,328.000000,74.000000,37.000000,0.000000,0.000000:
// measure 0
00000000
00000000
00000000
00000000
,  // measure 1
00000000
00000000
00000000
00000000
,  // measure 2
00000000
00000000
00000000
00000000
,  // measure 3
00000000
00000000
00000000
00000000
,  // measure 4
00000000
00000000
00000000
00000000
,  // measure 5
00000000
00000000
00000000
00000000
,  // measure 6
10000000
00000000
00000000
10000000
00000000
00000000
00000000
00000000
00010000
00000000
00000000
00010000
00000000
00000000
00000000
00000000
,  // measure 7
00100000
00000000
00000000
00010000
00000000
00000000
00002000
00000000
00000000
00000000
00000000
00000000
00003000
00000000
00000000
00000000
,  // measure 8
00000000
00000000
00000000
00000000
,  // measure 9
00001000
00000000
00000000
00000100
00000000
00000000
00000002
00000000
00000000
00000000
00000000
00000000
00000003
00000000
00000000
00000000
,  // measure 10
00000101
00000100
00001100
00001000
,  // measure 11
00011000
00010000
01010000
01000000
,  // measure 12
11000000
01000000
01010000
00010000
,  // measure 13
00010010
00000010
00001010
00001001
,  // measure 14
00000010
00000010
00000010
00000000
00002002
00000000
00003003
00000000
,  // measure 15
00000100
00000000
00001000
00000000
00000010
00001000
00000100
00000000
,  // measure 16
00010000
00000000
00001000
00000000
01000000
00010000
00100000
00000000
,  // measure 17
10000000
00000000
01000000
00000000
00100000
00001000
00010000
00000000
,  // measure 18
00000010
00000000
00000100
00000000
00000001
00001000
00000020
00000000
,  // measure 19
00000000
00000000
00000130
00000000
00000010
00001000
00000100
00000000
,  // measure 20
00010000
00000000
00001000
00000000
00100000
00010000
01000000
00000000
,  // measure 21
10000000
00000000
01000000
00000000
00100000
00010000
00001000
00000000
,  // measure 22
00000100
00000000
00000000
00020000
00000000
00000000
00002000
00000000
00000000
00000000
00000000
00000000
00033000
00000000
00000000
00000000
,  // measure 23
00011000
00000000
00000000
00100000
00010000
01000000
00000000
00100000
,  // measure 24
10000000
11000000
01010000
00000000
,  // measure 25
00100000
00000000
00010000
00000000
00001000
00000000
00000000
00001000
,  // measure 26
00000000
00000010
00000100
00000001
00001000
00000010
00000100
00000000
,  // measure 27
00000010
00000000
00010000
00000000
00001000
00000000
00000000
00100000
,  // measure 28
00000000
00010000
01000000
00100000
10000000
10000000
10000000
00000000
,  // measure 29
01000000
00000000
00100000
00000000
00001000
00010000
00000000
00000010
,  // measure 30
00000000
00001000
00000100
00000010
00000001
00000001
00000001
00000000
,  // measure 31
00001010
00000000
00000000
00000010
00000000
00000000
00000100
00000000
00000000
00000100
00000000
00000000
00001001
00000000
00000000
00000000
,  // measure 32
00001100
00000000
00000000
00000100
00000000
00000000
00022000
00000000
00000000
00000000
00000000
00000000
00033000
00000000
00000000
00000000
,  // measure 33
00220000
00000000
00000000
00330000
,  // measure 34
10010000
10010000
10010000
10010000
,  // measure 35
10200000
00300000
02010000
03000000
,  // measure 36
00021000
00000000
00030000
00011000
,  // measure 37
00001100
00000010
00000002
00000003
,  // measure 38
00000011
00000100
00002000
00003000
,  // measure 39
00010000
00001000
01000000
00100000
,  // measure 40
10000000
00000000
00000000
01000000
00000000
00000000
20020000
00000000
00000000
00000000
00000000
00000000
30030000
00000000
00000000
00000000
,  // measure 41
10100000
00100000
00110000
00010000
,  // measure 42
00010000
00000000
00001000
00010000
00000000
00001000
00020000
00000000
00000000
00000000
00000000
00000000
00031000
00000000
00000000
00000000
,  // measure 43
00001000
00000100
00000010
00000001
,  // measure 44
00000001
00000010
00000100
00000000
00010000
00001000
00010000
00000000
,  // measure 45
00100000
00010000
01000000
10000000
,  // measure 46
01000000
00100000
01000000
00000000
00001000
00010000
00001000
00000000
,  // measure 47
00001000
00000100
00000010
00000000
00000001
00000010
00000100
00000000
,  // measure 48
00010000
00001000
00010000
00000000
01000000
00100000
10000000
00000000
,  // measure 49
01000000
00100000
00010000
00000000
00001000
00000100
00000010
00000000
,  // measure 50
00000011
00001100
00110000
11000000
,  // measure 51
00100000
00100000
00100000
10010000
,  // measure 52
01000000
00100000
00010000
00000000
00022000
00000000
00033000
00000000
,  // measure 53
00011000
00001000
00001000
00000000
00001010
00000010
00000010
00000000
,  // measure 54
00000110
00000000
00000000
00000010
00000000
00000000
00000010
00000000
00000000
00000000
00001000
00000000
00000001
00000000
00001000
00000000
,  // measure 55
00000100
00000100
00001001
00001001
,  // measure 56
00001100
00000000
00001100
00000000
00010000
00001000
00010000
00001000
,  // measure 57
01000000
00010000
01010000
00000000
10000000
00000000
11000000
00000000
,  // measure 58
00100000
00000000
00000000
00110000
00000000
00000000
00110000
00000000
00000000
00000000
00001000
00000000
00010000
00000000
00000010
00000000
,  // measure 59
00000100
00000010
00002002
00003003
00000010
00000100
00002002
00003003
,  // measure 60
00000010
00000000
00000000
00010000
00000000
00000000
00022000
00000000
00000000
00000000
00000000
00000000
00033000
00000000
00000000
00000000
,  // measure 61
00110000
00010000
00010000
00000000
11000000
10000000
10000000
00000000
,  // measure 62
01010000
00000000
00000000
00010000
00000000
00000000
00022000
00000000
00000000
00000000
00033000
00000000
00011000
00000000
00000000
00000000
,  // measure 63
00001100
00000100
00000100
00000000
00000101
00000001
00000001
00000000
,  // measure 64
00000011
00000000
00001010
00000000
00000010
00000100
00010000
00001000
,  // measure 65
00100000
00010000
01000000
00000000
00100000
10000000
01000000
00000000
,  // measure 66
00100000
00000000
00000000
00100000
00000000
00000000
20020000
00000000
00000000
00000000
30030000
00000000
01100000
00000000
00000000
00000000
,  // measure 67
10000000
00000000
00000000
00100000
00000000
00000000
01000000
00000000
00001000
00000000
00000000
00010000
00000000
00000000
00000010
00000000
,  // measure 68
00000100
00000000
00000000
00000001
00000000
00000000
00002002
00000000
00000000
00000000
00000000
00000000
00003003
00000000
00000000
00000000
,  // measure 69
00000010
00000100
00000010
00010000
00001000
00010000
00001000
01000000
,  // measure 70
00100000
01000000
00100000
10000000
01000000
00000000
10010000
00000000
,  // measure 71
10000000
00100000
10000000
01000000
00100000
00001000
00010000
00000010
,  // measure 72
00001000
00000100
00000010
00000001
00000100
00000100
00001001
00000000
,  // measure 73
00000011
00000010
00000010
00000000
00001100
00000100
00000100
00000000
,  // measure 74
00110000
00100000
00100000
00000000
11000000
01000000
01000000
00000000
,  // measure 75
11000000
00110000
00001100
00000011
,  // measure 76
00000010
00000000
00000000
00020000
00000000
00000000
00002000
00000000
00000000
00000000
00000000
00000000
00033000
00000000
00000000
00000000
,  // measure 77
00022000
00000000
00000000
00000000
,  // measure 78
00033000
00000000
00000000
00000000
;

//---------------dance-single - ----------------
#NOTES:
     dance-single:
     :
     Medium:
     11:
     0.474287,0.553597,0.709740,0.283896,0.078860,421.000000,331.000000,90.000000,36.000000,0.000000,0.000000,0.474287,0.553597,0.709740,0.283896,0.078860,421.000000,331.000000,90.000000,36.000000,0.000000,0.000000:
0000
0000
0000
0000
,
0000
0000
0000
0000
,
0000
0000
0000
0000
,
0000
0000
0000
0000
,
0000
0000
0000
0000
,
0000
0000
0000
0000
,
0010
0000
0000
1000
0000
0000
1000
0000
0010
0000
0000
0001
0000
0000
0001
0000
,
0100
0000
0000
0100
0000
0000
0200
0000
0000
0000
0000
0000
0300
0000
0000
0000
,
0010
0000
0000
0010
0000
0000
0200
0000
0020
0000
0000
0000
0330
0000
0000
0000
,
1000
0000
0000
0002
0000
0000
2000
0000
0000
0000
0000
0000
3003
0000
0000
0000
,
1001
0010
1001
0100
,
1001
1000
1001
0001
,
0011
0010
1100
0100
,
0011
0101
1100
1010
,
0001
0010
0100
0000
2002
0000
3003
0000
,
0110
0000
0110
0000
1000
0100
1000
0100
,
1000
0000
0110
0000
0001
0010
0001
0010
,
0001
0000
1001
0000
1000
0010
1000
0010
,
1000
0000
1001
0000
0100
0020
0000
0230
,
0000
0000
0301
0000
1000
0100
0001
0100
,
1000
0000
1001
0000
0001
0010
1000
0010
,
0001
0000
0110
0000
1000
0100
0010
0000
,
0100
0000
0000
0100
0000
0000
0200
0000
0000
0000
0000
0000
0310
0000
0000
0000
,
1001
0000
0000
0001
1000
0001
0000
0100
,
0010
0010
0010
0010
0000
0000
0000
0000
,
1000
0000
0001
0000
1000
0001
0000
0010
,
0000
0100
0000
1000
0001
0000
1000
0000
,
0010
0000
0100
0000
0010
1000
0000
0100
,
0000
0010
0000
0001
0100
0010
0100
0000
,
0001
0000
0010
1000
0010
1000
0000
0001
,
0000
0100
0010
0100
0010
0010
0010
0000
,
1001
0000
0000
1001
0000
0000
1000
0000
0000
0001
0000
0000
1001
0000
0000
0000
,
0010
0000
0000
0100
0000
0000
0220
0000
0000
0000
0000
0000
0330
0000
0000
0000
,
1001
0000
0000
0000
,
0110
0110
0110
1001
,
1200
0300
0201
0300
,
0210
0000
0010
0000
0310
0000
0001
0100
,
1000
0110
2002
3003
,
0001
0000
0110
0000
1000
0100
1000
0100
,
1000
0110
0001
0110
,
1000
0000
0000
0010
0000
0000
2002
0000
0000
0000
0000
0000
3003
0000
0000
0000
,
0110
0110
1001
1001
,
0001
0000
0000
0200
0000
0000
0020
0000
0000
0000
0000
0000
0330
0000
0000
0000
,
1001
0110
1001
0110
,
1000
0100
1000
0000
0001
0100
0001
0000
,
1100
0011
1100
0011
,
0010
0100
0010
0000
0001
1000
0001
0000
,
0010
0001
0010
0000
0100
0100
0100
0000
,
1000
0100
1000
0000
0010
0010
0010
0000
,
1000
0100
0010
0000
0001
0010
0100
0000
,
0001
0100
1000
0000
1000
0100
0001
0000
,
0010
0010
0010
1001
,
0100
0100
0100
0000
1001
0000
0000
0000
,
1100
0011
0110
1001
,
0011
0000
0000
0010
0000
0000
0010
0000
0000
0000
1000
0000
0100
0000
0001
0000
,
0100
0101
0100
1100
,
0110
0000
0110
0000
0001
0100
1000
0100
,
0001
0100
0100
0000
0010
1000
1000
0000
,
0101
0000
0000
0100
0000
0000
0200
0000
0000
0000
0010
0000
0310
0000
0000
0000
,
1000
1000
1100
0000
0001
0001
0101
0000
,
0010
0000
0000
0100
0000
0000
2002
0000
0000
0000
0000
0000
3003
0000
0000
0000
,
1100
0101
0011
1010
,
0110
0000
0000
0110
0000
0000
0220
0000
0000
0000
0330
0000
0110
0000
0000
0000
,
0011
0000
1100
0000
0220
0000
0330
1000
,
0100
0000
0101
0000
1000
0100
0010
0100
,
1000
0000
0101
0000
0010
0010
1001
0000
,
0010
0000
0000
0100
0000
0000
2002
0000
0000
0000
0000
0000
3003
0000
0000
0000
,
1000
0000
0000
1000
0000
0000
0100
0000
0001
0000
0000
0001
0000
0000
0100
0000
,
0010
0000
0000
0010
0000
0000
0220
0000
0000
0000
0000
0000
0330
0000
0000
0000
,
1000
1000
0001
0001
0100
0100
0100
0000
,
0001
0001
1000
1000
0010
0000
0010
0000
,
1000
1000
0001
0001
0100
0100
0010
0000
,
0001
0001
1000
0000
0010
0100
0010
0000
,
1001
0010
1001
0100
,
1100
0100
0011
0001
,
1100
0110
0011
1001
,
0010
0000
0000
0100
0000
0000
2002
0000
0000
0000
0000
0000
3003
0000
0000
0000
,
0220
0000
0000
0000
,
0330
0000
0000
0000
;

//---------------dance-single - ----------------
#NOTES:
     dance-single:
     :
     Challenge:
     16:
     0.860701,1.014928,1.001522,0.307554,0.816201,764.000000,637.000000,127.000000,39.000000,0.000000,0.000000,0.860701,1.014928,1.001522,0.307554,0.816201,764.000000,637.000000,127.000000,39.000000,0.000000,0.000000:
0000
0000
0000
0000
,
0000
0000
0000
0000
,
0000
0000
0000
0000
,
0000
0000
0000
0000
,
0000
0000
0000
0000
,
0000
0000
0000
0000
,
0010
0000
0000
1010
0000
0000
0001
0000
0100
0000
0000
0101
0000
0000
1000
0000
,
0010
0000
0000
0000
0000
0000
0000
0000
0000
0110
0000
0000
0000
0000
0000
0000
0000
0000
2002
0000
0000
0000
0000
0000
0000
0000
0000
0000
0003
0000
3020
0000
0000
0000
0000
0000
0000
0000
0000
0000
0000
0000
0130
0000
0000
0000
0000
0000
,
1001
0000
0000
0110
0000
1000
0100
0000
0200
0000
0000
0000
1300
0000
0000
0000
,
1010
0000
0001
0100
0000
0001
0020
0000
0001
0000
0000
0100
0030
0100
0001
0000
,
1000
0001
0000
0010
0000
0001
1000
0000
0001
0100
0000
0010
0000
0100
0001
0000
,
0100
0010
0000
1000
0000
0010
0100
0000
1000
0001
0000
0100
0000
0001
1000
0000
,
0100
0010
0100
0000
0010
1000
0010
0000
0100
0001
0100
0000
0010
1000
0010
0000
,
0010
1000
0100
0010
0001
0010
0100
1000
0001
1000
0100
0010
,
1001
0010
0101
0000
2002
0000
3003
0000
,
1001
0000
0000
0100
1000
0100
1000
0000
0010
0000
0110
0000
1000
0000
1001
0000
,
0100
0000
0000
0001
0100
0001
0100
0000
0010
0000
1010
0000
1000
0000
1100
0000
,
0100
0000
0000
0001
0100
0001
0100
0000
0010
0000
1010
0000
1000
0000
1100
0000
,
0100
0000
0000
0101
0000
0010
0001
0000
0000
1000
0100
0010
0000
0001
0100
0010
,
0000
1000
0000
1001
0000
0010
0100
0000
0001
0000
0101
0000
1000
0000
1100
0000
,
0010
0000
0000
0100
0010
0100
0010
0000
0100
0000
0110
0000
1000
0000
1001
0000
,
0010
0000
0000
0100
0001
0100
0001
0000
0100
0000
0010
0000
1000
0000
0101
0000
,
1001
0000
0000
0110
0000
0000
2002
0000
0000
0000
0000
0000
3003
0000
0000
0000
,
1010
0000
0000
0000
0100
0010
0100
0000
0001
1000
0001
0000
0000
0000
0110
0000
,
1010
1010
0101
0101
0001
0010
0100
1000
,
1001
0000
0100
0000
0100
0000
0010
0100
0010
0000
0100
0000
0000
0000
1001
0000
,
0000
0000
0001
0100
0001
0000
1000
0100
1000
0000
0001
0000
0110
0000
1000
0000
,
0010
0000
0010
0000
1001
0000
0100
0010
0100
0000
1001
0000
0000
0000
1100
0000
,
0010
0000
0011
0000
0100
0000
1000
0010
0100
0000
0100
0000
2002
0000
3003
0000
,
0110
0000
1000
0000
1000
0000
0001
0100
0001
0000
0110
0000
0000
0000
1001
0000
,
0000
0000
0010
0100
0010
0000
1000
0100
0010
0000
0010
0000
0010
0000
0000
0000
,
1001
0000
0000
0100
0001
0010
0100
0000
0000
1001
0000
0000
0220
0000
0330
0000
,
1000
0000
0010
1000
0000
0001
0100
0000
0001
0010
0100
1000
0001
0100
0010
1000
,
0002
0000
0000
0003
,
1001
0110
1001
0110
,
1020
0000
0000
0000
1030
0000
0001
0100
0102
0000
0000
0000
0103
0000
1000
0001
,
2001
0000
0000
0000
0001
0000
0000
0000
3001
0000
0001
1000
0100
0000
0010
0001
,
0200
0000
0000
0001
0310
0000
0001
1000
1002
0000
0000
0000
0103
0000
1000
0001
,
1002
0000
0000
0000
0000
0000
0000
0000
0000
1000
0000
0000
0103
0000
0000
0000
0000
0000
0010
0000
0000
0000
0000
0000
1001
0000
0000
0000
0000
0000
0010
0000
0000
0100
0000
0000
0010
0000
0000
0000
0000
0000
1000
0000
0010
0000
1000
0000
,
0010
0000
0000
0100
0001
0000
0010
0000
1001
0000
0000
0010
1000
0000
0100
0000
,
1001
0000
0000
0010
0100
0000
0001
0000
0100
0010
0100
0010
0100
0000
0010
1000
,
1010
0000
0000
0001
0100
0000
0010
0100
0101
0000
0000
0010
0100
0000
1001
0000
,
1001
0000
1000
0100
0000
0010
0002
0000
0000
0000
0000
0000
1003
0000
0000
0000
,
1010
0010
0110
0100
0101
0001
1001
0000
,
0001
0100
0001
0100
0010
1000
0010
1000
0010
0100
0001
0100
0010
1000
0001
1000
,
0001
0100
0101
0100
0110
0010
1010
0000
,
1000
0100
1000
0100
0010
0001
0010
0001
0100
0010
0100
0010
1000
0100
0010
0001
,
0100
0000
0110
0000
0110
0000
0110
0000
0001
0000
1001
0000
1001
0000
1000
0100
,
1100
0000
0100
0000
0010
0000
0001
0010
0011
0000
0010
0000
0100
0000
0001
0000
,
1000
0100
1000
0100
0010
0001
0100
0010
1000
0010
1000
0010
0100
0001
1000
0100
,
0010
0000
0000
0001
0000
0000
0010
0000
0000
0001
0000
0000
1000
0000
0000
0100
0000
0000
1000
0000
0000
0010
0000
0000
0100
0000
0000
0000
0001
0000
0000
0000
0010
0000
0000
0000
0100
0000
0000
0000
1000
0000
0000
0000
1001
0000
0000
0000
,
1001
1001
1001
1001
,
0010
0010
0010
0000
2002
0000
3003
0000
,
1010
0000
0010
0100
0010
0000
0001
0100
0001
0000
1000
0100
1000
0000
0001
0100
,
0001
0000
0100
0001
0000
0100
0002
0000
0000
0000
1000
0000
1003
0010
1000
0010
,
1010
0000
0000
0001
0100
0000
0010
0100
0110
0000
0000
0000
1100
0000
0010
0100
,
0101
0000
0000
0010
0100
0000
1001
0000
0100
0010
1000
0001
0100
0000
0010
1000
,
0001
0000
1001
0000
1001
0000
0100
0000
1000
0000
0100
1000
0000
0100
1000
0000
,
0010
0000
0100
0001
0000
0100
0001
0000
0010
0000
0110
0000
0110
0000
0001
0100
,
0101
0101
2002
3003
1010
1010
2002
3003
,
0101
0000
0010
0100
0000
0010
0200
0000
0000
0000
0010
0000
0010
0000
0310
0000
,
1001
0000
1000
0100
0000
0010
0001
0100
0001
0000
0010
1000
0000
0100
1000
0010
,
1000
0000
0100
0010
0000
0100
0202
0000
0000
0303
0010
0000
1000
0100
0010
0001
,
0100
0000
0010
1000
0000
0001
0100
0000
0020
0000
0100
0000
0130
0000
1000
0100
,
1000
0000
0001
0100
0000
0010
0100
0000
0001
0100
0001
0100
0001
0000
1000
0100
,
1100
0000
0010
0100
0000
0001
0100
0000
0101
0000
0010
0100
0000
0010
1000
0000
,
1100
0000
0001
0100
0000
0010
0200
0000
0010
0000
0310
0000
1000
0001
0100
0001
,
1000
0000
0000
1001
0000
0000
0110
0000
0001
0000
0000
1001
0000
0000
0110
0000
,
1000
0000
0001
0100
0000
0010
0220
0000
0000
0000
0000
0000
0330
0000
0000
0000
,
1001
0000
1000
0010
0100
0001
0000
1000
0010
0000
0101
0000
0001
0100
1000
0000
,
0001
0000
0010
0000
0001
0000
0010
0000
0000
0000
0000
0000
1000
0000
0100
0000
1000
0000
0100
0000
0000
0000
0000
0000
0010
0000
0000
0100
0000
0000
0010
0000
0000
0000
0000
0000
0100
0000
0000
0010
0000
0000
0100
0000
0000
0000
0000
0000
,
0001
0000
1000
0000
0001
0000
1000
0000
0000
0001
0000
0000
0000
0000
0000
0100
0000
0000
0010
0000
0000
0000
0000
0000
1000
0000
0000
0000
0000
0000
0001
0000
0000
1000
0000
0000
0001
0000
0000
0000
0000
0000
0010
0000
0000
0000
0000
0000
,
1000
0100
1000
0100
0010
0001
0010
0000
1001
0000
1001
0000
1001
0000
0000
0000
,
0100
1010
0100
1010
0100
1100
0100
0100
,
0011
0010
0011
0011
1100
1000
1100
0100
,
1000
0100
0010
0001
0010
0100
1000
0000
0001
0100
0000
0001
0100
0010
0100
0010
,
0110
0000
0001
0100
0000
1000
2002
0000
0000
0000
0000
3003
0110
0000
0000
0000
,
2002
0000
0000
0000
,
3003
0000
0000
0000
;

//---------------dance-double - ----------------
#NOTES:
     dance-double:
     :
     Challenge:
     16:
     0.763815,0.953417,0.607222,0.126176,0.701854,678.000000,601.000000,77.000000,16.000000,0.000000,0.000000,0.763815,0.953417,0.607222,0.126176,0.701854,678.000000,601.000000,77.000000,16.000000,0.000000,0.000000:
// measure 0
00000000
00000000
00000000
00000000
,  // measure 1
00000000
00000000
00000000
00000000
,  // measure 2
00000000
00000000
00000000
00000000
,  // measure 3
00000000
00000000
00000000
00000000
,  // measure 4
00000000
00000000
00000000
00000000
,  // measure 5
00000000
00000000
00000000
00000000
,  // measure 6
00001000
00000000
00000000
00000100
00000000
00000000
00000010
00000000
00000001
00000000
00000000
00000100
00000000
00000000
00010000
00000000
,  // measure 7
00001000
00000000
00000000
01000000
00000000
00000000
00020000
00000000
00000000
00000000
10030000
00000000
00000000
00000000
11000000
00000000
,  // measure 8
01010000
00000000
00000000
00100000
00000000
00001000
00010000
00000000
00000100
00000000
00000000
00000000
00002000
00000000
00000000
00000000
,  // measure 9
00003001
00000000
00000010
00000100
00000000
00010000
00002000
00000000
00100000
00000000
00000000
00100000
00003000
00100000
00010000
00000000
,  // measure 10
01000000
00100000
00000000
10000000
00000000
00000000
10010000
00000000
00100000
00001000
00000000
00010000
00000000
00000000
00010100
00000000
,  // measure 11
00000100
00001000
00000000
00000010
00000000
00000000
00001010
00000000
00001000
00000001
00000000
00000100
00000000
00000000
00000110
00000000
,  // measure 12
00000001
00000010
00000100
00001000
00010000
00100000
01000000
10000000
,  // measure 13
10000000
00100000
01000000
00001000
00010000
00000010
00001000
00000100
00000010
00001000
00010000
00000100
,  // measure 14
10000000
00100000
00010000
00000000
00002200
00000000
00003300
00000000
,  // measure 15
00000011
00000000
00000000
00000001
00000100
00000001
00000100
00000000
00000010
00000000
00000100
00000000
00010000
00000000
00001000
00000000
,  // measure 16
00110000
00000000
00000000
01000000
00010000
01000000
00010000
00000000
10000000
00000000
01000000
00000000
00100000
00000000
00001000
00000000
,  // measure 17
00011000
00000000
00000000
00000100
00001000
00000100
00001000
00000000
00000010
00000000
00000001
00000000
00001000
00000000
00000100
00000000
,  // measure 18
00001100
00000000
00000000
00000100
00000000
00010000
00001000
00000000
00000000
00100000
00010000
01000000
00000000
00100000
10000000
01000000
,  // measure 19
00000000
00000000
00000000
00100000
00000000
10000000
01000000
00000000
10000000
00000000
00100000
00000000
01000000
00000000
00001000
00000000
,  // measure 20
00010000
00000000
00000000
00000010
00000000
00000100
00000001
00000000
00000010
00000000
00001000
00000000
00000100
00000000
00010000
00000000
,  // measure 21
00001000
00000000
00000000
00100000
00000000
00010000
01000000
00000000
00000000
00000000
01100000
00000000
10000000
00000000
10010000
00000000
,  // measure 22
01010000
00000000
00000000
00110000
00000000
00000000
00022000
00000000
00000000
00000000
00000000
00033000
00000000
00000000
00000000
00000000
,  // measure 23
00001100
00000000
00000000
00000000
00000000
00000000
00000001
00000000
00000010
00000100
00001000
00000000
00000000
00000000
00000100
00000000
,  // measure 24
00010000
00001000
00100000
00010000
10000000
01000000
00100000
00010000
,  // measure 25
10000000
00000000
10000000
00000000
10000000
00000000
00010000
01000000
00010000
00000000
00100000
00000000
00000000
00000000
00001000
00000000
,  // measure 26
00010000
00000000
00000100
00000000
00001000
00000000
00000010
00000100
00000010
00000000
00000001
00000000
00001000
00000010
00000100
00000010
,  // measure 27
00001000
00000100
00010000
00001000
00100000
00010000
00000000
01000000
,  // measure 28
00000000
00000000
00100000
00000000
10000000
00000000
01000000
00010000
01000000
00000000
00100000
00000000
00100000
00000000
00000000
00000000
,  // measure 29
01000000
00000000
00100000
00000000
00010000
00000000
00001000
00000100
00001000
00000000
00000010
00000000
00000100
00000000
00000001
00000000
,  // measure 30
00000010
00000000
00001000
00000000
00000100
00010000
00000100
00010000
00001000
00000000
00001000
00000000
00011000
00000000
00000000
00000000
,  // measure 31
00101000
00000000
00000000
00100000
00010000
00100000
01000000
00000000
00000000
11000000
00000000
00000000
01010000
00000000
00000000
00000000
,  // measure 32
10000000
00000000
01000000
00100000
00000000
00001000
00020000
00000000
00001000
00000000
00000000
00000000
00031000
00000000
00000000
00000000
,  // measure 33
00011000
00000000
00000000
00000000
,  // measure 34
10100000
00011000
00001100
00000101
,  // measure 35
00001001
00000000
00000000
00000000
00000100
00000000
00010000
00001000
00011000
00000000
00000000
00000000
00100000
00000000
00010000
10000000
,  // measure 36
10010000
00000000
00000000
00000000
10010000
00000000
00000000
00000000
00010000
00000000
01000000
00100000
01000000
00000000
00010000
10000000
,  // measure 37
00010000
00000000
00000000
10000000
01000000
00000000
00100000
00001000
00010000
00000000
00000000
00000100
00001000
00000000
00000010
00000100
,  // measure 38
00000001
00000000
00000000
00000000
00000000
00000000
00000000
00000000
00000000
00000010
00000000
00000000
00000100
00000000
00000000
00000000
00000000
00000000
00001000
00000000
00000000
00000000
00000000
00000000
00010000
00000000
00000000
00001000
00000000
00000000
00010000
00000000
00000000
00001000
00000000
00000000
00010000
00000000
00000000
00000000
00000000
00000000
00001000
00000000
01000000
00000000
00001000
00000000
,  // measure 39
01000000
00000000
00000000
00010000
10000000
00000000
01000000
10000000
11000000
00000000
00000000
00100000
00000000
00000000
01000000
00001000
,  // measure 40
01000000
00000000
00000000
00010000
00000000
00000000
00000010
00000000
00001000
00000001
00001000
00000001
00001000
00000000
00000010
00000100
,  // measure 41
00000110
00000000
00000000
00001000
00000000
00000000
00000100
00000000
00010000
00000000
00000000
00001000
00000000
00000000
01000000
00000000
,  // measure 42
00100000
00000000
10000000
01000000
00000000
00100000
00020000
00000000
00000000
00000000
00000000
00000000
10030000
00000000
00000000
00000000
,  // measure 43
11000000
00110000
00011000
00001100
,  // measure 44
00000001
00000100
00000001
00000100
00000010
00001000
00000010
00001000
00000100
00010000
00000100
00010000
00001000
01000000
00010000
01000000
,  // measure 45
00100000
10100000
00101000
00010100
,  // measure 46
00001000
00000100
00001000
00000100
00000010
00000001
00000010
00000001
00001000
00000010
00001000
00000010
00010000
00001000
00010000
00001000
,  // measure 47
00100000
00000000
00010000
00000000
10000000
00000000
00100000
01000000
01100000
00000000
01000000
00000000
00001000
00000000
00010000
00001000
,  // measure 48
00011000
00000000
00010000
00000000
00000010
00000000
00000100
00000010
00000110
00000000
00000100
00000000
00000001
00000000
00000010
00000000
,  // measure 49
00000001
00000100
00000001
00000100
00000010
00001000
00000010
00001000
00000100
00010000
00000100
00010000
00001000
00100000
00001000
00100000
,  // measure 50
00010000
00000000
00000000
01000000
00000000
00000000
00010000
00000000
00000000
01000000
00000000
00000000
00100000
00000000
00000000
10000000
00000000
00000000
00100000
00000000
00000000
10000000
00000000
00000000
01000000
00000000
00000000
00000000
00100000
00000000
00000000
00000000
00010000
00000000
00000000
00000000
00001000
00000000
00000000
00000000
00000100
00000000
00000000
00000000
00000010
00000000
00000000
00000000
,  // measure 51
00000001
00001100
00011000
01010000
,  // measure 52
10000000
01000000
00100000
00000000
00022000
00000000
00033000
00000000
,  // measure 53
00001100
00000000
00010000
00000000
00011000
00000000
00000000
00000000
01010000
00000000
00100000
00001000
00010000
00000000
00000000
00000000
,  // measure 54
00001000
00000000
00010000
00000000
00000100
00000000
00000010
00000001
00001000
00000000
00000010
00000000
00000100
00000010
00000100
00000010
,  // measure 55
00000100
00000000
00000001
00000100
00000101
00000000
00000010
00000000
00001000
00000000
00000100
00000000
00010000
00000000
00001000
00000000
,  // measure 56
00100000
00000000
00000000
00010000
01000000
00000000
00100000
00000000
10000000
01000000
10000000
01000000
10000000
00000000
00100000
01000000
,  // measure 57
00100000
00000000
01100000
00000000
01100000
00000000
00000000
00000000
00100000
00000000
00001000
00010000
00001000
00000000
00010000
00000000
,  // measure 58
00000100
00000000
00001000
00000010
00000100
00000000
00000001
00000000
00001000
00000000
00001000
00000000
00001100
00000000
00000010
00001000
,  // measure 59
00000100
00000100
00010100
00000000
00100000
00100000
00110000
00000000
,  // measure 60
10010000
00000000
10000000
01000000
00000000
01000000
00010000
00000000
00100000
00000000
00010000
00000000
00001000
00000000
00000100
00000000
,  // measure 61
00000110
00000000
00000001
00000100
00000000
00000000
00000010
00001000
00000100
00000000
00000100
00010000
00000000
00010000
00001000
00000000
,  // measure 62
01001000
00000000
01001000
00000000
10010000
00000000
10010000
00000000
00000000
00000000
01100000
00000000
10000000
01000000
00100000
00010000
,  // measure 63
01000000
00000000
00100000
00010000
00000000
00001000
00000100
00001000
00000100
00000000
00000010
00000001
00000100
00000000
00000010
00000000
,  // measure 64
00001000
00000000
00000100
00010000
00000000
00001000
00100000
00000000
00010000
00100000
01000000
10000000
01000000
00000000
10000000
00100000
,  // measure 65
01000000
00000000
01000000
00001000
00100000
00000000
00010000
00000000
00001000
00000000
00000100
00000010
00000001
00000000
00000100
00000000
,  // measure 66
00000010
00000000
00000100
00001000
00000000
00001000
00010000
00000000
00010000
00100000
01000000
10000000
00100000
00000000
10000000
01000000
,  // measure 67
00100000
00000000
00000000
01100000
00000000
00000000
00001000
00000000
00011000
00000000
00000000
00010100
00000000
00000000
00001000
00000000
,  // measure 68
00001010
00000000
00000000
00000101
00000000
00000000
00002002
00000000
00000000
00000000
00000000
00000000
00003003
00000000
00000000
00000000
,  // measure 69
00000001
00000000
00000010
00000000
00000100
00001000
00000000
00010000
00100000
00000000
01000000
00000000
10000000
00100000
01000000
00000000
,  // measure 70
10000000
00100000
10000000
00100000
00000000
00000000
01000000
00010000
01000000
00010000
00000000
00000000
00100000
00000000
00000000
00010000
00000000
00000000
00001000
00000000
00000000
00000100
00000000
00000000
,  // measure 71
00000010
00000000
00000001
00000000
00000010
00000000
00000001
00000000
00000000
00000010
00000000
00000000
00000000
00000000
00000000
00000001
00000000
00000000
00000100
00000000
00000000
00000000
00000000
00000000
00000010
00000000
00000000
00000000
00000000
00000000
00000100
00000000
00000000
00010000
00000000
00000000
00001000
00000000
00000000
00000000
00000000
00000000
00100000
00000000
00000000
00000000
00000000
00000000
,  // measure 72
00010000
00000000
00000000
01000000
00000000
00000000
10000000
00000000
00100000
00000000
10000000
00000000
00100000
00000000
00000000
00000000
00000000
00000000
01000000
00000000
00000000
00000000
00000000
00000000
10010000
00000000
00000000
00000000
00000000
00000000
01010000
00000000
00000000
00000000
00000000
00000000
00110000
00000000
00000000
00000000
00000000
00000000
00000000
00000000
00000000
00000000
00000000
00000000
,  // measure 73
11000000
00010000
00001000
00000100
00000101
00001000
00000100
00010000
,  // measure 74
01010000
10000000
00100000
01000000
01001000
00010000
00000010
00000100
,  // measure 75
00000001
00000010
00000100
00000000
00000010
00000100
00001000
00000000
00000100
00010000
00001000
00000000
00100000
00010000
01000000
00000000
,  // measure 76
11000000
00000000
00100000
00010000
00000000
00001000
00020000
00000000
00000000
00000000
00000000
00000000
00031000
00000000
00000000
00000000
,  // measure 77
00022000
00000000
00000000
00000000
,  // measure 78
00033000
00000000
00000000
00000000
;

//---------------dance-single - ----------------
#NOTES:
     dance-single:
     :
     Easy:
     6:
     0.325579,0.492086,0.567792,0.473160,0.003943,289.000000,217.000000,72.000000,60.000000,0.000000,0.000000,0.325579,0.492086,0.567792,0.473160,0.003943,289.000000,217.000000,72.000000,60.000000,0.000000,0.000000:
0000
0000
0000
0000
,
0000
0000
0000
0000
,
0000
0000
0000
0000
,
0000
0000
0000
0000
,
0000
0000
0000
0000
,
0000
0000
0000
0000
,
0010
0000
0010
0000
,
0010
0000
0000
0020
0000
0000
0030
0000
,
1000
0001
1001
0000
,
0001
1000
1001
0000
,
1100
0000
0101
0000
,
0011
0000
1010
0000
,
0110
0000
1001
0000
,
0010
0010
0010
0010
,
0000
0000
0000
0000
,
1000
0000
1000
0000
0001
0100
0001
0000
,
1000
0000
1000
0000
0010
0100
0010
0000
,
1000
0000
1000
0000
0001
0010
0001
0000
,
0100
0100
0020
0000
,
0030
0000
0001
0000
1000
0001
1000
0000
,
0100
0000
0100
0000
0001
1000
0001
0000
,
0010
0000
0010
0000
0001
1000
0001
0000
,
0100
0000
0000
0100
0000
0000
0200
0000
0000
0000
0000
0000
0300
0000
0000
0000
,
1001
0000
0000
0000
,
0010
0010
0010
0000
,
1000
1000
2200
3300
,
0001
0001
0202
0303
,
0010
0010
2002
3003
,
0100
0000
0100
0000
0100
0100
0100
0000
,
0010
0010
2002
3003
,
0100
0100
2002
3003
,
0010
0000
0000
1001
0000
0000
0110
0000
,
1000
0000
0000
1001
0000
0000
0000
0000
,
1001
0000
0000
0000
,
0010
0010
0010
0000
,
2000
3000
0002
0003
,
0020
0000
0000
0030
,
0002
0003
2000
3000
,
0200
0300
0020
0030
,
2000
3100
0002
0103
,
0020
0100
0200
0330
,
2000
3100
0002
0013
,
0200
0010
0020
0330
,
1100
1100
1100
1100
,
0000
0000
0000
0000
,
0101
0101
0101
0101
,
0000
0000
0000
0000
,
2200
3300
0202
0303
,
2020
3030
0022
0033
,
0200
0300
0020
0030
,
1001
1001
1001
1001
,
0010
0010
0010
0010
,
0000
0000
0000
0000
,
0100
0100
0001
0001
,
1000
0000
0000
2002
0000
0000
3003
0000
,
0010
0010
0220
0330
,
0100
0100
2002
3003
,
0001
0011
1000
1100
,
0110
0110
1001
1001
,
1000
0000
2200
3300
0001
0000
0202
0303
,
0010
0010
2002
3003
,
1100
0100
0101
0100
,
1010
1010
1001
0000
,
0011
0010
1010
0010
,
0101
0101
1001
0000
,
0110
0110
1001
1001
,
1100
0011
2002
3003
,
0022
0033
2200
3300
,
0110
0000
0000
1001
0000
0000
0000
0000
,
0010
0000
1000
0000
0100
0100
0100
0000
,
0010
0001
0010
0000
1000
1000
1000
0000
,
0001
0000
0100
0000
0010
1000
0010
0000
,
0100
0100
0100
0000
0010
0010
0010
0000
,
1001
0000
0110
0000
,
1001
0000
0110
0000
,
1000
0100
0010
0001
,
0200
0000
0000
0020
0000
0030
0310
0000
,
2002
0000
0000
0000
,
3003
0000
0000
0000
;

//---------------dance-double - ----------------
#NOTES:
     dance-double:
     :
     Easy:
     6:
     0.289529,0.399820,0.315440,0.283896,0.000000,257.000000,217.000000,40.000000,36.000000,0.000000,0.000000,0.289529,0.399820,0.315440,0.283896,0.000000,257.000000,217.000000,40.000000,36.000000,0.000000,0.000000:
// measure 0
00000000
00000000
00000000
00000000
,  // measure 1
00000000
00000000
00000000
00000000
,  // measure 2
00000000
00000000
00000000
00000000
,  // measure 3
00000000
00000000
00000000
00000000
,  // measure 4
00000000
00000000
00000000
00000000
,  // measure 5
00000000
00000000
00000000
00000000
,  // measure 6
00010000
00000000
00010000
00000000
,  // measure 7
00001000
00000000
00000000
00001000
00000000
00000000
00000000
00000000
,  // measure 8
00000100
00000010
00000001
00000000
,  // measure 9
00000001
00001000
00000100
00000000
,  // measure 10
00001100
00000000
00001000
00000000
,  // measure 11
00011000
00000000
00010000
00000000
,  // measure 12
00110000
00000000
00100000
00000000
,  // measure 13
01000000
01000000
01000000
10010000
,  // measure 14
00000000
00000000
00000000
00000000
,  // measure 15
00000001
00000010
00000100
00001000
,  // measure 16
00010000
00100000
01000000
10000000
,  // measure 17
10000000
01000000
00100000
00010000
,  // measure 18
00001000
00000100
00000020
00000030
,  // measure 19
00010000
00001000
00010000
00001000
,  // measure 20
01000000
00100000
00001000
00010000
,  // measure 21
00000010
00000100
00000010
00000100
,  // measure 22
00010000
00000000
00000000
00022000
00000000
00000000
00033000
00000000
,  // measure 23
01100000
00000000
10010000
00000000
,  // measure 24
10000000
10000000
10000000
10000000
00000000
00000000
00000000
00000000
,  // measure 25
00100000
00000000
00011000
00000000
,  // measure 26
00000100
00000000
00001001
00000000
,  // measure 27
00000010
00000000
00011000
00000000
,  // measure 28
01000000
00000000
10000000
00010000
,  // measure 29
00100000
00000000
10010000
00000000
,  // measure 30
01000000
00001000
00010000
00010000
,  // measure 31
00001000
00000000
00000000
00011000
00000000
00000000
00011000
00000000
,  // measure 32
00010000
00000000
00000000
00022000
00000000
00000000
00033000
00000000
,  // measure 33
00011000
00000000
00000000
00000000
,  // measure 34
00001000
00000100
00000010
00000001
,  // measure 35
00000002
00000003
00000200
00000300
,  // measure 36
00020000
00000000
00030000
00000000
,  // measure 37
00001000
00010000
00100000
00000000
,  // measure 38
10000000
01000000
00200000
00300000
,  // measure 39
10000000
01000000
00010000
00100000
,  // measure 40
00001000
00000000
00000000
00020000
00000000
00000000
00030000
00000000
,  // measure 41
00000010
00000100
00001000
00000001
,  // measure 42
00000110
00000000
00000000
00002002
00000000
00000000
00003003
00000000
,  // measure 43
00000011
00000110
00001100
00011000
,  // measure 44
00000000
00000000
00000000
00000000
,  // measure 45
11000000
01100000
00110000
00011000
,  // measure 46
00000000
00000000
00000000
00000000
,  // measure 47
00000001
00000010
00000100
00001000
,  // measure 48
00010000
00100000
01000000
10000000
,  // measure 49
10000000
01000000
00100000
00000000
00100000
00010000
00001000
00000000
,  // measure 50
00001000
00000100
00000010
00000000
00000010
00000000
00001001
00000000
,  // measure 51
00000100
00000100
00000100
00001001
,  // measure 52
00000000
00000000
00000000
00001100
,  // measure 53
00001000
00100000
00010000
01000000
,  // measure 54
00100000
00000000
00000000
20020000
00000000
00000000
30030000
00000000
,  // measure 55
01000000
00100000
00020000
00030000
,  // measure 56
00001000
00000100
00000020
00000030
,  // measure 57
00000002
00000103
00002000
00003100
,  // measure 58
00000100
00000000
00000000
00022000
00000000
00000000
00033000
00000000
,  // measure 59
00010000
00110000
10000000
11000000
,  // measure 60
00100000
00000000
00000000
00202000
00000000
00000000
00303000
00000000
,  // measure 61
00010000
00001000
00000100
00000010
,  // measure 62
00000001
00000000
00000000
00002002
00000000
00000000
00003003
00000000
,  // measure 63
00000010
00010000
00022000
00033000
,  // measure 64
00100000
00010000
20020000
30030000
,  // measure 65
10000000
01000000
00100000
00010000
,  // measure 66
00000010
00000000
00000000
00002002
00000000
00000000
00003003
00000000
,  // measure 67
00000001
00000010
00000100
00001000
,  // measure 68
01000000
00000000
00000000
20020000
00000000
00000000
30030000
00000000
,  // measure 69
00100000
00000000
00100000
00000000
00001000
00001000
00001000
00000000
,  // measure 70
00010000
00010000
00010000
00000000
00000010
00000000
00000100
00000000
,  // measure 71
00000001
00000001
00000001
00000000
00001000
00001000
00001000
00000000
,  // measure 72
00000100
00000000
00000100
00000000
00010000
00001000
00010000
00000000
,  // measure 73
00001000
00100000
01000000
10000000
,  // measure 74
00100000
01000000
00001000
00010000
,  // measure 75
00000010
00000100
00000001
00001000
,  // measure 76
00000100
00000000
00000000
00022000
00000000
00033000
00000000
00000000
,  // measure 77
00022000
00000000
00000000
00000000
,  // measure 78
00033000
00000000
00000000
00000000
;
