#VERSION:0.83;
#TITLE:ギョギョっと人魚X爆婚ブライダル;
#SUBTITLE:;
#ARTIST:海の底からマーメイドXPrim by ARM×狐夢想;
#TITLETRANSLIT:Gyogyotto Ningyo Bakkon Bridal;
#SUBTITLETRANSLIT:;
#ARTISTTRANSLIT:Undersea Mermaid Prim by ARM x Kitsune Muso;
#GENRE:;
#ORIGIN:;
#CREDIT:;
#BANNER:banner.png;
#BACKGROUND:jacket.png;
#PREVIEWVID:;
#JACKET:jacket.png;
#CDIMAGE:;
#DISCIMAGE:;
#LYRICSPATH:;
#CDTITLE:;
#MUSIC:Gyogyotto ningyo bakkon bridal.ogg;
#OFFSET:0.960000;
#SAMPLESTART:65.819992;
#SAMPLELENGTH:12.000000;
#SELECTABLE:YES;
#BPMS:0.000=169.000;
#STOPS:;
#DELAYS:;
#WARPS:;
#TIMESIGNATURES:0.000=4=4;
#TICKCOUNTS:0.000=4;
#COMBOS:0.000=1;
#SPEEDS:0.000=1.000=0.000=0;
#SCROLLS:0.000=1.000;
#FAKES:;
#LABELS:0.000=Song Start;
#BGCHANGES:2.250=Gyogyotto ningyo bakkon bridal.avi=1.000=0=0=1=====,
99999=-nosongbg-=1.000=0=0=0 // don't automatically add -songbackground-
;
#KEYSOUNDS:;
#ATTACKS:
;

//---------------dance-single - ----------------
#NOTEDATA:;
#CHARTNAME:;
#STEPSTYPE:dance-single;
#DESCRIPTION:;
#CHARTSTYLE:;
#DIFFICULTY:Beginner;
#METER:4;
#RADARVALUES:0.140585,0.272711,0.066718,0.050039,0.000000,118.000000,110.000000,8.000000,6.000000,0.000000,0.000000,0.000000,0.000000,0.000000,0.140585,0.272711,0.066718,0.050039,0.000000,118.000000,110.000000,8.000000,6.000000,0.000000,0.000000,0.000000,0.000000,0.000000;
#CREDIT:;
#NOTES:
0000
0000
0000
0000
,
0000
0000
0000
0000
,
0000
0000
0000
0000
,
0000
0000
0000
0000
,
0000
0000
0000
0000
,
0001
0000
0000
0000
,
1000
0000
0000
0000
,
0001
0000
0000
0000
,
1000
0000
0000
0000
,
0010
0000
0000
0000
,
0100
0000
0000
0000
,
0010
0000
0010
0000
,
0010
0000
0000
0000
,
0001
0000
0000
0000
,
1000
0000
0000
0000
,
0001
0000
0000
0000
,
1000
0000
0000
0000
,
0010
0000
0000
0000
,
0100
0000
0000
0000
,
0010
0000
0010
0000
,
0000
0010
0010
0000
,
0001
0000
0000
0000
,
1000
0000
0000
0000
,
0001
0000
0000
0000
,
1000
0000
0000
0000
,
0010
0000
0000
0000
,
0100
0000
0000
0000
,
0010
0000
0010
0000
,
0010
0000
0000
0000
,
1000
0000
0000
0000
,
0100
0000
0000
0000
,
0010
0000
0000
0000
,
0001
0000
0000
0000
,
0100
0000
0000
0000
,
0010
0000
0000
0000
,
1000
0000
0001
0000
,
1000
0000
0001
0000
,
1001
0000
0000
0000
,
1001
0000
0000
0000
,
0110
0000
0000
0000
,
0110
0000
0000
0000
,
0010
0000
0001
0000
,
0010
0000
1000
0000
,
0100
0000
0000
0000
,
0010
0000
0000
0000
,
0100
0000
0100
0000
,
0001
0001
0001
0000
,
1000
0000
0001
0000
,
1000
0000
0001
0000
,
0100
0000
0100
0000
,
0010
0010
0010
0000
,
1000
0000
0001
0000
,
1000
0000
0001
0000
,
0010
0000
0000
0000
,
0100
0000
0100
0000
,
0001
0000
1000
0000
,
0001
0000
1000
0000
,
0010
0000
0010
0000
,
0100
0000
0100
0000
,
0001
0000
1000
0000
,
0001
0000
1000
0000
,
0020
0000
0000
0000
,
0030
0000
0000
0000
,
0100
0000
0100
0000
,
0200
0000
0000
0300
,
0100
0000
0000
0000
,
0100
0000
0000
0000
,
0100
0000
0000
0000
,
0010
0010
0010
0000
,
1000
0000
0000
0000
,
1000
0000
0000
0000
,
0001
0000
0001
0000
,
1000
0000
1000
0000
,
0010
0000
0000
0000
,
0100
0000
0100
0000
,
0001
0000
0001
0000
,
2000
0000
0000
0000
,
3000
0000
0000
0000
,
0010
0000
0010
0000
,
0020
0000
0030
0000
,
1001
0000
1001
0000
,
2002
0000
3003
1001
;

//---------------dance-double - ----------------
#NOTEDATA:;
#CHARTNAME:;
#STEPSTYPE:dance-double;
#DESCRIPTION:;
#CHARTSTYLE:;
#DIFFICULTY:Easy;
#METER:5;
#RADARVALUES:0.265682,0.409067,0.175136,0.266874,0.000000,223.000000,202.000000,21.000000,32.000000,0.000000,0.000000,0.000000,0.000000,0.000000,0.265682,0.409067,0.175136,0.266874,0.000000,223.000000,202.000000,21.000000,32.000000,0.000000,0.000000,0.000000,0.000000,0.000000;
#CREDIT:;
#NOTES:
00000000
00000000
00000000
00000000
,
00000000
00000000
00000000
00000000
,
00000000
00000000
00000000
00000000
,
00000000
00000000
00000000
00000000
,
00000000
00000000
00000000
00000000
,
00100000
00000000
00000000
00000000
,
00010000
00000000
00000000
00000000
,
00001000
00000000
00000000
00000000
,
00000100
00000000
00000000
00000000
,
00001000
00000000
00000000
00000000
,
00010000
00000000
00000000
00000000
,
00002000
00000000
00010000
00000000
,
00020000
00000000
00033000
00000000
,
00100000
00100000
00100000
10010000
,
01000000
01000000
01000000
10010000
,
00100000
00100000
00100000
00011000
,
00000100
00000100
00000100
00001001
,
00000010
00000010
00000010
00001001
,
00000100
00000100
00000100
00011000
,
00020000
00030000
00002000
00003000
,
00000000
00020000
00000000
00000000
00031000
00000000
00000000
00000000
,
00200000
00300000
00020000
00030000
,
02000000
03000000
10000000
00000000
,
02000000
03000000
00020000
00030000
,
00200000
00300000
00001000
00010000
,
00000200
00000300
00002000
00003000
,
00000020
00000030
00000001
00000000
,
00000020
00000030
00002000
00003000
,
00000200
00000300
00010000
00001000
,
00100000
00010000
00100000
00010000
,
01000000
10000000
01000000
00000000
,
00010000
00001000
00010000
00001000
,
00000100
00001000
00000100
00000000
,
00000010
00000001
00000010
00000001
,
00000100
00001000
00000100
00000000
,
00010000
00001000
00010000
00001000
,
00100000
00010000
10010000
00000000
,
00200000
00010000
00010000
00310000
,
00002000
00010000
00010000
00013000
,
00000200
00001000
00001000
00001300
,
00020000
00030000
00002000
00003000
,
00100000
01000000
00100000
01000000
,
00010000
00100000
00002000
00003000
,
00011000
00000000
00000000
00000000
00000000
00001000
00010000
00000000
,
00011000
00000000
00000000
00000000
00000000
00010000
00001000
00000000
,
00011000
00000000
00011000
00000000
,
00010000
00000100
00001000
00000010
,
00000002
00000003
00000001
00000010
,
00000100
00001000
00002200
00003300
,
00000010
00001000
00000100
00010000
,
00001000
00010000
00011000
00000000
,
00010000
00100000
01000000
00100000
,
10000000
01000000
00100000
00000000
,
01000000
00010000
00010000
00000000
,
00100000
00001000
00001000
00000000
,
00011000
00000000
00011000
00000000
,
00010000
00000100
00001000
00000000
,
00000010
00001000
00000100
00000000
,
00010000
00001000
00100000
00000000
,
00010000
01000000
10000000
01000000
,
00010000
00000000
10000000
00000000
,
20020000
00000000
00000000
00000000
,
00000000
00000000
00000000
30030000
,
00100000
00000000
01000000
00000000
,
20020000
00000000
30030000
00000000
,
00100000
00100000
00100000
00000000
,
00001000
00001000
00001000
00000000
,
00010000
00010000
00010000
00000000
,
00000010
00000010
00000010
00000000
,
00000100
00000100
00000100
00000000
,
00000001
00000001
00000001
00000000
,
00000001
00000000
00000000
00001000
00000000
00000000
00000001
00000000
,
00001000
00000000
00000000
00000001
00000000
00000000
00001000
00000000
,
00000000
00000000
00000000
00011000
,
00001000
00000000
00010000
00000000
,
00001000
00000000
00010000
00000000
,
00002000
00000000
00000000
00000000
,
00003000
00000000
00000000
00000000
,
00100000
00000000
00010000
00000000
,
00002000
00000000
00000000
00003000
,
00011000
00000000
00011000
00000000
,
00010000
00001000
00010000
00011000
;

//---------------dance-single - ----------------
#NOTEDATA:;
#CHARTNAME:;
#STEPSTYPE:dance-single;
#DESCRIPTION:;
#CHARTSTYLE:;
#DIFFICULTY:Easy;
#METER:5;
#RADARVALUES:0.266874,0.409067,0.141777,0.191815,0.000000,224.000000,207.000000,17.000000,23.000000,0.000000,0.000000,0.000000,0.000000,0.000000,0.266874,0.409067,0.141777,0.191815,0.000000,224.000000,207.000000,17.000000,23.000000,0.000000,0.000000,0.000000,0.000000,0.000000;
#CREDIT:;
#NOTES:
0000
0000
0000
0000
,
0000
0000
0000
0000
,
0000
0000
0000
0000
,
0000
0000
0000
0000
,
0000
0000
0000
0000
,
1000
0000
0000
0000
,
0001
0000
0000
0000
,
1000
0000
0000
0000
,
0001
0000
0000
0000
,
0100
0000
0000
0000
,
0010
0000
0000
0000
,
0100
0000
0010
0000
,
2002
0000
3003
0000
,
0010
0010
0010
1001
,
0100
0100
0100
1001
,
0010
0010
0010
0110
,
1000
1000
1000
1001
,
0010
0001
0010
0001
,
0100
1000
0100
1000
,
0200
0300
0020
0030
,
0000
0002
0000
0000
1003
0000
0000
0000
,
0010
0000
1000
0000
,
0100
0001
1000
0000
,
0010
0000
0001
0000
,
0010
0001
1000
0000
,
0010
0000
1000
0000
,
0100
0001
1000
0000
,
0100
0001
1000
0000
,
0100
0010
0001
1000
,
0010
0001
0010
0001
,
0100
1000
0100
0000
,
1000
0010
1000
0010
,
0001
0100
0001
0000
,
0100
0010
0100
0010
,
0001
1000
0001
0000
,
0001
0000
1001
0000
,
1000
0001
1001
0000
,
2000
0001
0001
3001
,
0200
0010
0010
0310
,
0002
1000
1000
1003
,
0020
0100
0100
0130
,
0010
0100
0010
0100
,
0001
0010
0100
1000
,
1001
0000
0000
0000
0000
1000
0001
0000
,
1001
0000
0000
0000
0000
0001
1000
0000
,
1001
0000
0001
0000
,
0001
0010
0100
1000
,
2002
0000
3003
0000
,
0010
0100
0010
0000
,
0001
0001
1000
1000
,
0100
0100
0100
0000
,
0010
0010
0100
0000
,
0100
0100
0010
0000
,
1000
0100
0001
0100
,
1000
0010
0001
0000
,
0001
0000
1000
0000
,
0001
1000
0001
0000
,
0010
0010
0100
0100
,
0001
1000
0001
0000
,
0010
0000
0100
0000
,
0001
0100
1000
0100
,
2002
0000
0000
0000
,
0000
0000
0000
3003
,
0010
0000
0100
0000
,
2002
0000
3003
0000
,
0010
0010
0010
0000
,
1000
1000
1000
0000
,
0001
0001
0001
0000
,
0100
0100
0100
0000
,
0001
0100
0001
0000
,
1000
0100
1000
0000
,
0010
0000
0000
0100
0000
0000
0010
0000
,
1000
0000
0000
0001
0000
0000
1000
0000
,
0000
0000
0002
1003
,
2000
0000
3200
0000
,
0302
0000
0023
0000
,
0230
0000
0000
0000
,
0000
0000
0300
0000
,
0010
0000
0001
0000
,
2002
0000
3003
0000
,
1001
0000
1001
0000
,
0010
0010
0010
1001
;

//---------------dance-single - ----------------
#NOTEDATA:;
#CHARTNAME:;
#STEPSTYPE:dance-single;
#DESCRIPTION:;
#CHARTSTYLE:;
#DIFFICULTY:Challenge;
#METER:12;
#RADARVALUES:0.360994,0.647689,0.325252,0.316912,0.200155,303.000000,264.000000,39.000000,38.000000,344.000000,0.000000,0.000000,0.000000,0.000000,0.360994,0.647689,0.325252,0.316912,0.200155,303.000000,264.000000,39.000000,38.000000,344.000000,0.000000,0.000000,0.000000,0.000000;
#CREDIT:;
#NOTES:
// measure 0
0000
0000
0000
0000
,  // measure 1
0000
0000
0000
0000
,  // measure 2
0000
0000
0000
0000
,  // measure 3
0000
0000
0000
0000
,  // measure 4
0000
0000
0000
0000
,  // measure 5
MMMM
MMMM
MMMM
MMMM
,  // measure 6
MMMM
MMMM
MMMM
MMMM
,  // measure 7
MMMM
MMMM
MMMM
MMMM
,  // measure 8
MMMM
MMMM
MMMM
MMMM
,  // measure 9
MMMM
MMMM
MMMM
MMMM
,  // measure 10
MMMM
MMMM
MMMM
MMMM
,  // measure 11
0110
MMMM
1001
MMMM
,  // measure 12
0110
MMMM
1001
MMMM
,  // measure 13
0100
0010
0100
0010
0100
0000
MMMM
MMMM
,  // measure 14
0001
1000
0001
1000
0001
0000
MMMM
MMMM
,  // measure 15
0010
0100
0010
0100
0010
0000
MMMM
MMMM
,  // measure 16
1000
0001
1000
0001
2000
0000
3002
0000
,  // measure 17
0103
0010
1000
0010
0000
0000
MMMM
MMMM
,  // measure 18
0001
0100
0010
0100
0001
0000
MMMM
MMMM
,  // measure 19
1000
0000
0000
1000
0000
0000
1000
0000
0001
0000
0000
0001
0000
0000
0001
0000
,  // measure 20
0000
0100
0010
0100
0010
0100
0010
0000
0000
MMMM
0000
0000
,  // measure 21
2000
3010
0200
0301
,  // measure 22
0020
0100
0130
MMMM
,  // measure 23
0002
0013
2000
3100
,  // measure 24
0020
0100
0130
MMMM
,  // measure 25
2000
3001
0020
0130
,  // measure 26
0002
0010
0103
MMMM
,  // measure 27
2000
3100
0002
0103
,  // measure 28
0010
0100
1001
MMMM
,  // measure 29
1000
0000
0000
0001
0000
0000
1000
0000
0010
0000
0000
0100
0000
0000
0010
0000
,  // measure 30
1000
0000
0000
0100
0000
0000
0010
0000
0001
0000
0000
0000
MMMM
0000
0000
0000
,  // measure 31
0001
0000
0000
1000
0000
0000
0001
0000
0100
0000
0000
0010
0000
0000
0100
0000
,  // measure 32
0001
0000
0000
0010
0000
0000
0100
0000
1000
0000
0000
0000
MMMM
0000
0000
0000
,  // measure 33
1000
0000
0000
0100
0000
0000
1000
0000
0001
0000
0000
0100
0000
0000
0001
0000
,  // measure 34
1000
0000
0000
0010
0000
0000
0100
0000
0001
0000
0000
0000
MMMM
0000
0000
0000
,  // measure 35
0001
0000
0000
0010
0000
0000
0001
0000
1000
0000
0000
0010
0000
0000
1000
0000
,  // measure 36
0001
0000
0000
0100
0000
0000
0010
0000
1000
0000
0000
0000
MMMM
0000
0000
0000
,  // measure 37
0200
0010
0001
0320
,  // measure 38
2030
0100
0010
3002
,  // measure 39
0010
0100
2003
3020
,  // measure 40
0230
0001
0010
1300
,  // measure 41
1001
0110
1100
0110
,  // measure 42
0011
0110
2002
3003
,  // measure 43
1001
0000
1000
0000
0001
0000
1000
0001
0000
0000
0000
0000
MMMM
0000
0000
0000
,  // measure 44
1001
0000
0001
0000
1000
0000
0001
1000
0000
0000
0000
0000
MMMM
0000
0000
0000
,  // measure 45
0110
0000
0000
0010
0000
0000
0010
0000
1001
0000
0000
1000
0000
0000
1000
0000
,  // measure 46
1100
0110
0011
1001
,  // measure 47
0110
0000
0000
0000
MMMM
0000
0000
0000
0001
0000
0000
0001
0000
0000
0001
0000
,  // measure 48
1000
0000
0000
1000
0000
0000
1000
0000
0010
0000
0000
0000
MMMM
0000
0000
0000
,  // measure 49
0100
0000
0000
0100
0000
0000
0100
0000
0001
0000
0000
0001
0000
0000
1000
0000
,  // measure 50
0010
0100
1001
MMMM
,  // measure 51
2000
3001
0002
1003
,  // measure 52
0020
0130
1001
MMMM
,  // measure 53
1000
0100
1000
0000
0001
0100
0001
0000
,  // measure 54
1001
0110
1001
MMMM
,  // measure 55
1001
0000
0000
0000
MMMM
0000
1000
0000
0001
0000
0000
0010
0000
0000
0100
0000
,  // measure 56
0001
0000
0000
0010
0000
0000
0100
0000
1000
0000
0000
0000
MMMM
0000
0000
0000
,  // measure 57
1000
0000
0000
0010
0000
0000
0100
0000
0001
0000
0000
0100
0000
0000
0010
0000
,  // measure 58
1000
0101
1001
MMMM
,  // measure 59
0001
0000
0000
0100
0000
0000
0001
0000
1000
0000
0000
0100
0000
0000
1000
0000
,  // measure 60
0010
0000
0000
0100
0000
0000
0010
0000
0001
0000
0000
0100
0000
0000
2000
0000
,  // measure 61
0002
0000
0000
0000
,  // measure 62
0000
0000
0000
3003
,  // measure 63
0110
0000
0000
0010
0000
0000
0010
0000
1001
0000
0000
0001
0000
0000
0002
0000
,  // measure 64
2000
0000
3003
MMMM
,  // measure 65
MMMM
MMMM
MMMM
MMMM
,  // measure 66
MMMM
MMMM
MMMM
MMMM
,  // measure 67
MMMM
MMMM
MMMM
MMMM
,  // measure 68
MMMM
MMMM
MMMM
MMMM
,  // measure 69
MMMM
MMMM
MMMM
MMMM
,  // measure 70
MMMM
MMMM
MMMM
MMMM
,  // measure 71
0110
0000
0000
0010
0000
0000
0110
0000
0000
0100
0000
0000
0110
0000
0010
0000
,  // measure 72
0011
0000
0000
0001
0000
0000
0101
0000
0000
0100
0000
0000
1100
0000
1001
0000
,  // measure 73
MMMM
MMMM
MMMM
2001
,  // measure 74
3020
0000
0230
0000
,  // measure 75
0302
0000
0023
0000
,  // measure 76
2030
0000
0000
0000
,  // measure 77
0000
0000
0000
3000
,  // measure 78
0020
0000
0230
0000
,  // measure 79
0302
0000
0000
0003
,  // measure 80
0100
0010
0100
0010
0000
0000
1000
0001
1000
0001
0000
0000
,  // measure 81
0001
0010
0100
1000
0100
0010
0001
0000
0000
MMMM
0000
0000
;

//---------------dance-double - ----------------
#NOTEDATA:;
#CHARTNAME:;
#STEPSTYPE:dance-double;
#DESCRIPTION:;
#CHARTSTYLE:;
#DIFFICULTY:Challenge;
#METER:11;
#RADARVALUES:0.296658,0.477245,0.266874,0.225175,0.066718,249.000000,217.000000,32.000000,27.000000,536.000000,0.000000,0.000000,0.000000,0.000000,0.296658,0.477245,0.266874,0.225175,0.066718,249.000000,217.000000,32.000000,27.000000,536.000000,0.000000,0.000000,0.000000,0.000000;
#CREDIT:;
#NOTES:
00000000
00000000
00000000
00000000
,
00000000
00000000
00000000
00000000
,
00000000
00000000
00000000
00000000
,
00000000
00000000
00000000
00000000
,
00000000
00000000
00000000
00000000
,
MMMMMMMM
00000000
MMMMMMMM
00000000
,
MMMMMMMM
00000000
MMMMMMMM
00000000
,
MMMMMMMM
00000000
MMMMMMMM
00000000
,
MMMMMMMM
00000000
MMMMMMMM
00000000
,
MMMMMMMM
00000000
MMMMMMMM
00000000
,
MMMMMMMM
00000000
MMMMMMMM
00000000
,
00022000
00000000
00000000
00000000
,
00000000
00000000
00033000
MMMMMMMM
,
00100000
00010000
00100000
00000000
00110000
00000000
MMMMMMMM
00000000
,
00001000
00000100
00001000
00000000
00001100
00000000
MMMMMMMM
00000000
,
00001000
00010000
00001000
00000000
00011000
00000000
MMMMMMMM
00000000
,
00010000
00001000
00010000
00000000
00011000
00000000
MMMMMMMM
00000000
,
00100000
00001000
00100000
00000000
00101000
00000000
MMMMMMMM
00000000
,
00010000
00000100
00010000
00000000
00010100
00000000
MMMMMMMM
00000000
,
00001000
00000000
00000000
00001000
00000000
00000000
00001000
00000000
00100000
00000000
00000000
00100000
00000000
00000000
00100000
00000000
,
00000000
00020000
00000000
00000000
10030000
00000000
MMMMMMMM
00000000
,
01000000
00100000
01000000
00100000
,
10000000
00000000
00000000
10000000
00000000
00000000
10000000
00000000
00010000
00000000
00000000
00000000
MMMMMMMM
00000000
00000000
00000000
,
00100000
00100000
00001000
00001000
,
00010000
00000000
00000000
00010000
00000000
00000000
00010000
00000000
00000100
00000000
00000000
00000000
MMMMMMMM
00000000
00000000
00000000
,
00001000
00001000
00000001
00000001
,
00000010
00000000
00000000
00000010
00000000
00000000
00000010
00000000
00000100
00000000
00000000
00000000
MMMMMMMM
00000000
00000000
00000000
,
00000010
00000010
00001000
00001000
,
00000100
00000000
00000000
00000100
00000000
00000000
00010000
00000000
00001000
00000000
00000000
00000000
MMMMMMMM
00000000
00000000
00000000
,
00010000
00001000
00010000
00001000
,
00010000
00000000
00000000
00010000
00000000
00000000
00001000
00000000
00100000
00000000
00000000
00000000
MMMMMMMM
00000000
00000000
00000000
,
00100000
00100000
01000000
01000000
,
10000000
00000000
00000000
10000000
00000000
00000000
10000000
00000000
00010000
00000000
00000000
00000000
MMMMMMMM
00000000
00000000
00000000
,
00100000
00100000
00001000
00001000
,
00010000
00000000
00000000
00010000
00000000
00000000
00010000
00000000
00000100
00000000
00000000
00000000
MMMMMMMM
00000000
00000000
00000000
,
00001000
00001000
00000010
00000010
,
00000100
00000000
00000000
00000010
00000000
00000000
00000100
00000000
00000010
00000000
00000000
00000000
MMMMMMMM
00000000
00000000
00000000
,
00000020
00000100
00000100
00002030
,
00003200
00010000
00010000
00020300
,
00032000
01000000
01000000
02003000
,
03020000
00100000
00100000
00130000
,
10000000
11000000
00010000
01010000
,
01000000
01100000
01010000
00000000
,
00022000
00000000
00033000
MMMMMMMM
,
00022000
00000000
00033000
MMMMMMMM
,
00011000
00000000
00011000
00000000
,
00001100
00000110
00001010
00001001
,
00000011
MMMMMMMM
00000010
00000100
,
00000010
00001000
00000100
00000000
00001010
00000000
MMMMMMMM
00000000
,
00000100
00010000
00001000
00100000
,
00010000
01000000
10010000
MMMMMMMM
,
10000000
01000000
00010000
00000000
00100000
00000000
00001000
00000000
,
00010000
00000100
00001000
00000000
00000100
00000000
MMMMMMMM
00000000
,
00000100
00000010
00000100
00000000
00000001
00000000
00001000
00000000
,
00000010
00001000
00000010
00000000
00001100
00000000
MMMMMMMM
00000000
,
00010100
MMMMMMMM
00001000
00010000
,
00001000
00100000
00010000
00000000
00110000
00000000
MMMMMMMM
00000000
,
00100000
00010000
00001000
00000000
00010000
00000000
00001000
00000000
,
00010000
00000100
00001100
MMMMMMMM
,
00000100
00010000
00001000
00010000
,
00100000
00001000
00010000
00001000
,
00020000
00000000
00000000
00000000
,
00000000
00000000
00000000
00030000
,
00011000
00000000
00000000
00010000
00000000
00000000
00001000
00000000
00010000
00000000
00000000
00000100
00000000
00000000
00001000
00000000
,
00000020
00000000
00000000
00000030
,
MMMMMMMM
MMMMMMMM
MMMMMMMM
MMMMMMMM
,
MMMMMMMM
MMMMMMMM
MMMMMMMM
MMMMMMMM
,
MMMMMMMM
MMMMMMMM
MMMMMMMM
MMMMMMMM
,
MMMMMMMM
MMMMMMMM
MMMMMMMM
MMMMMMMM
,
MMMMMMMM
MMMMMMMM
MMMMMMMM
MMMMMMMM
,
MMMMMMMM
MMMMMMMM
MMMMMMMM
MMMMMMMM
,
00011000
00000000
00000000
00001000
00000000
00000000
00100000
00000000
00000000
00001000
00000000
00000000
00010000
00000000
00000100
00000000
,
00001000
00000000
00000000
00000010
00000000
00000000
00001000
00000000
00000000
00000010
00000000
00000000
00010000
00000000
00001000
00000000
,
MMMMMMMM
MMMMMMMM
MMMMMMMM
MMMMMMMM
,
00021000
00000000
00030200
00000000
,
00002300
00000000
00003020
00000000
,
00000032
00000000
00000000
00000000
,
00002003
00000000
00000000
00000000
,
00003200
00000000
00020300
00000000
,
00032000
00000000
00000000
00000000
,
01003000
01100000
00100000
10010000
,
02200000
00000000
03300000
MMMMMMMM
;

//---------------dance-double - ----------------
#NOTEDATA:;
#CHARTNAME:;
#STEPSTYPE:dance-double;
#DESCRIPTION:;
#CHARTSTYLE:;
#DIFFICULTY:Hard;
#METER:13;
#RADARVALUES:0.523024,0.681778,0.366951,0.600465,0.408650,439.000000,395.000000,44.000000,72.000000,0.000000,0.000000,0.000000,0.000000,0.000000,0.523024,0.681778,0.366951,0.600465,0.408650,439.000000,395.000000,44.000000,72.000000,0.000000,0.000000,0.000000,0.000000,0.000000;
#CREDIT:;
#NOTES:
00000000
00000000
00000000
00000000
,
00000000
00000000
00000000
00000000
,
00000000
00000000
00000000
00000000
,
00000000
00000000
00000000
00000000
,
00000000
00000000
00000000
00000000
,
00200000
00010000
00000000
00310000
,
00002000
00010000
00000000
00013000
,
00000200
00001000
00000000
00001300
,
00020000
00001000
00000000
00031000
,
00200000
00010000
00000000
00310000
,
02000000
10000000
00000000
13000000
,
10010000
00000000
00000000
00100000
00000000
00000000
01000000
00000000
10010000
00000000
00000000
01000000
00000000
00000000
00100000
00000000
,
20020000
00000000
00000000
30030000
02200000
00000000
03300000
00000000
,
10000000
00000000
01000000
00000000
00100000
00000000
00000000
00010000
00000000
01000000
00000000
00000000
00110000
00000000
00000000
00000000
,
00100000
00000000
00001000
00000000
00010000
00000000
00000000
00010000
00000000
00000100
00000000
00000000
00011000
00000000
00000000
00000000
,
00010000
00000000
00000010
00000000
00000100
00000000
00000000
00001000
00000000
00000001
00000000
00000000
00001001
00000000
00000000
00000000
,
00000010
00000000
00000100
00000000
00000010
00000100
00000000
00000010
00000000
00000000
00001000
00000000
00000100
00000000
00000001
00000000
,
00000100
00000000
00000010
00000000
00000100
00000000
00000000
00000010
00000000
00001000
00000000
00000000
00000100
00000000
00010000
00000000
,
00001000
00000000
00010000
00000000
00001000
00000000
00000000
00010000
00000000
00001000
00000000
00000000
00100000
00000000
00010000
00000000
,
01000000
00000000
00000000
01000000
00000000
00000000
00100000
00000000
00001000
00000000
00000000
00001000
00000000
00000000
00010000
00000000
,
00000000
00001000
00010000
00001000
00010000
00001000
00022000
00000000
00000000
00033000
00000000
00000000
,
00020000
00000000
00000000
00000100
00000000
00000000
00030100
00000000
00000200
00000000
00000000
00001000
00000000
00000000
00001300
00000000
,
00002000
00000000
00000000
00000010
00000000
00000000
00003010
00000000
00000020
00000000
00000000
00000000
00000130
00000000
00000000
00000000
,
00000002
00000000
00000000
00000100
00000000
00000000
00000103
00000000
00000200
00000000
00000000
00000010
00000000
00000000
00000310
00000000
,
00000020
00000000
00000000
00010000
00000000
00000000
00010030
00000000
00020000
00000000
00000000
00000000
00030200
00000000
00000000
00000000
,
00020300
00000000
00000000
00001000
00000000
00000000
00032000
00000000
01000000
00000000
00000000
01000000
00000000
00000000
02003000
00000000
,
00010000
00000000
00000000
00010000
00000000
00000000
03010000
00000000
00100000
00000000
00000000
00000000
10010000
00000000
00000000
00000000
,
20000000
00000000
00000000
01000000
00000000
00000000
31000000
00000000
02000000
00000000
00000000
00100000
00000000
00000000
03100000
00000000
,
00200000
00000000
00000000
00001000
00000000
00000000
00301000
00000000
00010000
00000000
00000000
00000000
00011000
00000000
00000000
00000000
,
00010000
00000000
00000000
00000100
00000000
00000000
00010000
00000000
00001000
00000000
00000000
00100000
00000000
00000000
00001000
00000000
,
00010000
00000000
00000000
00000010
00000000
00000000
00010000
00000000
00002000
00000000
00000000
00000000
00023000
00000000
00000000
00000000
,
00030100
00000000
00000000
00001000
00000000
00000000
00000100
00000000
00000001
00000000
00000000
00000010
00000000
00000000
00000001
00000000
,
00000100
00000000
00000000
00010000
00000000
00000000
00000100
00000000
00010000
00000000
00000000
00000000
00001000
00000000
00000000
00000000
,
00100000
00000000
00000000
00010000
00000000
00000000
00100000
00000000
10000000
00000000
00000000
01000000
00000000
00000000
10000000
00000000
,
00100000
00000000
00000000
00001000
00000000
00000000
00100000
00000000
00010000
00000000
00000000
00000000
00011000
00000000
00000000
00000000
,
00010100
00000000
00000000
00010100
00000000
00000000
00000100
00000000
00001100
00000000
00000000
00001100
00000000
00000000
00001000
00000000
,
00001010
00000000
00000000
00001010
00000000
00000000
00000010
00000000
00002002
00000000
00000000
00000000
00003003
00000000
00000000
00000000
,
00000002
00000100
00000100
00000103
,
00002010
00000100
00000100
00003100
,
00020100
00001000
00000100
00031000
,
00012000
00000000
00000000
00000000
00013000
00000000
00000000
00000000
00001000
00000000
00000000
00010000
00000000
00000000
00002000
00000000
,
00100000
00000000
00000000
00100000
00000000
00000000
00203000
00000000
00010000
00000000
00000000
00000000
00310000
00000000
00000000
00000000
,
00100000
01000000
10010000
00000000
,
10000000
00000000
01000000
00000000
00010000
00000000
00000000
10010000
00000000
00000000
00100000
00000000
01000000
00000000
00000000
00000000
,
00010000
00000000
00100000
00000000
00001000
00000000
00000000
00010000
00000000
00000000
00001000
00000000
00010000
00000000
00000000
00000000
,
00000100
00000000
00000000
00001000
00000000
00000000
00000100
00000000
00000100
00000000
00000000
00000010
00000000
00000000
00000100
00000000
,
00001100
00001100
00001100
00000110
,
00000102
00000000
00000000
00000000
00000000
00000000
00001003
00000000
00000020
00000000
00000000
00000130
00000000
00000000
00001000
00000000
,
00000200
00000000
00000000
00010300
00000000
00000000
00001000
00000000
00020000
00000000
00000000
00000000
00031000
00000000
00000000
00000000
,
00002000
00000000
00000000
00103000
00000000
00000000
00020000
00000000
00100000
00000000
00000000
00230000
00000000
00000000
01300000
00000000
,
01100000
10100000
10010000
01100000
,
20000000
00000000
00000000
01000000
00000000
00000000
01000000
00000000
32000000
00000000
00000000
00000000
03200000
00000000
00000000
00000000
,
00302000
00000000
00000000
00010000
00000000
00000000
00010000
00000000
00023000
00000000
00000000
00000000
00030100
00000000
00000000
00000000
,
00001000
00000000
00000100
00000000
00001000
00000000
00000100
00010000
00000000
00010000
00000100
00000000
00001000
00000000
00000100
00000000
,
00000010
00000000
00000000
00000001
00000000
00000000
00000100
00000000
00001000
00000000
00000000
00000000
00001001
00000000
00000000
00000000
,
00002200
00000000
00000000
00000000
00003300
00000000
00000010
00000000
00000200
00000000
00000000
00001000
00000300
00000000
00000010
00000000
,
00000002
00000000
00000000
00000103
00000000
00000000
00001000
00000000
00000200
00000000
00000000
00000000
00010300
00000000
00000000
00000000
,
00001000
00000000
00000000
00100000
00000000
00000000
00010000
00000000
01000000
00000000
00000000
00100000
00000000
00000000
01000000
00000000
,
00020000
20030000
30200000
01300000
,
10000000
00000000
00000000
10000000
00000000
00000000
20000000
00000000
00100000
00000000
00000000
00000000
00100000
00000000
00000000
00000000
,
30200000
00000000
00000000
01000000
00000000
00000000
01000000
00000000
02300000
00000000
00000000
00010000
00000000
00000000
03020000
00000000
,
00100000
00100000
00000000
00100000
00100000
00000000
00130000
00000000
,
02000000
00100000
00000000
00100000
00100000
00000000
03100000
00000000
,
10010000
00000000
00000000
10010000
00000000
00000000
01000000
00000000
01100000
00000000
00000000
01100000
00000000
00000000
00100000
00000000
,
00220000
00000000
00000000
00330000
,
01000000
00000000
00100000
00000000
01000000
00000000
00000000
00100000
00000000
01000000
00000000
00100000
01000000
00000000
00000000
00000000
,
00100000
00000000
00001000
00000000
00100000
00000000
00000000
00001000
00000000
00100000
00000000
00001000
00100000
00000000
00000000
00000000
,
00010000
00000000
00000100
00000000
00010000
00000000
00000000
00000100
00000000
00010000
00000000
00000100
00010000
00000000
00000000
00000000
,
00001000
00000000
00001000
00000000
00010000
00001000
00000000
00001000
00000000
00000000
00010000
00000000
00010100
00000000
00000000
00000000
,
00001000
00000000
00000100
00000000
00001000
00000000
00000000
00000100
00000000
00001000
00000000
00000000
00000100
00000000
00001000
00000000
,
00000010
00000000
00000100
00000000
00000010
00000000
00000000
00000100
00000000
00000010
00000000
00000000
00000100
00000000
00000010
00000000
,
00000100
00000000
00000000
00000001
00000000
00000000
00000100
00000000
00000000
00001000
00000000
00000000
00000100
00000000
00010000
00000000
,
00001000
00000000
00000000
00100000
00000000
00000000
00001000
00000000
00000000
00100000
00000000
00000000
00010000
00000000
01000000
00000000
,
10010000
00000000
00000000
00000000
00000000
00000000
00000000
00000000
01000000
00100000
01000000
00000000
10010000
00000000
00000000
00000000
,
20000000
00000000
30200000
00000000
,
00302000
00000000
00023000
00000000
,
00030200
00000000
00000000
00001000
00000000
00010000
00000000
00001000
,
00002000
00000000
00000000
00003300
,
00001100
00000000
00000000
00000100
00000000
00000000
00000100
00000000
00010000
00000000
00000000
00001000
00000000
00000000
00020000
00000000
,
00002000
00000000
00000000
00033000
,
00010000
00001000
00010000
00001000
00000000
00000000
00010000
00001000
00010000
00001000
00000000
00000000
,
00001000
00010000
00001000
00010000
00001000
00010000
00001000
00000000
00000000
00011000
00000000
00000000
;

//---------------dance-single - ----------------
#NOTEDATA:;
#CHARTNAME:;
#STEPSTYPE:dance-single;
#DESCRIPTION:;
#CHARTSTYLE:;
#DIFFICULTY:Hard;
#METER:13;
#RADARVALUES:0.583786,0.681778,0.366951,0.592126,0.542087,490.000000,446.000000,44.000000,71.000000,0.000000,0.000000,0.000000,0.000000,0.000000,0.583786,0.681778,0.366951,0.592126,0.542087,490.000000,446.000000,44.000000,71.000000,0.000000,0.000000,0.000000,0.000000,0.000000;
#CREDIT:;
#NOTES:
0000
0000
0000
0000
,
0000
0000
0000
0000
,
0000
0000
0000
0000
,
0000
0000
0000
0000
,
0000
0000
0000
0000
,
0020
0001
0000
0130
,
0200
1000
0000
0310
,
2000
0001
0000
3010
,
0002
1000
0000
0103
,
0110
0200
0000
0310
,
1001
0002
0000
1003
,
2001
0000
0000
0001
0000
0000
3002
0000
0100
0000
0000
0100
0000
0000
0103
0000
,
0220
0000
0000
0000
0000
0330
1000
0100
1000
0000
0000
0000
0022
0000
0033
0000
,
0100
0000
0100
0000
0100
0000
0000
1000
0000
0001
0000
0000
1000
0000
0001
0000
,
0010
0000
0010
0000
0010
0000
0000
0001
0000
1000
0000
0000
0001
0000
1000
0000
,
0001
0000
0001
0000
0001
0000
0000
0100
0000
0100
0000
0000
1000
0000
0100
0000
,
1000
0000
1000
0000
1000
0100
0000
0010
0000
0000
1000
0000
0001
0000
0100
0000
,
0010
0000
0010
0000
0010
0000
0000
0100
0000
0100
0000
0000
1000
0000
0001
0000
,
0100
0000
0100
0000
0100
0000
0000
0010
0000
0010
0000
0000
0001
0000
1000
0000
,
0100
0000
0000
0010
0000
0000
0001
0000
1000
0000
0000
0100
0000
0000
0010
0000
,
0000
0001
1000
0001
1000
0001
2000
0000
0000
3001
0000
0000
,
0020
0000
0000
0001
0000
0000
0031
0000
0002
0000
0000
0100
0000
0000
0103
0000
,
0200
0000
0000
0010
0000
0000
0310
0000
0020
0000
0000
0000
2030
0000
0000
0000
,
3200
0000
0000
1000
0000
0000
1300
0000
2000
0000
0000
0010
0000
0000
3010
0000
,
0020
0000
0000
0100
0000
0000
0130
0000
0200
0000
0000
0000
0302
0000
0000
0000
,
0023
0000
0000
1000
0000
0000
1030
0000
0200
0000
0000
0001
0000
0000
0301
0000
,
0010
0000
0000
0001
0000
0000
0100
0000
0002
0000
0000
0000
2003
0000
0000
0000
,
3200
0000
0000
1000
0000
0000
1300
0000
0002
0000
0000
0010
0000
0000
0013
0000
,
0010
0000
0000
0000
0000
0000
0000
0000
0000
0001
0000
0000
0000
0000
0000
0000
0000
0000
0100
0000
0000
0000
0000
0000
1000
0000
0000
0000
0001
0000
0000
0000
1000
0000
0000
0000
0001
0000
0000
0000
0000
0000
0000
0000
0000
0000
0000
0000
,
0010
0000
0100
0010
0000
0100
0010
0000
1000
0000
0000
0100
0000
0000
1000
0000
,
0001
0000
0000
0100
0000
0000
0001
0000
0200
0000
0000
0000
0310
0000
0000
0000
,
0100
0000
0010
0100
0000
0010
0100
0000
0001
0000
0000
0010
0000
0000
0001
0000
,
0100
0000
0000
0010
0000
0000
0100
0000
0010
0000
0000
0000
1001
0000
0000
0000
,
1000
0000
0010
1000
0000
0010
1000
0000
0010
0000
0000
0100
0000
0000
0010
0000
,
0100
0000
0000
0001
0000
0000
0100
0000
0002
0000
0000
0000
0013
0000
0000
0000
,
1001
0000
0000
1001
0000
0000
1000
0000
1100
0000
0000
1100
0000
0000
0100
0000
,
0110
0000
0000
0110
0000
0000
0010
0000
2002
0000
0000
0000
3003
0000
0000
0000
,
1020
1000
0100
0000
0100
0000
0130
0000
,
0201
0001
0010
0000
0010
0000
0300
0000
,
1020
1000
0100
0000
0100
0000
0130
0000
,
2002
0000
0003
0000
0002
0000
0003
0000
3001
0000
0000
0010
0000
0000
0100
0000
,
0001
0000
0000
0000
0010
0100
0000
0000
0100
0010
0000
0000
0010
0100
0000
0000
,
1000
0100
0000
0000
0100
1000
0000
0000
2000
0000
0100
0000
3100
0000
0000
0000
,
0110
0000
0010
0000
0100
0000
0010
0100
0000
0000
0010
0000
0110
0000
0000
0000
,
1001
0000
1000
0000
0001
0000
1000
0001
0000
0000
1000
0000
1001
0000
0000
0000
,
0110
0000
0000
0110
0000
0000
0100
0000
1100
0000
0000
1100
0000
0000
1000
0000
,
1000
0010
0000
0000
0010
0001
0000
0000
0001
0100
0000
0000
0110
0000
0000
0000
,
2001
0000
0000
0000
0000
0000
0010
0000
3010
0000
0000
0010
0000
0000
0100
0000
,
0001
0000
0000
0001
0000
0000
1000
0000
0200
0000
0000
0000
0310
0000
0000
0000
,
2000
0000
0000
0100
3000
0000
0100
0000
0020
0000
0000
0001
0030
0000
0001
0000
,
0100
0001
0000
0000
0001
0010
0000
0000
0010
1000
0000
0000
1001
0000
0000
0000
,
0002
0000
0000
0010
0003
0000
0010
0000
0001
0000
0000
0010
0100
0000
0000
0000
,
2000
0000
0000
0010
3000
0000
0010
0000
0200
0000
0010
0000
0310
0000
0000
0000
,
0001
0000
1000
0000
0001
0000
1000
0001
0000
0000
0010
0000
0100
0000
0010
0000
,
1000
0000
0000
0100
0000
0000
0001
0000
1001
0000
0000
0000
0110
0000
0000
0000
,
0002
0000
1000
0000
0000
1000
0000
0000
0203
0000
0000
0010
0000
0000
0010
0000
,
0302
0000
0000
0100
0000
0000
0100
0000
0203
0000
0000
0000
0310
0000
0000
0000
,
0020
0000
0000
1000
0030
0000
1000
0000
2000
0000
0000
0001
3000
0000
0001
0000
,
0001
0100
0000
0000
0100
0001
0000
0000
0001
0010
0000
0000
0110
0000
0000
0000
,
0002
0000
0000
0010
0000
0000
0013
0000
0020
0000
0000
0000
0230
0000
0000
0000
,
0320
0000
0000
1000
0000
0000
2030
0000
0100
0000
0000
0100
0000
0000
3200
0000
,
0010
0000
0010
0010
0010
0000
0010
0000
,
0310
0100
0010
0100
0010
0000
0110
0000
,
1100
0000
0000
0100
0000
0000
0100
0000
0101
0000
0000
0001
0000
0000
0010
0000
,
0220
0000
0330
1001
,
1000
0000
0100
1000
0000
0100
0000
1000
0000
0100
0000
1000
0100
0000
0010
0000
,
0001
0000
0100
0001
0000
0100
0000
0001
0000
0100
0000
0001
0100
0000
0010
0000
,
0100
0000
0010
0100
0000
0010
0000
0100
0000
0010
0000
0100
0010
0000
0001
0000
,
0100
0000
0010
0000
1000
0100
0000
0010
0000
0000
0001
0000
1000
0000
0010
0000
,
0100
0000
0010
0100
0000
0010
0000
0100
0000
0010
0000
0100
0001
0000
0010
0000
,
1000
0000
0100
1000
0000
0100
0000
1000
0000
0100
0000
1000
0100
0000
0010
0000
,
1001
0000
0000
0001
0000
0000
0001
0000
0000
0001
0000
0000
1001
0000
1000
0000
,
1100
0000
0000
0100
0000
0000
0100
0000
0000
0100
0000
0000
0010
0000
0110
0000
,
1001
0000
0000
0000
0000
0000
0000
0000
0010
0100
0010
0000
1001
0000
0000
0000
,
2000
3100
0020
0031
,
0200
0310
0002
1003
,
0200
0000
0000
0010
0000
0010
0000
0010
,
0020
0000
0000
0330
,
2000
0000
0000
3100
0000
0000
0000
0000
0002
0000
0000
0103
0000
0000
0000
0000
,
0220
0000
0000
0330
,
0001
1000
0001
1000
0000
0000
1000
0001
1000
0001
0000
0000
,
0010
0100
0010
0100
0010
0100
0010
0000
0000
1001
0000
0000
;

//---------------dance-double - ----------------
#NOTEDATA:;
#CHARTNAME:;
#STEPSTYPE:dance-double;
#DESCRIPTION:;
#CHARTSTYLE:;
#DIFFICULTY:Medium;
#METER:9;
#RADARVALUES:0.378865,0.477245,0.325252,0.358611,0.125097,318.000000,279.000000,39.000000,43.000000,0.000000,0.000000,0.000000,0.000000,0.000000,0.378865,0.477245,0.325252,0.358611,0.125097,318.000000,279.000000,39.000000,43.000000,0.000000,0.000000,0.000000,0.000000,0.000000;
#CREDIT:;
#NOTES:
00000000
00000000
00000000
00000000
,
00000000
00000000
00000000
00000000
,
00000000
00000000
00000000
00000000
,
00000000
00000000
00000000
00000000
,
00000000
00000000
00000000
00000000
,
00200000
00000000
00000000
00310000
,
00002000
00000000
00000000
00013000
,
00200000
00000000
00000000
00301000
,
00020000
00000000
00000000
00030010
,
00002000
00000000
00000000
00003100
,
00020000
00000000
00000000
00031000
,
00011000
00000000
00011000
00000000
,
00020000
00000000
00000000
00000000
00002000
00033000
00011000
00000000
,
00010000
00001000
00010000
00000000
00001000
00000000
00101000
00000000
,
00100000
00010000
00100000
00000000
00100000
00000000
00110000
00000000
,
00010000
01000000
00010000
00000000
01000000
00000000
01010000
00000000
,
00100000
10000000
01000000
00000000
01000000
00010000
00100000
00000000
,
00100000
00010000
00100000
00000000
00100000
00000000
00101000
00000000
,
00010000
00001000
00010000
00000000
00010000
00000000
00011000
00000000
,
00000100
00000000
00000000
00000100
00000000
00000000
00000000
00000000
00010000
00000000
00000000
00010000
00000000
00000000
00000000
00000000
,
00000000
00002000
00000000
00000000
00013000
00000000
00000000
00000000
,
00001000
00000000
00000000
00001000
00000000
00000000
00000000
00000000
00100000
00000000
00000000
00100000
00000000
00000000
00000000
00000000
,
00010000
00000000
00000000
00010000
00000000
00000000
00000000
00000000
10000000
00000000
00000000
00000000
00000000
00000000
00000000
00000000
,
01000000
00000000
00000000
01000000
00000000
00000000
00000000
00000000
00100000
00000000
00000000
00100000
00000000
00000000
00000000
00000000
,
00001000
00000000
00000000
00001000
00000000
00000000
00000000
00000000
00010000
00000000
00000000
00000000
00000000
00000000
00000000
00000000
,
00000010
00000000
00000000
00000010
00000000
00000000
00000000
00000000
00001000
00000000
00000000
00001000
00000000
00000000
00000000
00000000
,
00000001
00000000
00000000
00000001
00000000
00000000
00000000
00000000
00000100
00000000
00000000
00000000
00000000
00000000
00000000
00000000
,
00000010
00000000
00000000
00000010
00000000
00000000
00000000
00000000
00010000
00000000
00000000
00010000
00000000
00000000
00000000
00000000
,
00001000
00000000
00000000
00001000
00000000
00000000
00000000
00000000
01000000
00000000
00000000
00000000
01100000
00000000
00000000
00000000
,
10000000
00000000
00000000
10000000
00000000
00000000
10000000
00000000
01000000
00000000
00000000
00000000
00100000
00000000
00000000
00000000
,
00010000
00000000
00000000
00010000
00000000
00000000
00010000
00000000
01000000
00000000
00000000
00000000
00100000
00000000
00000000
00000000
,
00001000
00000000
00000000
00001000
00000000
00000000
00001000
00000000
00010000
00000000
00000000
00000000
00000010
00000000
00000000
00000000
,
00001000
00000000
00000000
00001000
00000000
00000000
00001000
00000000
00000100
00000000
00000000
00000000
00000010
00000000
00000000
00000000
,
00000001
00000000
00000000
00000001
00000000
00000000
00000001
00000000
00000100
00000000
00000000
00000000
00000010
00000000
00000000
00000000
,
00000100
00000000
00000000
00000100
00000000
00000000
00000100
00000000
00010000
00000000
00000000
00000000
00001000
00000000
00000000
00000000
,
00011000
00000000
00000000
00010000
00011000
00000000
00000000
00001000
,
00011000
00000000
00000000
00010000
00011000
00000000
00000000
00000000
,
00002000
00100000
00100000
00103000
,
00200000
00010000
00010000
00310000
,
00020000
01000000
01000000
01030000
,
01100000
00000000
00000000
00000000
00100000
00000000
00000000
00000000
00100000
00000000
00000000
00100000
00000000
00000000
00100000
00000000
,
00100000
01000000
00100000
01000000
,
10000000
01000000
00020000
00030000
,
00101000
00000000
00000000
00000000
00000000
00100000
00001000
00000000
,
00101000
00000000
00000000
00000000
00000000
00100000
00001000
00000000
,
00101000
00000000
00011000
00000000
,
00010100
00010100
00010100
00001100
,
00002020
00003030
00000001
00000100
,
00000010
00000000
00000000
00000010
00000000
00000000
00000010
00000000
00000200
00000000
00000000
00000000
00000310
00000000
00000000
00000000
,
00000002
00000003
00002000
00003000
,
00000110
00001001
00000110
00001001
,
00000020
00001030
00000200
00010300
,
00002000
01003000
00020000
00030000
,
10000000
01000000
10000000
00000000
00200000
00000000
01300000
00000000
,
10010000
01100000
10010000
00000000
,
02200000
03300000
00200000
00301000
,
00020000
00030010
00000200
00000300
,
00002000
00003100
00020000
00031000
,
01000000
00010000
01010000
01100000
,
20000000
31000000
00200000
00301000
,
00020000
00030010
00000100
00001000
,
00002001
00000000
00000001
00000000
,
00000001
00000001
00000001
00003001
,
00000110
00000000
00000000
00000001
00001000
00000000
00000000
00000010
,
00000200
00000000
00000000
00000310
,
00000001
00001000
00000001
00000000
00000100
00000000
00001000
00000000
,
00010000
00000100
00010000
00000000
00001000
00000000
01000000
00000000
,
00010000
00100000
00010000
00000000
01000000
00000000
10000000
00000000
,
00100000
10000000
00100000
00000000
01000000
00000000
00010000
00000000
,
00100000
00001000
00100000
00000000
00001000
00000000
00010000
00000000
,
00000010
00010000
00000010
00000000
00001000
00000000
00000001
00000000
,
00000100
00000000
00000000
00000100
00000000
00000000
00000100
00000000
00000000
00000100
00000000
00000000
00001000
00000000
00000000
00000000
,
00100000
00000000
00000000
00100000
00000000
00000000
00100000
00000000
00000000
00100000
00000000
00000000
00100000
00000000
00100000
00000000
,
00000000
00000000
00000000
00011000
,
00020000
00000000
00030200
00000000
,
00002300
00000000
00003020
00000000
,
00000032
00000000
00000000
00000000
,
00000000
00000000
00000000
00000003
,
00000020
00000000
00002030
00000000
,
00003200
00000000
00000000
00000300
,
00011000
00000000
00011000
00000000
,
00010000
00001000
00010000
00001000
00010000
00001000
00010000
00000000
00000000
00011000
00000000
00000000
;

//---------------dance-single - ----------------
#NOTEDATA:;
#CHARTNAME:;
#STEPSTYPE:dance-single;
#DESCRIPTION:;
#CHARTSTYLE:;
#DIFFICULTY:Medium;
#METER:9;
#RADARVALUES:0.411033,0.511334,0.375291,0.408650,0.166796,345.000000,300.000000,45.000000,49.000000,0.000000,0.000000,0.000000,0.000000,0.000000,0.411033,0.511334,0.375291,0.408650,0.166796,345.000000,300.000000,45.000000,49.000000,0.000000,0.000000,0.000000,0.000000,0.000000;
#CREDIT:;
#NOTES:
0000
0000
0000
0000
,
0000
0000
0000
0000
,
0000
0000
0000
0000
,
0000
0000
0000
0000
,
0000
0000
0000
0000
,
0020
1000
0000
1030
,
2000
0100
0000
3100
,
0200
0001
0000
0301
,
0002
0010
0000
0013
,
1001
0020
0000
0031
,
1001
0020
0000
1030
,
0100
0000
0000
0100
0000
0000
0000
0000
0010
0000
0000
0010
0000
0000
0000
0000
,
2000
0000
0000
0000
0002
3003
1001
0000
,
0010
1000
0010
0000
0100
0000
0110
0000
,
0010
0001
0010
0000
0100
0000
0110
0000
,
0001
1000
0001
0000
1000
0000
1001
0000
,
0001
0100
0010
0000
1000
0010
0100
0000
,
1000
0100
1000
0000
0001
0000
0011
0000
,
0100
0010
0100
0000
1000
0000
1100
0000
,
0001
0000
0000
0001
0000
0000
0000
0000
1000
0000
0000
1000
0000
0000
0000
0000
,
0000
0020
0000
0000
0130
0000
0000
0000
,
0010
0000
0000
0010
0000
0000
0000
0000
0100
0000
0000
0100
0000
0000
0000
0000
,
0010
0000
0000
0010
0000
0000
0000
0000
0110
0000
0000
0000
0000
0000
0000
0000
,
0001
0000
0000
0001
0000
0000
0000
0000
1000
0000
0000
1000
0000
0000
0000
0000
,
0001
0000
0000
0001
0000
0000
0000
0000
1001
0000
0000
0000
0000
0000
0000
0000
,
0100
0000
0000
0100
0000
0000
0000
0000
0010
0000
0000
0010
0000
0000
0000
0000
,
0100
0000
0000
0100
0000
0000
0000
0000
0110
0000
0000
0000
0000
0000
0000
0000
,
1000
0000
0000
1000
0000
0000
0000
0000
0100
0000
0000
0100
0000
0000
0000
0000
,
0010
0000
0000
0010
0000
0000
0000
0000
0001
0000
0000
0000
1001
0000
0000
0000
,
0100
0000
0000
0100
0000
0000
0100
0000
0010
0000
0000
0000
1000
0000
0000
0000
,
0001
0000
0000
0001
0000
0000
0001
0000
1000
0000
0000
0000
1001
0000
0000
0000
,
0010
0000
0000
0010
0000
0000
0010
0000
1000
0000
0000
0000
0100
0000
0000
0000
,
0010
0000
0000
0010
0000
0000
0010
0000
0001
0000
0000
0000
0101
0000
0000
0000
,
0010
0000
0000
0020
0000
0000
0000
0000
1030
0000
0000
2000
0000
0000
0000
0000
,
3001
0000
0000
0001
0000
0000
1000
0000
0002
0000
0000
0000
1003
0000
0000
0000
,
1001
0000
0000
1000
1001
0000
0000
0001
,
1001
0000
0000
1000
1001
0000
0110
0000
,
0002
0100
0100
0103
,
2000
0100
0100
3100
,
0020
0100
0100
0130
,
0010
0000
0000
0000
0010
0000
0000
0000
0010
0000
0000
0010
0000
0000
0010
0000
,
0100
0001
0010
0100
,
1000
0010
0002
0003
,
1001
0000
0000
0000
0000
0010
0100
0000
,
1001
0000
0000
0000
0000
0100
0010
0000
,
1001
0000
0000
0010
0100
0000
0000
0010
,
0100
1000
0100
0010
,
1002
0000
0103
0010
,
1000
0000
0000
1000
0000
0000
1000
0000
2000
0000
0000
0000
3010
0000
0000
0000
,
0200
0301
0020
1030
,
0110
1001
0110
1001
,
0002
0013
2000
3100
,
0020
0130
2002
3003
,
0010
0100
0010
0000
2000
0000
3001
0000
,
0010
0000
0000
0100
0000
0000
0010
0000
0200
0000
0000
0000
0301
0000
0000
0000
,
1020
0000
0000
0000
0030
0000
0000
0000
0100
0000
0000
0100
0000
0000
0100
0000
,
0001
1000
0002
1003
,
0020
0130
0200
0310
,
1001
0110
1001
0110
,
0002
0013
2000
3100
,
0001
0000
0000
1000
0000
0000
0000
0000
1000
0000
0000
1000
0000
0000
0002
0000
,
2000
0003
0001
0000
0001
0000
3002
0000
,
0000
0100
0100
0103
,
0010
0000
0000
0100
0000
0000
0010
0000
0100
0000
0000
0000
0010
0000
0000
0000
,
2002
0000
0000
3003
,
0010
0001
0010
0000
1000
0000
1010
0000
,
1000
0100
1000
0000
1000
0000
1010
0000
,
0010
0001
0010
0000
0001
0000
0101
0000
,
0100
0010
0100
0010
0100
0000
0110
0000
,
0001
0100
0001
0000
0100
0000
0101
0000
,
1000
0100
1000
0000
1000
0000
1100
0000
,
0001
0000
0000
0001
0000
0000
0001
0000
0000
0001
0000
0000
0001
0000
0000
0000
,
1000
0000
0000
1000
0000
0000
1000
0000
0000
1000
0000
0000
1000
0000
0001
0000
,
0000
0000
0000
1001
,
0200
0000
0320
0000
,
2030
0000
3002
0000
,
0023
0000
0000
0000
,
0000
0000
0030
0000
,
0010
0000
0000
0010
0000
0000
0000
0000
0100
0000
0000
0100
0000
0000
0000
0000
,
2002
0000
0000
3003
,
0220
0330
2002
3003
,
0001
1000
0001
1000
0001
1000
0001
0000
0000
1001
0000
0000
;
