#TITLE:GuNGNiR;
#SUBTITLE:;
#ARTIST:Gram;
#TITLETRANSLIT:;
#SUBTITLETRANSLIT:;
#ARTISTTRANSLIT:;
#GENRE:;
#CREDIT:;
#BANNER:GuNGNiR.png;
#BACKGROUND:GuNGNiR-bg.png;
#LYRICSPATH:;
#CDTITLE:;
#MUSIC:GuNGNiR.ogg;
#OFFSET:-1.110999;
#SAMPLESTART:55.162003;
#SAMPLELENGTH:12.839998;
#SELECTABLE:YES;
#DISPLAYBPM:111.000000:444.000000;
#BPMS:0.000000=111.000000
,16.000000=222.000000
,48.000000=111.000000
,52.000000=222.000000
,84.000000=111.000000
,98.000000=222.000000
,102.000000=444.000000
,230.000000=222.000000
,294.000000=111.000000
,302.000000=222.000000
,306.000000=111.000000
,308.000000=222.000000
,312.000000=111.000000
,314.000000=222.000000
,342.000000=111.000000
,344.000000=444.000000
,472.000000=222.000000
,504.000000=111.000000
;
#STOPS:
;
#BGCHANGES:;
#KEYSOUNDS:;
#ATTACKS:;

//---------------dance-double - ----------------
#NOTES:
     dance-double:
     :
     Hard:
     18:
     0.922675,1.779643,0.512351,0.015526,0.434722,832.000000,766.000000,66.000000,2.000000,0.000000,0.000000,0.922675,1.779643,0.512351,0.015526,0.434722,832.000000,766.000000,66.000000,2.000000,0.000000,0.000000:
// measure 0
00000000
00000000
00000000
00000000
,  // measure 1
00000000
00000000
00000000
00000000
,  // measure 2
00000000
00000000
00000000
00000000
,  // measure 3
00000000
00000000
00000000
00000000
,  // measure 4
11000000
00100000
00010000
00001000
,  // measure 5
00001100
00000100
00000010
00000001
,  // measure 6
00000011
00000010
00000100
00001000
,  // measure 7
00011000
00000000
00010000
00000000
00010000
00100000
01000000
10000000
,  // measure 8
11000000
00000000
01000000
00100000
00010000
00000000
00010000
00001000
,  // measure 9
00000100
00000000
00000100
00000010
00000001
00000000
00000001
00000100
,  // measure 10
00001000
00000000
00001000
00010000
00100000
00000000
00100000
01000000
,  // measure 11
10000000
01000000
00100000
01000000
00100000
00010000
00100000
00001000
00010000
00000100
00001000
00000010
,  // measure 12
00000100
00001000
00010000
00100000
11000000
00110000
00011000
00001100
,  // measure 13
00000110
00000000
00000001
00000000
00000001
00000100
00001000
00000000
,  // measure 14
00001100
00000000
00011000
00000000
00001000
00100000
00010000
00000000
,  // measure 15
00110000
00000000
01100000
00000000
00010000
01000000
10000000
00000000
,  // measure 16
11000000
00000000
01100000
00000000
10000000
01000000
00010000
01000000
,  // measure 17
11000000
00000000
10100000
00000000
01000000
00001000
00010000
00000000
,  // measure 18
00011000
00000000
00001100
00000000
00001000
00000010
00000100
00000000
,  // measure 19
00000110
00000000
00001001
00000000
00000001
00000010
00000100
00000000
,  // measure 20
00001100
00011000
01100000
10010000
,  // measure 21
11000000
00000000
10000000
01000000
00010000
00000000
00100000
00000000
00001000
00010000
00000100
00001000
00000010
00000000
00000100
00000000
,  // measure 22
00000001
00000000
00000100
00000010
00001000
00000000
00000100
00000000
00001000
00010000
00100000
01000000
10000000
00000000
01100000
00000000
,  // measure 23
10000000
00000000
00000000
00000000
10000000
00000000
01000000
00100000
00010000
00000000
00000000
00000000
00100000
00000000
00000000
00000000
00010000
00000000
00001000
00000000
00000100
00000000
00000010
00000001
00001000
00000000
00000100
00000000
00010000
00000000
00001000
00000000
,  // measure 24
00100000
00010000
00100000
00010000
01000000
00100000
10000000
01000000
10000000
01000000
00100000
00010000
00100000
00000000
00000000
00010000
00000000
00000000
00001000
00000000
00000000
00000000
00000000
00000000
,  // measure 25
00010000
00001000
00000100
00000010
00000001
00000000
00000010
00000000
,  // measure 26
00001000
00000000
00000100
00001000
00000010
00000000
00001000
00000000
,  // measure 27
00000100
00000000
00010000
00001000
00010000
00000000
00001000
00000000
,  // measure 28
01000000
00000000
00010000
00100000
01000000
00000000
10000000
00000000
,  // measure 29
01000000
00100000
00010000
10000000
,  // measure 30
00100000
00000000
01000000
00100000
00010000
00000000
00100000
00000000
,  // measure 31
00001000
00000000
00010000
00001000
00010000
00000000
00000100
00000000
,  // measure 32
00001000
00000000
00000100
00000010
00000001
00000010
00000100
00000000
,  // measure 33
00000010
00000100
00001000
00000000
00000100
00000000
00010000
00000000
,  // measure 34
00001000
00000000
00010000
00001000
00100000
00000000
00010000
00000000
,  // measure 35
01000000
00000000
00100000
01000000
10000000
00000000
01000000
00000000
,  // measure 36
10000000
00000000
00100000
01000000
00010000
00000000
00100000
00000000
,  // measure 37
00001000
00000000
00010000
00000100
00001000
00000010
00001000
00000000
,  // measure 38
00000001
00000100
00000001
00000000
00000010
00000100
00000010
00000000
,  // measure 39
00000001
00001000
00000001
00000000
00000010
00000100
00001000
00000000
,  // measure 40
00000100
00010000
00001000
00000000
00010000
00100000
01000000
00000000
,  // measure 41
00100000
01000000
10000000
00000000
01000000
00000000
00100000
00000000
,  // measure 42
00010000
00001000
00000100
00000010
,  // measure 43
00000001
00000000
00000010
00000100
00000010
00000000
00000001
00000000
,  // measure 44
00000010
00000100
00001000
00100000
,  // measure 45
01000000
00000000
10000000
00010000
10000000
00000000
01000000
00000000
,  // measure 46
00100000
00000000
00001000
00000000
00010000
00000000
00000100
00000010
,  // measure 47
00000001
00000000
00000001
00000010
00000100
00000000
00000100
00000000
,  // measure 48
00010000
00000000
01000000
00000000
00100000
01000000
10000000
00100000
,  // measure 49
10000000
01000000
00100000
00000000
10000000
00000000
01000000
00000000
,  // measure 50
00010000
00000000
00100000
00010000
00100000
00000000
00001000
00000000
,  // measure 51
00010000
00000000
00000100
00001000
00000100
00000000
00001000
00000000
,  // measure 52
00000010
00000000
00000100
00000001
00000100
00000000
00000010
00000000
,  // measure 53
00000001
00000000
00000010
00000100
00001000
00000100
00001000
00000000
,  // measure 54
00010000
00001000
00010000
00000000
00100000
00010000
00100000
00000000
,  // measure 55
10000000
01000000
10000000
00000000
10000000
00000000
01000000
00000000
,  // measure 56
00100000
00000000
00010000
00000000
00001000
00000100
00000010
00000001
,  // measure 57
00000010
00000000
00000100
00000000
00001000
00000000
00000000
00000000
00011000
00000000
00000000
00000000
00000000
00000000
00010000
00100000
,  // measure 58
00010000
00000000
00000000
00000000
00000000
00000000
01000000
00100000
01000000
00000000
00100000
00000000
10000000
00000000
00000000
00000000
,  // measure 59
10010000
00000000
00000000
00000000
00000000
00000000
10000000
01000000
00100000
00000000
00000000
00000000
00100000
00000000
00010000
00000000
,  // measure 60
00001000
00000000
00000100
00000010
00000001
00000000
00000110
00000000
,  // measure 61
00011000
00000000
00000000
00000000
00110000
00000000
00000000
00000000
01010000
00000000
00000000
00000000
00000000
00000000
10000000
00100000
,  // measure 62
10000000
00000000
00000000
00000000
00000000
00000000
01000000
00100000
00010000
00000000
00100000
00000000
00001000
00000000
00000000
00000000
,  // measure 63
00010000
00000000
00000000
00000000
00000000
00000000
00000010
00001000
00000010
00000000
00000000
00000000
00000100
00000000
00000001
00000000
,  // measure 64
00001000
00000000
00000001
00000010
00000001
00000010
00000100
00001000
,  // measure 65
00010000
00000000
00100000
00000000
01000000
00000000
10000000
00000000
10010000
00000000
00000000
00000000
00000000
00000000
10000000
01000000
,  // measure 66
10000000
00000000
00000000
00000000
00000000
00000000
00010000
01000000
00010000
00000000
00100000
00000000
00001000
00000000
00000000
00000000
,  // measure 67
00011000
00000000
00000000
00000000
00000000
00000000
00001000
00000100
00000010
00000000
00000000
00000000
00000010
00000000
00000001
00000000
,  // measure 68
00001000
00000000
00001000
00010000
00100000
00000000
01100000
00000000
,  // measure 69
00011000
00000000
00000000
00000000
00001100
00000000
00000000
00000000
00000101
00000000
00000000
00000000
00000000
00000000
00000001
00000100
,  // measure 70
00000001
00000000
00000000
00000000
00000000
00000000
00000010
00000100
00001000
00000000
00000100
00000000
00010000
00000000
00000000
00000000
,  // measure 71
01010000
00000000
00000000
00000000
00000000
00000000
10000000
01000000
00100000
00000000
00000000
00000000
00100000
00000000
00010000
00000000
,  // measure 72
00001000
00000000
00000010
00000001
00000010
00000100
00001000
00010000
,  // measure 73
00100000
00000000
01000000
00000000
10010000
01000000
10000000
01000000
,  // measure 74
00010000
01000000
00010000
01000000
00001000
00010000
00001000
00010000
,  // measure 75
00000100
00000000
00000000
00001000
00000000
00000000
00000001
00000000
00000000
00000010
00000000
00000000
00000100
00000000
00001000
00000000
00000100
00000000
00001000
00000000
00000000
00000000
00000000
00000000
,  // measure 76
00010000
00000000
00001000
00000000
00010000
00000000
00001000
00000000
00000000
00000000
00000000
00000000
00100000
00000000
00000000
00010000
00000000
00000000
10000000
00000000
00000000
01000000
00000000
00000000
,  // measure 77
10000000
00100000
10000000
00100000
00000000
00000000
00100000
00001000
00100000
00001000
00000000
00000000
,  // measure 78
00010000
00000000
00000000
00001000
00000000
00000000
00000100
00000000
00000000
00000010
00000000
00000000
00000001
00000000
00000010
00000000
00000001
00000000
00000010
00000000
00000000
00000000
00000000
00000000
,  // measure 79
00000100
00001000
00000100
00001000
00000000
00000000
00010000
00100000
00010000
00100000
00000000
00000000
,  // measure 80
01000000
10000000
01000000
10000000
00000000
00000000
10000000
00100000
10000000
00100000
00000000
00000000
,  // measure 81
00100000
00001000
00100000
00001000
00000000
00000000
00001000
00000010
00001000
00000010
00000000
00000000
,  // measure 82
00000001
00000000
00000000
00000010
00000000
00000000
00000100
00000000
00000000
00000000
00000000
00000000
00000010
00000000
00000000
00000100
00000000
00000000
00001000
00000000
00000000
00000000
00000000
00000000
00000010
00000000
00000000
00000000
00001000
00000000
00000000
00000000
00000010
00000000
00000000
00000000
00001000
00000000
00000000
00000000
00000000
00000000
00000000
00000000
00000000
00000000
00000000
00000000
,  // measure 83
00010000
00001000
00010000
00001000
00000000
00000000
01000000
00010000
01000000
00010000
00000000
00000000
,  // measure 84
10000000
01000000
10000000
01000000
00000000
00000000
00100000
00010000
00100000
00010000
00000000
00000000
,  // measure 85
00001000
00000000
00000000
00000000
00000100
00000000
00000000
00000000
00000010
00000000
00000000
00000000
00000001
00000000
00000000
00000000
00000000
00000000
00000000
00000000
00000000
00000000
00000000
00000000
00000001
00000000
00000000
00000010
00000000
00000000
00000100
00000000
00000000
00001000
00000000
00000000
00010000
00000000
00000000
00100000
00000000
00000000
01000000
00000000
00000000
10000000
00000000
00000000
,  // measure 86
01000000
10000000
00000000
00100000
01000000
00000000
00100000
00000000
,  // measure 87
00001000
00010000
00000000
00001000
00010000
00000000
00000100
00000000
,  // measure 88
00001000
00000010
00000000
00001000
00000010
00000000
00000001
00000000
,  // measure 89
00000100
00000010
00000000
00001000
00000100
00000000
00001000
00000000
,  // measure 90
00000100
00010000
00000000
00000100
00010000
00000000
00001000
00000000
,  // measure 91
00100000
00010000
00000000
00100000
00010000
00000000
01000000
00000000
,  // measure 92
00100000
10000000
00000000
00010000
01000000
00000000
00100000
00000000
,  // measure 93
00100000
10000000
01000000
10000000
00100000
01000000
00010000
01000000
,  // measure 94
00100000
01000000
00000000
00010000
01000000
00000000
00001000
00000000
,  // measure 95
00010000
00001000
00000000
00010000
00000100
00000000
00001000
00000000
,  // measure 96
00000010
00000100
00000000
00000001
00000100
00000000
00000010
00000000
,  // measure 97
00001000
00000100
00000000
00010000
00000100
00000000
00010000
00000000
,  // measure 98
00001000
00000000
00000000
00010000
00000000
00000000
00100000
00000000
,  // measure 99
01000000
00000000
00000000
10000000
00000000
00000000
00100000
00000000
,  // measure 100
10000000
01000000
00100000
00010000
,  // measure 101
00001000
00000100
00000010
00000001
00001000
00000100
00000010
00000001
,  // measure 102
00000100
00000000
00000000
00001100
00000000
00000000
00010100
00000000
,  // measure 103
00010000
00000000
00000000
00011000
00000000
00000000
00101000
00000000
,  // measure 104
00100000
00000000
00000000
00110000
00000000
00000000
10010000
00000000
,  // measure 105
10000000
00000000
00000000
10100000
00000000
00000000
01100000
00000000
,  // measure 106
01000000
00000000
00000000
01010000
00000000
00000000
00110000
00000000
,  // measure 107
00100000
00000000
00000000
00101000
00000000
00000000
00011000
00000000
,  // measure 108
00001000
00000000
00000000
00000100
00000000
00000000
00000110
00000000
,  // measure 109
00000001
00000010
00000100
00001000
00000001
00000010
00000100
00001000
,  // measure 110
00000100
00000010
00001000
00000100
,  // measure 111
00001000
00000000
00010000
00000000
00100000
01000000
10000000
01000000
,  // measure 112
00100000
00010000
00001000
00000100
,  // measure 113
00000010
00000001
00000010
00000000
00000100
00001000
00000100
00000000
,  // measure 114
00000001
00000000
00000010
00000000
00000100
00000000
00001000
00000000
00000100
00000000
00000010
00000000
,  // measure 115
00000100
00000000
00001000
00000000
00010000
00000000
00100000
00000000
01000000
00000000
10000000
00000000
,  // measure 116
01000000
00100000
01000000
00000000
00010000
00001000
00010000
00000000
,  // measure 117
00000100
00000010
00000001
00000000
00000010
00000100
00001000
00000000
,  // measure 118
00011000
00000000
00000000
00000000
01000000
00000000
00010000
01000000
00010000
00000000
00000000
00000000
10000000
00000000
01000000
10000000
,  // measure 119
01000000
00100000
01000000
00000000
01010000
00000000
00100000
00001000
,  // measure 120
00010000
00000000
00000100
00001000
00000010
00000000
00000100
00000001
,  // measure 121
00001100
00000101
00001100
00011000
,  // measure 122
00110000
00000000
00000000
00000000
00010000
00000000
01000000
00100000
01000000
00000000
00000000
00000000
10000000
00000000
00100000
01000000
,  // measure 123
00100000
00000000
01000000
00000000
00001000
00000000
00000000
00000000
00010000
00000000
00000000
00000000
00000100
00000000
00001000
00000010
,  // measure 124
00001000
00000000
00000100
00000010
00000001
00000000
00000010
00000100
,  // measure 125
00001000
00001100
00011000
00110000
,  // measure 126
01100000
00000000
00000000
00000000
00000000
00000000
10000000
00100000
10000000
00000000
00000000
00000000
00000000
00000000
00010000
01000000
00010000
00000000
01000000
00000000
00010000
00000000
00000000
00000000
00100000
00000000
00000000
00000000
00000000
00000000
00010000
00000000
,  // measure 127
00001000
00000000
00000100
00000010
00000001
00000000
00000010
00000100
00001000
00000000
00000100
00000000
00010000
00000000
00100000
00000000
,  // measure 128
10000000
00000000
00000000
00000000
00000000
00000000
10000000
00010000
10000000
00000000
00000000
00000000
00000000
00000000
01000000
00100000
01000000
00000000
00100000
00000000
00010000
00000000
00000000
00000000
00001000
00000000
00000000
00000000
00000000
00000000
00000010
00000100
,  // measure 129
00000010
00000000
00000001
00000010
00000100
00000000
00001000
00000000
00010000
00100000
01000000
00000000
00100000
00010000
00002000
00000000
,  // measure 130
00020000
00000000
00000000
00000000
,  // measure 131
00033000
00000000
00000000
00000000
;

//---------------dance-single - ----------------
#NOTES:
     dance-single:
     :
     Hard:
     18:
     0.965925,1.677949,0.512351,0.015526,0.621031,871.000000,805.000000,66.000000,2.000000,0.000000,0.000000,0.965925,1.677949,0.512351,0.015526,0.621031,871.000000,805.000000,66.000000,2.000000,0.000000,0.000000:
0000
0000
0000
0000
,
0000
0000
0000
0000
,
0000
0000
0000
0000
,
0000
0000
0000
0000
,
1000
0100
1000
0100
0000
0000
0001
0100
0001
0100
0000
0000
,
1000
0100
1000
0100
0000
0000
0010
0001
0010
0001
0000
0000
,
0001
0010
0100
1000
0000
0000
0100
0010
1000
0001
0000
0000
,
1000
0000
0100
0000
0010
0000
0001
0000
0000
0000
0000
0000
0001
0000
0000
0010
0000
0000
0100
0000
0000
1000
0000
0000
,
0100
0010
0100
0001
0000
0000
0001
1000
0010
0100
0000
0000
,
0100
0010
0100
0010
0000
0000
0001
1000
0001
1000
0000
0000
,
1000
0100
0010
0001
0000
0000
0001
0010
0100
1000
0000
0000
,
1000
0100
0010
0100
0010
0001
0010
1000
0001
0100
1000
0010
,
0100
0010
1000
0100
0001
1000
0010
0100
1100
0000
0011
0000
1001
0000
1100
0000
,
0110
0000
0000
0000
0001
0000
0000
0000
0001
0100
0001
0100
0001
0000
0000
0000
,
1000
0000
0100
0000
1001
0000
0000
0000
1000
0010
1000
0010
1000
0000
0000
0000
,
0011
0000
0000
0000
0110
0000
0000
0000
0001
0100
0001
0100
0001
0000
0000
0000
,
1000
0010
0110
0000
1000
0100
0001
0100
,
1100
0000
0000
0000
1010
0000
0000
0000
0100
0010
0100
0010
0100
0000
0000
0000
,
1001
0000
0000
0000
1100
0000
0000
0000
0010
0100
0010
0100
0010
0000
0000
0000
,
0100
0010
1001
0000
0001
0010
0110
0000
,
1100
1001
0110
1001
,
1100
0000
0000
0000
0000
0000
0100
0010
0100
0000
0000
0000
0000
0000
0010
0000
0001
0000
0000
0001
0000
0000
0100
0000
0010
0000
0000
0000
0100
0000
0000
0000
,
0001
0000
0010
0000
0100
0000
0010
0000
0001
0000
0000
0000
0100
0000
0000
0010
0001
0000
0001
0000
0010
0000
0100
0000
1000
0000
0000
0000
0100
0010
0100
0010
,
0100
0000
0000
0000
1000
0000
0100
0000
0010
0000
0000
0000
0001
0000
0000
0000
0100
0000
0000
0010
0000
0000
1000
0010
1000
0000
0000
0000
0100
0000
0000
0000
,
0010
0001
0010
0001
0100
0010
1000
0100
1000
0100
0010
0001
0010
0000
0000
0001
0000
0000
1000
0000
0000
0000
0000
0000
,
0001
1000
0100
0010
0001
0000
0010
0000
,
1000
0000
0100
0001
0100
0000
1000
0000
,
0100
0000
0001
1000
0001
0000
1000
0000
,
0100
0000
1000
0010
1000
0000
1000
0000
,
0100
0000
0010
0100
0010
0000
1000
0000
,
0010
0000
0001
0010
0001
0000
0010
0000
,
1000
0000
0010
1000
0010
0000
0100
0000
,
1000
0000
0100
0010
0001
0010
0100
0000
,
0010
0100
0010
0000
0100
0000
0001
0000
,
1000
0000
0001
1000
0001
0000
0010
0000
,
0100
0000
0010
0100
0010
0000
0100
0000
,
1000
0000
0010
0100
0010
0000
0010
0000
,
1000
0000
1000
0100
1000
0000
0100
0000
,
0001
0000
0010
0100
0010
0000
0100
0000
,
0001
0000
0100
0000
0010
0100
0010
0000
,
0100
0010
0100
0000
0001
0010
0100
0000
,
0010
0100
1000
0000
0100
0000
0010
0000
,
0001
0010
0100
1000
,
0001
0000
0100
0010
0100
0000
0001
0000
,
0010
0100
1000
0010
,
0100
0000
0001
1000
0001
0000
0100
0000
,
0010
1000
0001
0100
,
0010
0000
1000
0010
0100
0000
0100
0000
,
0001
0000
0100
0000
0010
0100
0010
0100
,
0010
0100
0010
0000
1000
0000
0100
0000
,
0010
0001
0010
0100
,
1000
0000
0100
1000
0100
0000
1000
0000
,
0100
0000
0010
0001
0010
0000
0001
0000
,
0010
0000
0100
1000
0100
0000
1000
0100
,
1000
0000
0010
0100
0010
0000
0001
0010
,
0001
0000
1000
0100
1000
0000
0100
0000
,
0010
0000
0001
0000
1000
0100
0010
0001
,
0010
0000
0100
0000
1000
0000
0000
0000
1001
0000
0000
0000
0000
0000
0001
0010
,
0001
0000
0000
0000
0000
0000
0100
0010
0100
0000
0010
0000
1000
0000
0000
0000
,
1001
0000
0000
0000
0000
0000
1000
0100
0010
0000
0000
0000
0010
0000
0001
0000
,
1000
0000
0100
0010
0001
0000
0110
0000
,
1001
0000
0000
0000
0110
0000
0000
0000
1001
0000
0000
0000
0000
0000
0001
0010
,
0001
0000
0000
0000
0000
0000
0100
0010
0100
0000
0010
0000
1001
0000
0000
0000
,
0001
0000
0000
0000
0000
0000
0010
1000
0010
0000
0000
0000
0100
0000
0001
0000
,
1001
0000
0001
0010
0001
0010
0100
1000
,
0001
0000
0010
0000
0100
0000
1000
0000
1001
0000
0000
0000
0000
0000
1000
0100
,
1000
0000
0000
0000
0000
0000
0001
0100
0001
0000
0010
0000
1000
0000
0000
0000
,
1001
0000
0000
0000
0000
0000
1000
0100
0010
0000
0000
0000
0010
0000
0001
0000
,
1000
0000
1000
0001
0010
0000
0110
0000
,
1001
0000
0000
0000
1100
0000
0000
0000
0101
0000
0000
0000
0000
0000
0001
0100
,
0001
0000
0000
0000
0000
0000
0010
0100
0010
0000
0100
0000
0001
0000
0000
0000
,
0101
0000
0000
0000
0000
0000
1000
0100
1000
0000
0000
0000
0010
0000
0001
0000
,
1000
0000
0010
0001
0010
0100
1000
0001
,
0010
0000
0100
0000
1001
0100
1000
0100
,
0001
0100
0001
0100
1000
0001
1000
0001
,
0100
0000
0000
1000
0000
0000
0001
0000
0000
0010
0000
0000
1000
0000
0001
0000
1000
0000
0001
0000
0000
0000
0000
0000
,
0001
0000
1000
0000
0001
0000
1000
0000
0000
0000
0000
0000
0010
0000
0000
1000
0000
0000
0001
0000
0000
0100
0000
0000
,
0010
1000
0010
1000
0000
0000
0010
1000
0010
1000
0000
0000
,
0001
0000
0000
1000
0000
0000
0100
0000
0000
0010
0000
0000
0001
0000
0010
0000
0001
0000
0010
0000
0000
0000
0000
0000
,
0100
1000
0100
1000
0000
0000
0010
1000
0010
1000
0000
0000
,
0001
0100
0001
0100
0000
0000
1000
0010
1000
0010
0000
0000
,
0100
0010
0100
0010
0000
0000
1000
0010
1000
0010
0000
0000
,
1000
0000
0000
0010
0000
0000
1000
0000
0000
0000
0000
0000
0010
0000
0000
0100
0000
0000
0010
0000
0000
0000
0000
0000
1000
0000
0000
0000
0000
0000
0000
0000
1000
0000
0000
0000
0010
0000
0000
0000
0000
0000
0000
0000
0010
0000
0000
0000
,
0100
0000
0100
0001
0000
0001
0100
0000
0100
0001
0000
0001
,
1000
0000
1000
0100
0000
0100
0010
0001
0010
0001
0010
0100
,
1000
0000
0000
0000
0100
0000
0000
0000
1000
0000
0000
0000
0100
0000
0000
0000
0010
0000
0000
0000
0001
0000
0000
0000
0010
0000
0000
0100
0000
0000
1000
0000
0000
0100
0000
0000
0010
0000
0000
0001
0000
0000
0010
0000
0000
0100
0000
0000
,
1000
0001
0000
0001
1000
0000
0100
0000
,
0001
1000
0000
1000
0001
0000
0100
0000
,
0001
0100
0000
0100
0001
0000
0100
0000
,
0010
0100
0010
0000
0001
1000
0001
0000
,
0100
0001
0000
0001
0100
0000
0010
0000
,
0001
0100
0000
0100
0001
0000
0010
0000
,
0001
0010
0000
0010
0001
0000
0010
0000
,
1000
0010
1000
0000
0001
0100
0001
0000
,
0010
0100
0000
0001
0100
0000
1000
0000
,
0001
1000
0000
0001
0100
0000
1000
0000
,
0001
0100
0000
0001
0100
0000
0010
0000
,
1000
0100
0000
1000
0100
0000
1000
0000
,
0101
0000
0000
0001
0000
0000
0010
0000
,
1100
0000
0000
1000
0000
0000
0010
0000
,
1000
0100
0010
0001
,
1000
0010
0100
0000
0000
0000
0100
0001
,
0010
0000
0000
1100
0000
0000
0101
0000
,
0101
0000
0000
1001
0000
0000
1010
0000
,
1010
0000
0000
0011
0000
0000
1001
0000
,
1000
0010
1000
0010
0100
0001
0100
0001
,
0100
0000
0000
0101
0000
0000
0011
0000
,
0011
0000
0000
1010
0000
0000
1001
0000
,
1001
0000
0000
0100
0000
0000
0110
0000
,
0001
0010
0001
0010
0100
1000
0100
1000
,
0100
0000
0000
0110
0000
0000
0100
0001
,
1000
0000
0001
0010
0001
0000
1000
0100
,
1000
0000
0000
1001
0000
0000
0100
1000
,
0100
0000
0010
0100
0010
0100
0010
0100
,
0010
0000
0100
0000
0001
0000
1000
0000
0100
0000
0010
0000
,
0100
0000
1000
0000
0001
0000
0100
0000
0010
0000
1000
0000
,
0100
0010
0100
0000
0001
1000
0001
0000
,
0100
0010
0001
0000
0010
0100
1000
0000
,
1001
0000
0000
0000
0100
0000
0001
0100
0001
0000
0000
0000
1000
0000
0100
1000
,
0100
0010
0100
0000
0101
0000
0010
1000
,
0001
0000
0100
1000
0010
0000
0100
0001
,
1100
0101
1100
1001
,
0011
0000
0000
0000
0001
0000
0100
0010
0100
0000
0000
0000
1000
0000
0010
0100
,
0010
0000
0100
0000
1000
0000
0000
0000
0001
0000
0000
0000
0100
0000
1000
0010
,
1000
0000
0100
0010
0001
0000
0010
0100
,
1000
1100
1001
0011
,
0110
0000
0000
0000
0000
0000
1000
0010
1000
0000
0000
0000
0000
0000
0001
0100
0001
0000
0100
0000
0001
0000
0000
0000
0010
0000
0000
0000
0000
0000
0001
0000
,
1000
0000
0100
0010
0001
0000
0010
0100
1000
0000
0100
0000
0001
0000
0010
0000
,
1000
0000
0000
0000
0000
0000
1000
0001
1000
0000
0000
0000
0000
0000
0100
0010
0100
0000
0010
0000
0001
0000
0000
0000
1000
0000
0000
0000
0000
0000
0010
0100
,
0010
0000
0001
0010
0100
0000
1000
0000
0001
0010
0100
0000
0010
0001
2000
0000
,
0002
0000
0000
0000
,
3003
0000
0000
0000
;

//---------------dance-single - ----------------
#NOTES:
     dance-single:
     :
     Challenge:
     19:
     1.105657,1.779643,0.543402,0.062103,0.900495,997.000000,927.000000,70.000000,8.000000,0.000000,0.000000,1.105657,1.779643,0.543402,0.062103,0.900495,997.000000,927.000000,70.000000,8.000000,0.000000,0.000000:
0000
0000
0000
0000
,
0000
0000
0000
0000
,
0000
0000
0000
0000
,
0000
0000
0000
0000
,
1000
0001
1000
0010
0000
0000
0001
1000
0001
0100
0000
0000
,
0010
1000
0010
0100
0000
0000
0100
0001
0100
0010
0000
0000
,
1000
0100
1000
0010
0000
0000
0001
0100
0001
0010
0000
0000
,
0001
0010
0001
1000
0000
0000
1000
0010
0100
0001
0100
0010
,
1000
0100
0001
0100
0000
0000
0001
0100
1000
0100
0000
0000
,
1000
0010
0001
0010
0000
0000
0001
0010
1000
0010
0000
0000
,
1000
0100
0010
0001
0000
0000
0001
0010
0100
1000
0000
0000
,
0001
0100
1000
0100
1000
0010
1000
0100
0001
0100
0001
0010
,
0001
0010
0100
1000
0010
0100
1000
0001
0110
0000
1001
0000
0110
0000
1100
0000
,
0101
0000
0000
0000
1000
0100
1000
0000
0001
0100
0001
0000
0010
0100
0010
0000
,
1000
0100
1000
0000
0001
0100
0001
0000
0010
0100
0010
0000
1000
0000
0100
0000
,
0001
0100
0001
0000
1000
0010
1000
0000
0010
0100
0010
0000
0100
0001
0100
0000
,
0010
1000
0010
0000
0100
0010
0100
0000
1000
0100
1000
0000
0101
0000
0101
0000
,
1000
0100
1000
0000
0010
0100
0010
0000
0001
0010
0001
0000
0100
0010
0100
0000
,
0001
0100
0001
0000
1000
0010
1000
0000
0001
0010
0100
0000
1000
0100
0010
0000
,
0001
0100
0001
0000
1000
0010
1000
0000
0001
0100
1000
0000
0001
0010
1000
0000
,
0100
0010
0100
0000
1000
0001
1000
0000
0110
0000
1000
0000
1001
0000
0001
0000
,
0101
0000
0000
0000
0000
0000
1000
0100
0010
0000
0000
0000
0000
0000
0100
0010
0001
0000
0000
0100
0000
0000
0010
0000
1001
0000
0000
0000
0000
0000
0010
1000
,
0010
0000
0100
0000
0010
0000
0001
0000
1001
0000
0000
0000
0110
0000
0000
0001
1000
0000
0100
0000
0010
0000
0001
0000
1010
0000
0000
0000
0000
0001
0010
0100
,
1000
0000
0000
0000
0001
0000
0100
0000
0010
0000
0000
0000
1001
0000
0000
0000
0100
0000
0000
0010
0000
0000
1000
0000
0101
0000
0000
0000
0110
0000
0000
0000
,
0001
0010
0100
0001
0010
0100
1000
0010
0001
1000
0100
0001
1000
0000
0100
0000
0010
0000
0100
0000
0010
0000
0001
0000
,
1000
0100
0010
0001
0010
0100
1000
0000
0000
0010
0000
0000
,
1000
0000
0010
0100
0010
0000
0001
0000
,
0100
0000
0001
0100
1000
0000
0010
0000
,
1000
0000
0010
1000
0010
0000
0100
0000
,
0001
0000
0100
0010
0100
0000
0001
0000
,
1000
0000
0010
0100
0010
0000
1000
0000
,
0100
0000
0001
0100
0001
0000
0010
0100
,
0010
0000
0001
0010
0100
1000
0001
0010
,
0100
0010
0001
1000
0100
0000
1000
0000
,
0001
0000
1000
0100
1000
0000
0001
0000
,
0010
0000
1000
0001
1000
0000
0010
0000
,
0100
0000
0001
0100
0001
0000
1000
0000
,
0010
0000
0100
0001
0100
0000
0010
0000
,
1000
0000
0100
1000
0100
0000
0001
0000
,
0010
0000
0100
1000
0100
1000
0100
0000
,
0001
0100
0001
0000
0010
0100
0010
0100
,
0001
0000
0000
1000
0000
0000
0001
0000
1000
0000
0001
0000
1000
0000
0000
0000
0000
0000
0001
0000
0000
0000
0000
0000
,
0100
0000
0010
1000
0010
0000
0100
0000
,
0001
0000
1000
0100
0001
0000
0001
0000
,
0010
0000
1000
0010
1000
0100
1000
0000
,
0001
0100
0001
0010
0001
0000
0100
0000
,
0010
0000
1000
0100
0010
0000
0001
0000
,
0100
0000
0010
1000
0010
0000
0100
0000
,
0001
0000
1000
0100
0001
0100
1000
0000
,
0001
0010
0100
0000
1000
0100
0010
0000
,
0001
0000
0010
0100
1000
0000
1000
0000
,
0001
0000
1000
0010
0001
0000
0010
0000
,
0100
0000
1000
0100
0001
0000
0100
0000
,
0010
0000
1000
0000
0001
0100
0001
0000
,
1000
0100
1000
0000
0001
0010
0001
0000
,
1000
0010
1000
0000
0001
0100
1000
0000
,
1000
0010
0001
0000
0001
0010
0100
1000
,
0001
0000
0000
0000
0000
0000
1000
0000
0000
0000
0000
0000
0001
0000
0000
0000
1000
0000
0000
0000
0001
0000
0000
0000
1000
0000
0000
0000
0000
0000
0000
0000
0000
0000
0000
0000
0000
0000
0000
0000
0000
0000
0001
0000
0000
1000
0000
0000
,
0100
0000
0000
0000
0000
0000
1000
0001
0010
0000
0100
0000
1000
0000
0000
0000
,
1001
0000
0000
0000
0000
0000
1000
0010
0100
0000
0000
0000
0001
0000
0100
0000
,
0110
0000
1000
0100
0110
0010
1001
0000
,
1100
0000
0100
0000
0101
0000
0000
0000
1001
0000
0000
0000
0100
0000
0010
1000
,
0100
0000
0000
0000
0010
0000
0100
0001
0010
0000
0001
0000
0010
0000
0000
0000
,
1001
0000
0000
0000
0010
0000
0001
0010
0100
0000
0000
0000
1000
0000
0001
0000
,
1001
0000
0001
0010
0110
0100
1000
0100
,
0110
0000
0010
0000
0001
0000
0010
0000
1001
0000
0000
0000
0100
0000
0010
1000
,
0100
0000
0000
0000
0000
0000
1000
0000
0000
0010
0001
0010
0001
0000
0000
0100
0000
0000
0010
0000
0000
0000
0000
0000
,
1001
0000
0000
0000
0100
0000
0001
0100
0010
0000
0000
0000
1000
0100
1000
0100
,
1000
0000
0000
0000
0001
0100
0010
0000
0100
0000
1000
0000
1001
0000
0000
0000
,
0010
0000
0001
0000
1001
0000
0000
0000
0110
0000
0000
0000
0000
0000
0010
0001
,
0100
0000
0000
0000
0000
0000
0000
0000
0000
0010
1000
0010
1000
0000
0000
0100
0000
0000
0010
0000
0000
0000
0000
0000
,
1001
0000
0000
0000
0000
0000
0001
0100
0010
0000
0000
0000
0010
0100
0010
0100
,
0010
0000
0000
0000
1000
0100
0010
0000
0001
0000
0010
0000
0100
0000
1000
0000
,
0001
0000
0000
0000
0000
0000
0010
0000
0000
0000
0000
0000
2000
0000
0000
3010
0000
0000
0100
0010
1000
0001
0000
0000
,
0020
0000
0000
0130
0000
0000
0001
0010
0100
1000
0000
0000
0002
0000
0000
0103
0000
0000
1000
0010
0100
0001
0000
0000
,
2000
0000
0000
3100
0000
0000
0001
0010
0100
1000
0000
0000
0001
0000
0010
0000
0100
0000
0001
0000
0000
0000
0000
0000
,
1000
0000
0100
0000
0010
0000
1000
0000
0000
0000
0000
0000
0002
0000
0000
0103
0000
0000
2000
0000
0000
3010
0000
0000
,
0100
0010
1000
0001
0000
1000
0010
0100
0001
1000
0000
0000
,
1000
0000
0000
0100
0000
0000
0010
0000
0000
0001
0000
0000
1000
0000
0100
0000
1000
0000
0001
0000
0000
0000
0000
0000
,
0001
0100
0001
1000
0000
0000
0001
0010
0100
1000
0000
0000
,
0100
0010
1000
0001
0000
0000
1000
0100
0010
1000
0000
0000
,
0001
0010
0100
0001
0000
0000
0100
0010
1000
0001
0100
0010
,
1000
0000
0000
0100
0000
0000
1000
0000
0000
0000
0000
0000
0010
0000
0000
0100
0000
0000
0010
0000
0000
0000
0000
0000
0001
0000
0000
0000
0010
0000
0000
0000
0100
0000
0000
0000
0001
0000
0000
0000
0000
0000
0000
0000
0000
0000
0000
0000
,
1000
0100
0001
0010
0000
0000
0001
0100
1000
0010
0000
0000
,
0100
0010
1000
0001
0000
0000
0010
0100
0001
0100
0010
0100
,
0010
0000
0000
0000
0000
0000
0000
0000
0000
0000
0000
0000
0000
0000
0000
0000
1000
0000
0000
0000
0000
0000
0000
0000
0000
0000
0000
0000
0000
0000
0000
0000
0100
0000
0000
0000
0000
0000
0000
0000
0000
0000
0000
0000
0000
0000
0000
0000
1000
0000
0000
0000
0000
0000
0000
0000
0000
0000
0000
0000
0000
0000
0000
0000
0010
0000
0000
0000
0000
0000
0000
0000
0000
0000
0000
0000
0000
0000
0000
0000
0100
0000
0000
0000
0000
0000
0000
0000
0000
0000
0000
0000
0000
0000
0000
0000
0001
0000
0000
0000
0000
0000
0000
0000
0010
0000
0000
0000
0000
0000
0000
0000
0100
0000
0000
0000
0000
0000
0000
0000
0010
0000
0000
0000
0000
0000
0000
0000
0100
0000
0000
0000
0000
0000
0000
0000
1000
0000
0000
0000
0000
0000
0000
0000
0001
0000
0000
0000
0000
0000
0000
0000
0000
0000
0000
0000
0010
0000
0000
0000
0000
0000
0000
0000
0000
0000
0000
0000
1000
0000
0000
0000
0000
0000
0100
0000
0000
0000
0000
0000
0010
0000
0000
0000
0000
0000
0001
0000
0000
0000
0000
0000
,
0100
0000
0000
0110
0000
0000
1001
0000
,
0001
0100
0010
0000
1000
0010
0100
0000
,
0010
0000
0000
1010
0000
0000
0101
0000
,
0001
0100
0010
0000
1000
0100
0010
0000
,
0101
0000
0000
1010
0000
0000
1001
0000
,
0001
0100
0010
0000
1000
0100
0010
0000
,
1001
0000
0000
0110
0000
0000
1001
0000
,
0001
0100
0001
0100
0010
1000
0010
1000
,
0100
0000
0000
1010
0000
0000
0101
0000
,
0000
0100
0010
0100
0010
1000
0001
1000
,
0010
0000
0000
1001
0000
0000
1100
0000
,
0000
0001
0100
0001
0100
0010
0100
0010
,
1000
0100
0010
0001
0100
0000
0000
0000
,
0001
0010
0100
1000
0010
0000
0000
0000
,
1000
0100
1000
0000
0001
0100
0001
0000
,
1000
0100
0010
0001
0100
0010
1000
0001
,
0100
0000
0000
0110
0000
0000
1001
0000
,
0100
0010
1000
0010
0000
0100
0001
0000
,
0110
0000
0000
1100
0000
0000
0100
0001
,
0010
0001
0100
0010
1000
0100
1000
0010
,
0100
0000
0000
0110
0000
0000
1010
0000
,
0001
0100
0001
0100
0000
0010
1000
0000
,
0100
0010
1000
0001
0100
0000
0010
1000
,
0001
0100
0001
0100
0010
0100
0010
0100
,
0001
1000
0000
0010
0000
0000
0100
0000
,
0000
0001
0100
0010
1000
0100
0010
0001
,
0100
0000
0000
0010
0000
0000
1001
0000
,
0000
0001
0100
0010
1000
0100
0010
0001
,
0100
0000
0010
0000
1000
0000
0100
0000
0001
0000
0010
0000
,
0100
0000
0001
0000
0010
0000
0100
0000
1000
0000
0010
0000
,
1000
0000
0100
0000
0010
0000
0001
0000
0100
0000
0010
0000
,
1000
0000
0000
0100
0000
0000
0010
0000
0000
0001
0000
0000
1000
0000
0001
0000
1000
0000
0001
0000
0000
1000
0000
0000
,
0001
0000
0000
0000
0000
0000
1000
0010
1000
0000
0000
0000
0000
0000
0001
0100
,
0001
0000
0010
0100
0010
0000
0000
0000
1001
0000
0000
0000
0000
0000
1000
0010
,
1000
0000
0000
0000
0001
0100
0010
0100
0001
0000
0000
0000
1000
0000
0010
0000
,
0110
0000
1001
1000
1001
0000
0101
0100
,
0110
0000
0000
0000
0000
0000
0000
0000
0000
0000
0000
0000
0000
0000
0000
0000
0000
0000
0001
0000
0000
0100
0000
0000
0001
0000
0000
0000
0000
0000
0000
0000
0000
0000
0000
0000
0000
0000
0000
0000
0000
0000
0010
0000
1000
0000
0010
0000
,
1000
0100
0010
0000
1001
0000
1000
0100
,
1100
0000
0001
0100
0101
0000
0010
0100
,
0001
0010
0100
1000
0010
0100
1000
0001
,
1001
0000
0000
0000
0000
0000
0100
0010
0100
0000
0000
0000
0000
0000
1000
0100
0001
0000
0100
0000
0001
0000
0000
0000
0010
0000
0000
0000
0000
0000
0001
0010
,
0001
0000
0100
0010
1001
0000
0010
0100
1001
0000
0100
0000
1001
0000
0010
0000
,
1001
0000
0000
0000
0000
0000
1000
0001
1000
0000
0000
0000
0000
0000
0100
0010
0100
0000
0010
0000
0001
0000
0000
0000
1000
0000
0000
0000
0000
0000
0010
0100
,
0001
0000
0100
0010
0100
0000
1000
0010
0001
0010
0100
1000
0010
0001
0100
0010
,
2002
0000
0000
0000
,
3003
0000
0000
0000
;

//---------------dance-double - ----------------
#NOTES:
     dance-double:
     :
     Challenge:
     19:
     1.093459,1.932184,0.302753,0.512351,0.954836,986.000000,947.000000,39.000000,66.000000,0.000000,0.000000,1.093459,1.932184,0.302753,0.512351,0.954836,986.000000,947.000000,39.000000,66.000000,0.000000,0.000000:
// measure 0
00000000
00000000
00000000
00000000
,  // measure 1
00000000
00000000
00000000
00000000
,  // measure 2
00000000
00000000
00000000
00000000
,  // measure 3
00000000
00000000
00000000
00000000
,  // measure 4
00010000
00000100
00010000
00000100
00010000
00001000
00000100
00000010
00000100
00000010
00000100
00000001
,  // measure 5
00000010
00000001
00000010
00000001
00000010
00000100
00001000
00000100
00001000
00000100
00010000
00001000
,  // measure 6
00100000
00010000
00100000
00010000
00100000
01000000
10000000
01000000
10000000
01000000
10000000
01000000
,  // measure 7
00100000
00010000
00100000
00010000
00100000
00001000
00010000
00000100
00001000
00000100
00001000
00000010
,  // measure 8
00000100
00000010
00000001
00000010
00000100
00000010
00000001
00000010
00000100
00001000
00000100
00000010
,  // measure 9
00000001
00000100
00000010
00001000
00000010
00000100
00000010
00000100
00001000
00010000
00001000
00000100
,  // measure 10
00010000
00001000
00010000
00100000
00010000
00100000
01000000
00100000
01000000
10000000
01000000
10000000
,  // measure 11
01000000
00100000
00010000
00100000
00010000
00001000
00010000
00001000
00000100
00001000
00000100
00000010
,  // measure 12
00000001
00000010
00000100
00001000
00010000
00100000
01000000
10000000
10010000
00000000
00011000
00000000
00001001
00000000
00011000
00000000
,  // measure 13
10010000
00000000
00000000
10000000
01000000
00000000
00000000
01000000
00001000
00000000
00000000
00001000
00000100
00000000
00000000
00000100
,  // measure 14
00000001
00000000
00000000
00000001
00001000
00000000
00000000
00001000
00100000
00000000
00000000
00100000
10000000
00000000
00000000
10000000
,  // measure 15
01000000
00000000
00000000
01000000
00010000
00000000
00000000
00010000
00001000
00000000
00000000
00001000
00000001
00000000
00000000
00000001
,  // measure 16
00000100
00000000
00000000
00000100
00010000
00000000
00000000
00010000
00001000
00000000
00000000
00001000
01000000
00000000
00000000
01000000
,  // measure 17
10000000
00000000
00000000
10000000
00100000
00000000
00000000
00100000
00001000
00000000
00000000
00001000
00000100
00000000
00000000
00000100
,  // measure 18
00000001
00000000
00000000
00000001
00000010
00000000
00000000
00000010
00001000
00000000
00000000
00001000
00010000
00000000
00000000
00010000
,  // measure 19
10000000
00000000
00000000
10000000
01000000
00000000
00000000
01000000
00001000
00000000
00000000
00001000
00010000
00000000
00000000
00010000
,  // measure 20
00000100
00001100
00000110
00011000
,  // measure 21
01100000
00000000
00000000
00000000
10000000
00000000
01000000
00100000
00010000
00000000
00000000
00000000
10000000
00000000
00100000
00000000
01000000
00000000
00001000
00000000
00010000
00000000
00001000
00010000
00001000
00000000
00000000
00000000
00010000
00000000
00000100
00000000
,  // measure 22
00000010
00000000
00000000
00000000
00000001
00000000
00001000
00000001
00001000
00000000
00000000
00000000
00000010
00000000
00001000
00000100
00001000
00000000
00000100
00000000
00010000
00000000
00001000
00000000
01000000
00000000
00010000
00000000
10000000
00100000
10000000
00100000
,  // measure 23
10000000
00000000
00000000
00000000
01000000
00000000
00100000
00000000
00001000
00000000
00000000
00000000
00010000
00000000
00001000
00000000
00000100
00000000
00000010
00000000
00000001
00000000
00000100
00000001
00000100
00000000
00000010
00000000
00000100
00000000
00001000
00000000
,  // measure 24
00010000
00001000
00010000
00001000
00100000
00010000
00100000
01000000
10000000
01000000
10000000
01000000
10000000
00000000
01000000
00000000
00100000
00000000
00010000
00000000
01000000
00000000
00100000
00000000
,  // measure 25
10000000
00010000
00100000
00001000
00010000
00000100
00001000
00000000
00000000
00010000
00000000
00000000
,  // measure 26
00000100
00000000
00001000
00000010
00000100
00000000
00000001
00000000
,  // measure 27
00000100
00000000
00000010
00001000
00000100
00000000
00010000
00000000
,  // measure 28
00001000
00000000
00100000
00010000
01000000
00000000
10000000
00000000
,  // measure 29
00100000
00000000
01000000
00010000
00100000
00000000
00001000
00000000
,  // measure 30
00010000
00000000
00000100
00001000
00000010
00000000
00000001
00000000
,  // measure 31
00000100
00000000
00000010
00001000
00000100
00000000
00010000
00000000
,  // measure 32
00001000
00000000
00100000
00010000
01000000
00000000
00100000
10000000
,  // measure 33
01000000
10000000
00100000
10000000
01000000
00000000
10000000
00000000
,  // measure 34
00100000
00000000
01000000
00001000
01000000
00000000
00001000
00000000
,  // measure 35
00010000
00000000
00000100
00001000
00000100
00000000
00001000
00000000
,  // measure 36
00000010
00000000
00000100
00000001
00000100
00000000
00000010
00000000
,  // measure 37
00001000
00000000
00000100
00010000
00000100
00000000
00010000
00001000
,  // measure 38
00010000
00000000
00001000
00100000
00001000
00000000
01000000
00100000
,  // measure 39
01000000
00000000
00100000
10000000
01000000
10000000
01000000
10000000
,  // measure 40
00010000
00100000
00010000
00100000
00001000
00010000
00000100
00001000
,  // measure 41
00000010
00000100
00000001
00000010
00000001
00000000
00000100
00000000
,  // measure 42
00000010
00000000
00001000
00000100
00010000
00000000
00001000
00000000
,  // measure 43
00010000
00000000
00100000
01000000
10000000
00000000
01000000
00000000
,  // measure 44
00010000
00000000
00001000
00000100
00000001
00000000
00000010
00000000
,  // measure 45
00000001
00000000
00000010
00000100
00001000
00000000
00010000
00000000
,  // measure 46
00100000
00000000
10000000
01000000
00100000
00000000
00010000
00000000
,  // measure 47
00001000
00000000
00000010
00000100
00001000
00000000
00000001
00000000
,  // measure 48
00000100
00000000
00000001
00001000
00000010
00000100
00001000
00000100
,  // measure 49
00010000
00001000
00000100
00001000
00010000
00000000
00001000
00000000
,  // measure 50
00100000
00000000
00010000
10000000
01000000
10000000
00010000
00000000
,  // measure 51
10000000
00000000
00100000
00010000
00100000
00000000
00001000
00000000
,  // measure 52
00010000
00000000
00000100
00001000
00000100
00001000
00000010
00000000
,  // measure 53
00000100
00000000
00000001
00000010
00000100
00001000
00000100
00000000
,  // measure 54
00010000
00001000
00010000
00000000
00100000
00010000
00100000
00000000
,  // measure 55
10000000
01000000
00010000
00000000
10000000
00100000
01000000
00000000
,  // measure 56
01000000
00010000
00100000
00000000
00010000
00001000
00010000
00000100
,  // measure 57
00001000
00000000
00000010
00000000
00000100
00000000
00000001
00000000
00002000
00000000
00000000
00000000
00013000
00000000
00100000
00010000
,  // measure 58
00200000
00000000
00000000
00000000
01300000
00000000
01000000
00100000
02000000
00000000
00100000
00000000
13000000
00000000
00000000
00000000
,  // measure 59
20100000
00000000
00000000
00000000
31000000
00000000
00100000
01000000
00200000
00000000
00000000
00000000
00301000
00000000
00010000
00000000
,  // measure 60
00002000
00000000
00013000
00000100
00000020
00000000
00000032
00000000
,  // measure 61
00000203
00000000
00000000
00000000
00002300
00000000
00000000
00000000
00023000
00000000
00000000
00000000
00031000
00000000
00100000
00001000
,  // measure 62
00200000
00000000
00000000
00000000
00310000
00000000
01000000
00010000
02000000
00000000
00010000
00000000
03100000
00000000
00000000
00000000
,  // measure 63
02000000
00000000
00000000
00000000
13000000
00000000
00100000
10000000
00200000
00000000
00000000
00000000
01300000
00000000
00001000
00000000
,  // measure 64
00020000
00000000
00030100
00000000
00001000
00000010
00000001
00000100
,  // measure 65
00000010
00000000
00000100
00000000
00001000
00000000
00010000
00000000
00200000
00000000
00000000
00000000
00301000
00000000
00010000
00000100
,  // measure 66
00020000
00000000
00000000
00000000
00030010
00000000
00000010
00001000
00000020
00000000
00000100
00000000
00000031
00000000
00000000
00000000
,  // measure 67
00000200
00000000
00000000
00000000
00000301
00000000
00000100
00000001
00000200
00000000
00000000
00000000
00000310
00000000
00001000
00000000
,  // measure 68
00000200
00000000
00001300
01000000
20000000
00000000
32000000
00000000
,  // measure 69
03200000
00000000
00000000
00000000
00320000
00000000
00000000
00000000
00032000
00000000
00000000
00000000
00013000
00000000
00000100
00010000
,  // measure 70
00000200
00000000
00000000
00000000
00001300
00000000
00000010
00001000
00000020
00000000
00001000
00000000
00000130
00000000
00000000
00000000
,  // measure 71
00000020
00000000
00000000
00000000
00000031
00000000
00000100
00000001
00000200
00000000
00000000
00000000
00000310
00000000
00010000
00000000
,  // measure 72
00002000
00000000
00103000
00010000
10000000
01000000
00100000
00010000
,  // measure 73
00001000
00000000
00000110
00000000
00000002
00000023
00000230
00002300
,  // measure 74
00023000
00230000
02300000
13000000
20000000
32000000
03200000
00320000
,  // measure 75
00032000
00000000
00000000
00003200
00000000
00000000
00000310
00000001
00000010
00000100
00001000
00000100
00001000
00000000
00000100
00000000
00001000
00000000
00000001
00000000
00000100
00000000
00000001
00000000
,  // measure 76
00001000
00000000
00000100
00000000
00010000
00000000
00001000
00000000
00100000
00000000
00010000
00000000
00200000
00000000
00000000
02300000
00000000
00000000
23000000
00000000
00000000
30020000
00000000
00000000
,  // measure 77
10030000
01000000
10000000
00010000
01000000
00010000
00001000
00010000
00001000
00000100
00001000
00000100
,  // measure 78
00002000
00000000
00000000
00003200
00000000
00000000
00000320
00000000
00000000
00000032
00000000
00000000
00001003
00000000
00010000
00000000
00001000
00000000
00010000
00000000
00001000
00000000
00010000
00000000
,  // measure 79
01000000
00100000
01000000
00100000
01000000
00100000
10000000
01000000
10000000
01000000
10000000
01000000
,  // measure 80
00100000
00010000
00100000
00010000
00100000
00010000
00001000
00000100
00001000
00000100
00001000
00000100
,  // measure 81
00000001
00000010
00000001
00000010
00000001
00000010
00001000
00000100
00001000
00000100
00001000
00000100
,  // measure 82
00010000
00000000
00000000
00001000
00000000
00000000
00010000
00000000
00000000
00001000
00000000
00000000
00100000
00000000
00000000
00010000
00000000
00000000
00100000
00000000
00000000
00010000
00000000
00000000
01000000
00000000
00000000
00000000
00100000
00000000
00000000
00000000
00010000
00000000
00000000
00000000
00100000
00000000
00000000
00000000
01000000
00000000
00000000
00000000
10000000
00000000
00000000
00000000
,  // measure 83
01000000
00100000
00010000
10000000
00100000
01000000
00010000
00100000
00001000
00010000
00000100
00001000
,  // measure 84
00000010
00000100
00001000
00000100
00000010
00000001
00001000
00000100
00000010
00000001
00000020
00000130
,  // measure 85
00001000
00000000
00000000
00000000
00000010
00000000
00000000
00000000
00000100
00000000
00000000
00000000
00000001
00000000
00000000
00000000
00001000
00000000
00000000
00000000
00000100
00000000
00000000
00000000
00000010
00000000
00000000
00000000
00000000
00000000
00000100
00000000
00000000
00000000
00000000
00000000
00001000
00000000
00000000
00010000
00000000
00000000
00100000
00000000
00000000
01000000
00000000
00000000
,  // measure 86
10000000
01000000
00000000
00100000
00010000
00000000
00110000
00000000
,  // measure 87
00010000
00001000
00000000
00001000
00000100
00000000
00001100
00000000
,  // measure 88
00000100
00000010
00000000
00000010
00000001
00000000
00000011
00000000
,  // measure 89
00000001
00000100
00000000
00000100
00000010
00000000
00000110
00000000
,  // measure 90
00000010
00001000
00000000
00001000
00000100
00000000
00001100
00000000
,  // measure 91
00000100
00001000
00000000
00001000
00000100
00000000
00001100
00000000
,  // measure 92
00000100
00010000
00000000
00010000
00001000
00000000
00001000
00010000
,  // measure 93
00001000
00100000
00010000
00100000
01000000
00010000
01000000
10000000
,  // measure 94
01000000
10000000
00000000
01000000
00100000
00000000
00110000
00000000
,  // measure 95
00100000
00001000
00000000
00010000
00000100
00000000
00001100
00000000
,  // measure 96
00001000
00000010
00000000
00000010
00000100
00000000
00000101
00000000
,  // measure 97
00000001
00000010
00000000
00000100
00001000
00000000
00011000
00000000
,  // measure 98
00001000
00010000
00000000
00100000
01000000
00000000
11000000
00000000
,  // measure 99
10000000
01000000
00000000
00100000
00010000
00000000
00011000
00000000
,  // measure 100
00001000
00000100
00000010
00000001
00001000
00000100
00000010
00000100
,  // measure 101
00010000
00001000
00010000
00001000
00100000
00010000
01000000
00100000
,  // measure 102
10000000
00100000
00000000
10000000
00100000
00000000
10100000
00000000
,  // measure 103
01000000
00010000
00000000
01000000
00010000
00000000
01010000
00000000
,  // measure 104
00100000
00001000
00000000
00010000
00001000
00000000
00010000
00000100
,  // measure 105
00001000
00000100
00000000
00001000
00000010
00000000
00000110
00000000
,  // measure 106
00000100
00000001
00000000
00000100
00000001
00000000
00001010
00000000
,  // measure 107
00001000
00000100
00000000
00001000
00000100
00000000
00001000
00000000
,  // measure 108
00010000
00001000
00000000
00100000
00010000
00000000
10000000
01000000
,  // measure 109
00100000
00010000
01000000
00100000
00010000
00100000
00010000
00001000
,  // measure 110
00010000
00001000
00000000
00001000
00000100
00000000
00000100
00000010
,  // measure 111
00000100
00000001
00000000
00000100
00000010
00000000
00001000
00000100
,  // measure 112
00001000
00000010
00000000
00001000
00000100
00000000
00010000
00001000
,  // measure 113
00010000
00000100
00000000
00010000
00001000
00000000
00100000
00000000
,  // measure 114
10000000
00000000
01000000
00000000
00100000
00000000
00010000
00000000
00001000
00000000
00000100
00000000
,  // measure 115
00000010
00000000
00000001
00000000
00000010
00000000
00000100
00000000
00001000
00000000
00100000
00000000
,  // measure 116
00010000
00001000
00010000
00001000
00000010
00000100
00000010
00000100
,  // measure 117
00000001
00000010
00000100
00001000
00000100
00010000
00001000
01000000
,  // measure 118
00200000
00000000
00000000
00000000
10300000
00000000
00000000
00000000
20100000
00000000
00000000
00000000
30010000
00000000
01000000
00100000
,  // measure 119
02000000
00000000
00100000
00000000
03010000
00000000
00000000
00000000
00210000
00000000
00000000
00000000
00301000
00000000
00010000
00000100
,  // measure 120
00020000
00000000
00030100
00001000
00000020
00000000
00000130
00000001
,  // measure 121
00001020
00000130
00000201
00000310
,  // measure 122
00001001
00000000
00000000
00000000
00000100
00000000
00000000
00000000
00001200
00000000
00000000
00000000
00010300
00000000
00001000
00100000
,  // measure 123
00001000
00000000
00100000
00000000
00010000
00000000
00000000
00000000
02100000
00000000
00000000
00000000
03100000
00000000
10000000
01000000
,  // measure 124
20000000
00000000
30100000
01000000
00010000
00000000
00100000
00001000
,  // measure 125
00010000
00001000
00000100
00000010
00000001
00000010
00000100
00001000
,  // measure 126
00010000
00000000
01100000
00000000
10000000
00000000
01100000
00000000
00010000
00100000
00001000
00000000
00010000
00000000
00001100
00000000
,  // measure 127
00000010
00000000
00000001
00000100
00001000
00000000
00000010
00000100
00010000
00000000
00011000
00000000
00100000
00000000
00110000
00000000
,  // measure 128
10000000
00000000
01000000
00000000
10000000
00000000
01000000
00000000
00100000
00001000
00100000
00000000
00001000
00000000
00010000
00000000
,  // measure 129
00000100
00000000
00001000
00000010
00001000
00000000
00000100
00000000
00000001
00000010
00000100
00000000
00001000
00010000
00100000
01000000
,  // measure 130
20000000
00000000
00000000
00000000
,  // measure 131
30000000
00000000
00000000
00000000
;

//---------------dance-single - ----------------
#NOTES:
     dance-single:
     :
     Beginner:
     8:
     0.286118,0.457622,0.147495,0.108680,0.000000,258.000000,239.000000,19.000000,14.000000,0.000000,0.000000,0.286118,0.457622,0.147495,0.108680,0.000000,258.000000,239.000000,19.000000,14.000000,0.000000,0.000000:
0000
0000
0000
0000
,
0000
0000
0000
0000
,
0000
0000
0000
0000
,
0000
0000
0000
0000
,
0010
0000
0010
0000
,
0001
0000
0001
0000
,
0100
0000
0100
0000
,
1000
0000
1000
0000
,
0010
0000
0010
0000
,
1000
0000
1000
0000
,
0100
0000
0100
0000
,
0001
0000
0001
0000
,
0010
0000
0010
0010
,
0010
0000
0000
0001
,
0000
1000
0000
0001
,
0000
1000
0000
1000
,
0000
0001
0000
0100
,
0100
0100
0000
0010
,
0000
0100
0000
0010
,
0000
1000
0000
0001
,
0001
0001
0001
0000
,
0100
0100
0000
0010
,
0000
1000
0000
0001
,
0000
0010
0000
0100
,
0000
1000
1000
1000
,
1000
0000
0010
0000
,
0000
0000
0100
0000
,
0000
0000
0010
0000
,
0000
0000
0100
0000
,
0000
0000
0001
0000
,
0000
0000
1000
0000
,
0000
0000
0001
0000
,
0000
0000
0100
0000
,
0100
0000
0100
0000
,
0000
0000
1000
0000
,
0000
0000
0100
0000
,
0000
0000
0010
0000
,
0000
0000
0100
0000
,
0000
0000
0001
0000
,
0000
0000
0100
0000
,
0010
0000
0001
0000
,
1001
0000
0010
0000
,
0010
0000
0100
0000
,
0100
0000
0001
0000
,
0001
0000
1000
0000
,
1000
0000
0010
0000
,
0010
0000
0100
0000
,
0100
0000
0001
0000
,
1000
0000
2002
0000
,
3003
0000
0010
0000
,
0010
0000
0100
0000
,
0100
0000
0001
0000
,
0001
0000
1000
0000
,
1000
0000
0010
0000
,
0010
0000
0100
0000
,
0100
0000
1000
0000
,
0100
0000
0010
0000
,
0001
0000
0100
0000
,
0110
0000
1000
1000
,
1000
0000
0001
0001
,
0001
0000
0010
0010
,
0010
0010
0010
0000
,
1001
0000
0100
0100
,
0100
0000
0010
0010
,
0010
0000
1000
1000
,
1000
0000
0001
0000
,
0110
0000
1000
1000
,
1000
0000
0010
0010
,
0010
0000
1000
0000
,
1001
0000
0001
0000
,
1001
0000
0010
0010
,
0010
0000
0100
0100
,
0100
0000
0010
0000
,
0000
0000
2002
0000
,
3003
0000
0000
0000
,
0000
0000
0010
0000
,
0010
0000
0000
0000
,
0010
0000
0010
0000
,
0000
0000
0010
0000
,
0010
0000
0100
0000
,
0100
0000
0001
0000
,
0001
0000
1000
0000
,
1000
0000
0010
0000
,
0100
0000
0001
0000
,
1000
0000
0010
0000
,
0000
0000
0100
0000
,
0100
0000
0000
0000
,
0010
0000
0000
0000
,
0100
0000
0000
0000
,
0010
0000
0000
0000
,
1000
0000
0000
0000
,
0001
0000
0000
0000
,
1000
0000
0000
0000
,
0001
0000
0001
0000
,
0001
0000
0000
0000
,
0100
0000
0000
0000
,
0010
0000
0000
0000
,
0100
0000
0000
0000
,
0010
0000
0000
0000
,
1000
0000
0000
0000
,
0010
0000
0010
0000
,
0010
0000
0000
0000
,
0100
0000
0100
0000
,
0010
0000
0010
0000
,
1000
0000
0001
0000
,
2002
0000
3003
0000
,
0010
0000
0010
0000
,
0100
0000
0100
0000
,
0001
0000
1000
0000
,
2002
0000
3003
0000
,
1000
0000
1000
0000
,
2002
0000
3003
0000
,
0001
0000
0001
0000
,
2002
0000
3003
0000
,
0010
0000
0110
0000
,
0100
0000
0110
0000
,
1000
0000
1001
0000
,
1001
0000
1001
0000
,
0100
0000
0110
0000
,
0010
0010
0010
0000
,
1000
1000
1000
0000
,
0001
0001
0001
0001
,
0001
0000
0100
0000
,
0010
0010
0010
0000
,
1000
1000
1000
0000
,
0001
0001
0001
0000
,
0100
0000
0010
0000
,
1000
1000
1000
0000
,
0100
0000
0010
0000
,
0001
0001
0001
0000
,
2002
0000
0000
0000
,
3003
0000
0000
0000
;

//---------------dance-single - ----------------
#NOTES:
     dance-single:
     :
     Easy:
     11:
     0.456902,0.813551,0.372619,0.411433,0.000000,412.000000,364.000000,48.000000,53.000000,0.000000,0.000000,0.456902,0.813551,0.372619,0.411433,0.000000,412.000000,364.000000,48.000000,53.000000,0.000000,0.000000:
0000
0000
0000
0000
,
0000
0000
0000
0000
,
0000
0000
0000
0000
,
0000
0000
0000
0000
,
0020
0030
0020
0030
,
0002
0003
0002
0003
,
0200
0300
0200
0300
,
2000
3000
0020
0030
,
2000
3000
2000
3000
,
0002
0003
0002
0003
,
0200
0300
0200
0300
,
0020
0030
0020
0030
,
0000
0000
0000
0000
1000
0001
1000
0001
,
0200
0010
0000
0310
,
0000
1001
0000
1001
,
0000
1100
0000
0101
,
0000
0011
0010
1010
,
0200
0010
0000
0310
,
0000
1001
0000
1001
,
1000
1100
0001
0101
,
1001
1001
1001
1001
,
0020
0000
0130
0000
1000
0100
0001
0000
,
0200
0000
0310
0000
0001
0100
1000
0000
,
1001
0000
0110
0000
0001
0010
0100
0000
,
1000
0100
0010
0001
0200
0000
0000
0000
,
0320
0000
1030
0000
,
0100
0000
1000
0100
,
1000
0000
0001
0000
,
0100
0000
0001
0100
,
0001
0000
0010
0000
,
0100
0000
0010
0100
,
0010
0000
1000
0100
,
0010
0000
0001
0010
,
0100
0000
1000
0000
,
0001
0000
1000
0100
,
1000
0000
0001
0000
,
1000
0000
0001
0100
,
0001
0000
0010
0100
,
0010
0000
1000
0001
,
1000
0000
0001
0000
,
0010
0000
0100
0000
,
1000
0000
0010
0000
,
0100
0000
0010
1000
,
0010
0000
0100
0000
,
0010
0000
0100
0001
,
0100
0000
0010
0000
,
1000
0000
0001
1000
,
0001
0000
1000
0001
,
1000
0000
0010
0000
,
0110
0000
1000
0000
,
0001
0000
1000
0100
,
1000
0000
0001
0000
,
0100
0000
0001
0100
,
0001
0000
0010
0000
,
0100
0000
1000
0000
,
0001
0000
1000
0001
,
1000
0001
0100
0010
,
0100
0010
0100
0000
,
1001
0000
0000
0000
0010
0100
0010
0000
,
1001
0000
1000
1000
,
1100
0000
0001
0001
,
0101
0000
0010
0000
,
1001
0000
0000
0000
0100
0010
0100
0000
,
1001
0000
0010
0010
,
1010
0000
0000
0000
0100
0001
0100
0000
,
0010
1000
1100
0000
,
0101
0000
0000
0000
0010
0001
0010
0000
,
1001
0000
0100
0100
,
1001
0000
0010
0010
,
1001
0000
1000
0000
,
0110
0000
0000
0000
0001
0100
0001
0000
,
1001
0000
0010
0010
,
1001
0000
0100
0100
,
0100
0000
0002
0203
,
0320
1030
2000
3020
,
0230
0301
0200
0300
,
0020
0030
0000
0000
,
0200
0300
0020
0030
,
0000
0000
1000
1000
,
0001
0001
0100
0100
,
0010
0010
1000
1000
,
0100
0100
0010
0010
,
0002
0003
0100
0100
,
0010
0010
1000
1000
,
0001
0001
0010
0100
,
1000
0001
2002
3003
,
0010
0000
1000
0000
,
0010
1000
0010
0000
,
0100
0000
0001
0000
,
0100
0001
0100
0000
,
1000
0001
1000
0000
,
0001
1000
0001
0000
,
0010
0000
0100
0000
,
2002
0000
3003
0000
,
0001
0000
0100
0000
,
0001
0100
0001
0000
,
1000
0000
0100
0000
,
1000
0100
1000
0000
,
0010
0000
0100
0000
,
0001
0000
1000
0000
,
2002
0000
3003
0000
,
0220
0000
0330
0000
,
1000
0000
0100
0000
,
1000
0100
0010
0000
,
0001
0000
0010
0000
,
0001
0010
0100
0000
,
1000
0100
1000
0000
,
0001
0100
0001
0000
,
0010
0100
0010
0000
,
2002
0000
3003
0000
,
1000
0100
1000
0000
,
0001
0100
0001
0000
,
0010
0100
0010
0000
,
1000
0001
1000
0000
,
0001
0100
0001
0100
,
1000
0100
1000
0100
,
0001
0010
0100
1000
,
0001
0010
0100
0000
,
1001
0000
1100
0000
,
0001
0010
0100
0000
1001
0000
0000
0000
,
0010
0010
1001
0000
,
0100
0100
1001
0000
,
1010
0000
0011
0000
,
1000
0100
0010
0000
1001
0000
0000
0000
,
0010
0010
0011
0000
,
1000
1000
1100
0000
,
0002
0203
0320
2030
,
3001
0100
1000
0000
1000
0100
0001
0000
,
2000
3020
0032
0023
,
1030
0100
0001
0000
0001
0010
0100
0000
,
2002
0000
0000
0000
,
3003
0000
0000
0000
;

//---------------dance-double - ----------------
#NOTES:
     dance-double:
     :
     Easy:
     11:
     0.438049,0.711857,0.217361,0.217361,0.000000,395.000000,367.000000,28.000000,28.000000,0.000000,0.000000,0.438049,0.711857,0.217361,0.217361,0.000000,395.000000,367.000000,28.000000,28.000000,0.000000,0.000000:
00000000
00000000
00000000
00000000
,
00000000
00000000
00000000
00000000
,
00000000
00000000
00000000
00000000
,
00000000
00000000
00000000
00000000
,
00100000
00000000
00001000
00000000
,
00000100
00000000
00000010
00000000
,
00000001
00000000
00000100
00000000
,
00010000
00000000
00001000
00000000
,
00010000
00000000
00100000
00000000
,
01000000
00000000
10000000
00000000
,
01000000
00100000
00010000
00000000
,
00001000
00000100
00000010
00000000
,
00000001
00000000
00000000
00000000
00001000
00000100
00001000
00000100
,
00002000
00000100
00000000
00003100
,
00000000
00010000
00001000
00010000
,
00000000
00100000
00010000
00100000
,
00000000
10000000
01000000
00100000
,
00020000
01000000
00000000
01030000
,
00000000
10000000
01000000
00100000
,
00000000
01000000
00100000
00001000
,
00010000
00000100
00000010
00000001
,
00000100
00000000
00000110
00000000
00000001
00000100
00001000
00000000
,
00010000
00000000
00011000
00000000
00010000
00100000
10000000
00000000
,
01000000
00000000
01100000
00000000
10000000
00100000
00010000
00000000
,
00001000
00011000
00000010
00000100
,
00000001
00000010
00001000
00000000
00000100
00000000
00000000
00000000
,
00001000
00000000
00000100
00010000
,
00000100
00000000
00010000
00000000
,
00001000
00000000
00100000
00010000
,
00100000
00000000
00010000
00000000
,
01000000
00000000
00100000
10000000
,
00100000
00000000
10000000
01000000
,
10000000
00000000
00010000
00000000
,
01010000
00000000
10000000
00000000
,
01000000
00000000
00100000
01000000
,
00100000
00000000
00001000
00000000
,
00010000
00000000
00000100
00001000
,
00000100
00000000
00000010
00000001
,
00000010
00000000
00000001
00000100
,
00000001
00000000
00000010
00000000
,
00001000
00000000
00000100
00000000
,
00010000
00000000
00001000
00000000
,
00100000
00000000
00010000
10000000
,
00010000
00000000
01000000
00000000
,
00100000
00000000
00001000
00010000
,
00001000
00000000
00000010
00000000
,
00000100
00000000
00000001
00001000
,
00000001
00000000
00000100
00000000
,
00010000
00000000
00001000
00100000
,
00001000
00000000
00100000
00000000
,
00010000
00000000
01000000
00100000
,
01000000
00000000
00100000
00000000
,
10000000
00000000
01000000
00010000
,
01000000
00000000
00100000
00001000
,
00010000
00000000
00010000
00000100
,
00001000
00000000
00000010
00000100
,
00000010
00001000
00000001
00001000
,
00000001
00000000
00000010
00000000
,
00001100
00000000
00000100
00010000
,
00011000
00000000
00100000
00010000
,
01010000
00000000
00100000
10000000
,
01000000
00100000
10010000
00000000
,
11000000
00000000
00100000
00001000
,
00011000
00000000
00010000
00000010
,
00000100
00000001
00000010
00000100
,
00001000
00000001
00001001
00000000
,
00001100
00000000
00000100
00010000
,
00011000
00000000
00100000
00010000
,
01010000
00000000
00100000
10000000
,
01000000
00100000
10010000
00000000
,
00100000
00000000
00001000
00010000
,
00000100
00000000
00000010
00000001
,
00001000
00000000
00000100
00001000
,
00010000
00100000
02000000
03000000
,
00002000
00003000
00020000
00030000
,
00000020
00000030
00001001
00000000
,
00001001
00000000
00000000
00000000
,
10010000
00000000
10010000
00000000
,
00000000
00000000
00002000
00003000
,
00020000
00030000
00000020
00000030
,
00000200
00000300
00000002
00000003
,
00002000
00003000
00000200
00000300
,
00020000
00030000
00001000
00010000
,
00100000
01000000
10000000
01000000
,
00100000
00010000
00000200
00000300
,
00000020
00000030
00002002
00003003
,
00000001
00000000
00000010
00000000
,
00000001
00000010
00000001
00000000
,
00001000
00000000
00000100
00000000
,
00001000
00000100
00001000
00000000
,
00100000
00000000
00010000
00000000
,
00100000
00010000
00100000
00000000
,
10000000
00000000
01000000
10000000
,
01000000
10000000
01000000
00000000
,
00100000
00000000
00010000
00000000
,
00001000
00010000
00001000
00000000
,
00010000
00000000
00000100
00000000
,
00001000
00000010
00001000
00000000
,
00000001
00000010
00000001
00000000
,
00001000
00000100
00001000
00000000
,
00000010
00000100
00000010
00000100
,
00000001
00001000
00000001
00000000
,
00000010
00000000
00001000
00000000
,
00000100
00010000
00000100
00000000
,
00010000
00000000
00001000
00000000
,
00100000
00010000
00100000
00000000
,
00010000
00000000
01000000
00000000
,
00100000
10000000
00100000
00000000
,
10000000
01000000
10000000
00000000
,
00010000
00100000
01000000
00000000
,
10000000
00000000
11000000
00000000
,
10000000
01000000
00100000
00000000
,
00010000
00000000
00011000
00000000
,
00001000
00000100
00000010
00000000
,
00000001
00000010
00000100
00000000
,
00000010
00000100
00001000
00000000
,
00000100
00010000
00001000
00000000
,
00100000
00010000
01000000
00100000
,
10010000
00000000
11000000
00000000
,
00100000
00010000
01000000
00000000
10010000
00000000
00000000
00000000
,
01000000
00100000
00010000
00001000
,
00000100
00000010
00000001
00000100
,
00001001
00000000
00000010
00000000
,
00000100
00000001
00001000
00000000
00001001
00000000
00000000
00000000
,
00000100
00001000
00100000
00010000
,
00100000
10000000
01000000
00100000
,
00002000
00023000
00030200
00000320
,
00000031
00000100
00001000
00000000
00000100
00001000
00010000
00000000
,
00000200
00002300
00003020
00020030
,
00031000
00100000
01000000
00000000
10000000
01000000
00100000
00020000
,
00002000
00000000
00000000
00000000
,
00033000
00000000
00000000
00000000
;

//---------------dance-single - ----------------
#NOTES:
     dance-single:
     :
     Medium:
     14:
     0.719731,0.966092,0.388145,0.062103,0.120325,649.000000,599.000000,50.000000,8.000000,0.000000,0.000000,0.719731,0.966092,0.388145,0.062103,0.120325,649.000000,599.000000,50.000000,8.000000,0.000000,0.000000:
0000
0000
0000
0000
,
0000
0000
0000
0000
,
0000
0000
0000
0000
,
0000
0000
0000
0000
,
1001
0100
0010
0001
,
1001
0010
0100
1000
,
1001
0010
0100
0010
,
1001
0100
0202
0303
,
1100
0010
0100
0010
,
0101
0010
0100
0010
,
1100
0010
0101
0010
,
1000
0100
0010
0001
,
0100
0000
0000
0000
1001
1001
0100
0110
,
1001
0000
1000
0000
0001
0100
0001
0000
,
1000
0100
1000
0000
0001
0010
0001
0000
,
1000
0000
1001
0000
0001
0100
0001
0000
,
1000
0100
1000
0000
0010
0100
0010
0000
,
1001
0000
0010
0000
0100
0001
0100
0000
,
0010
1000
0010
0000
1000
0100
1000
0000
,
0001
0000
0101
0000
0010
1000
0010
0000
,
1001
1100
0110
0011
,
1001
0000
0110
0000
0010
1000
1100
0000
,
0010
0000
0001
0000
0101
0000
0000
0000
1000
0100
0010
0001
0100
0000
0000
0000
,
0101
0000
1001
0000
0010
1000
1100
0000
,
0001
0010
0100
1000
0010
0000
0100
0000
,
0001
0010
0100
0000
1000
0000
0100
0000
,
1000
0100
0010
0001
,
0010
0001
0100
0010
,
0100
0010
1000
0001
,
1000
0001
1000
0100
,
1000
0100
0010
0001
,
0010
0100
1000
0001
,
1000
0001
1000
0100
,
0001
0100
1000
0010
,
1000
0010
0001
0010
,
0001
0010
1000
0100
,
1000
0100
0001
0100
,
0001
0100
0010
0100
,
1000
0000
0001
0010
,
0100
0000
1000
0100
,
0010
0001
0100
0010
,
0100
0010
1000
0100
,
1000
0001
0100
0001
,
1000
0010
0001
0010
,
0001
0010
1000
0010
,
1000
0000
0001
1000
0001
0000
1000
0000
,
0001
0100
0001
0100
,
0010
0100
0001
0010
,
0100
1000
0010
0010
,
0100
0100
0001
0010
,
0100
0010
0001
1000
,
0100
1000
0010
0100
,
1000
0100
0010
0001
,
0100
0001
0010
1000
,
0010
0100
0001
0010
,
0100
0000
1000
0000
0001
0100
0001
0000
,
1000
0100
1000
0000
0010
0100
0010
0000
,
1000
0001
1000
0000
0010
0000
0000
0100
,
0010
0000
0000
0100
0010
0100
0010
0000
,
1001
0000
0000
0001
0100
0000
0010
1000
,
0010
0000
1000
0100
0010
0000
0011
0000
,
1000
0000
1100
0000
0101
0000
0000
0010
,
0100
0000
0000
0001
0010
0100
1000
0000
,
1001
0000
0000
1000
0100
0000
0001
0010
,
0100
0000
1000
0100
0010
0001
0100
0010
,
1000
0100
0010
0001
0100
0000
0000
0001
,
1000
0000
0000
0010
0100
0010
1000
0000
,
0001
0000
0000
1000
0100
0000
0001
0010
,
0100
0000
1000
0100
0010
0000
1001
0000
,
0100
0000
1001
0000
0110
0000
0000
0001
,
0100
0000
0000
0010
1000
0100
0010
0000
,
1001
0000
0000
0001
0100
0000
1000
0100
,
0010
0000
0001
0100
0010
1000
0010
0100
,
0001
0000
1001
0000
0010
0100
0010
0100
,
0001
1000
0001
1000
0100
1000
0100
1000
,
0001
0010
0001
0010
0200
0000
0300
0000
,
0020
0000
0030
0000
1000
0100
0010
0001
,
0200
0300
0020
0030
,
0001
0000
0000
0010
0000
0000
0100
0000
0000
1000
0000
0000
0001
0000
0000
0000
0001
0000
0100
0000
0000
0000
0000
0000
,
1000
0000
1000
0100
0000
0000
0010
0000
0010
0100
0000
0000
,
0100
0000
0100
0001
0000
0000
1000
0000
1000
0001
0000
0000
,
0001
0000
0001
1000
0000
0000
0010
0000
0010
0100
0000
0100
,
0001
0000
0001
1000
0000
0000
0100
0000
1000
0100
0000
0000
,
0010
0000
0001
0010
0000
0000
1000
0000
0001
1000
0000
0000
,
0001
0000
1000
0001
0000
0000
0100
0010
0100
0010
0000
0000
,
0010
0000
0100
0000
0010
0000
0100
0000
0000
0000
0000
0000
1000
0000
0000
0100
0000
0000
0010
0000
0000
0001
0000
0000
,
1000
0000
0000
0010
0000
0000
0100
0000
,
0001
0000
0000
0010
0000
0000
0100
0000
,
1000
0000
0000
0010
0000
0000
0100
0000
,
0001
0000
0010
0000
0100
0000
1000
0001
,
1000
0000
0000
0010
0000
0000
0100
0000
,
0001
0000
0000
0100
0000
0000
0010
0000
,
1000
0000
0000
0100
0000
0000
0010
0000
,
0001
0100
0001
0000
0010
1000
0010
0000
,
1000
0000
0000
0100
0000
0000
0010
0000
,
0011
0000
0000
0001
0000
0000
0100
0000
,
0101
0000
0000
0100
0000
0000
0010
0000
,
1010
0000
0000
1000
0000
0000
0100
0000
,
1100
0000
0000
1000
0000
0000
0010
0000
,
0110
0000
0000
0100
0000
0000
0101
0000
,
0001
0010
0001
0000
0100
0010
0100
0000
,
0010
1000
0010
0000
1000
0100
1000
0000
,
0001
0000
0000
0100
0000
0000
0010
0000
,
1000
0000
0000
0100
0000
0000
0010
0000
,
1000
0000
0000
0001
0000
0000
0010
0000
,
1010
0000
0000
0100
0000
0000
0010
0000
,
1000
0000
0000
0100
0000
0000
0001
0000
,
0010
0000
0000
1000
0000
0000
0100
0000
,
0010
0000
0000
0001
0000
0000
0100
0010
,
0100
0010
0100
0000
0001
1000
0001
0000
,
1000
0000
0000
0100
0000
0000
0001
0000
,
0000
1000
0100
1000
0001
0100
0001
0000
,
0010
0000
0000
0100
0000
0000
0001
0000
,
0000
0001
0100
0001
1000
0100
1000
0000
,
0001
0000
0010
0000
0100
0000
1000
0000
0000
0000
0000
0000
,
1000
0000
0100
0000
0010
0000
0001
0000
0000
0000
0000
0000
,
1000
0000
0010
0000
0100
0000
0001
0000
0100
0000
0010
0000
,
1000
0000
0100
0000
0010
0000
0001
0000
0100
0000
0010
0000
,
1001
0000
0010
0100
0010
0000
1000
0100
,
0010
0001
0100
0000
1001
0000
0001
0010
,
0100
0000
1000
0100
0010
0000
0001
0100
,
0010
1000
0100
0000
0010
0001
0100
0000
,
0010
0000
1000
0100
1000
0000
0001
0100
,
0001
0100
0010
0000
1001
0000
1000
0100
,
1000
0000
0001
0100
0001
0000
0001
0010
,
0100
1000
0001
0010
0100
1000
0010
0100
,
1001
0100
0010
0100
0001
0100
0001
0100
,
1000
0010
1000
0010
0100
0001
0100
0001
,
1001
0000
0010
0000
0100
0100
0100
0000
,
0001
0010
0100
1000
0010
0100
0001
0000
,
2002
0000
0000
0000
,
3003
0000
0000
0000
;

//---------------dance-double - ----------------
#NOTES:
     dance-double:
     :
     Medium:
     14:
     0.693115,0.915245,0.287227,0.116443,0.120325,625.000000,588.000000,37.000000,15.000000,0.000000,0.000000,0.693115,0.915245,0.287227,0.116443,0.120325,625.000000,588.000000,37.000000,15.000000,0.000000,0.000000:
00000000
00000000
00000000
00000000
,
00000000
00000000
00000000
00000000
,
00000000
00000000
00000000
00000000
,
00000000
00000000
00000000
00000000
,
10000000
01000000
00100000
00010000
,
00001000
00000100
00000010
00000001
,
00000001
00000010
00000100
00001000
,
00010000
00100000
01000000
10000000
,
00010000
00100000
00001000
00010000
,
00000010
00000100
00000001
00000010
,
00001000
00000100
00010000
00001000
,
01000000
00100000
00010000
10000000
,
02000000
00000000
03000000
00000000
11000000
11000000
01010000
01010000
,
01100000
00000000
00010000
00000000
00001000
00000100
00000010
00000000
,
00000001
00000010
00000100
00000000
00000010
00000100
00001000
00000000
,
00000100
00000000
00010000
00000000
00001000
00010000
00100000
00000000
,
00010000
01000000
10000000
00000000
00100000
00000000
01000000
00000000
,
10010000
00000000
01100000
00000000
10000000
01000000
00100000
00000000
,
01000000
00010000
00100000
00000000
00100000
00001000
00010000
00000000
,
00000010
00000000
00001000
00000000
00000001
00000100
00001000
00000000
,
00001010
00001100
00011000
00110000
,
01010000
00000000
10100000
00000000
01000000
00100000
00010000
00000000
,
00001000
00000000
00000100
00000000
00000010
00000000
00000000
00000000
00000001
00000000
00000010
00000000
00000100
00000010
00000100
00000010
,
00000100
00000000
00001010
00000000
00000100
00010000
00011000
00000000
,
00001000
00010000
00100000
01000000
10000000
00000000
01000000
00000000
,
00100000
00001000
00010000
00000000
00001000
00000000
00000100
00000000
,
00000010
00000001
00000010
00000100
,
00010000
00000100
00000010
00000100
,
00001000
00010000
00100000
00001000
,
00000100
00001000
00100000
00010000
,
01000000
00100000
10000000
01000000
,
00010000
01000000
10000000
00100000
,
01000000
00010000
00000100
00010000
,
01000000
00010000
10000000
01000000
,
00100000
00010000
00001000
00000100
,
00000010
00000001
00000010
00001000
,
00000010
00000001
00000100
00000010
,
00001000
00000100
00010000
00001000
,
00010000
00100000
01000000
10000000
,
01000000
00100000
00001000
00000100
,
00000010
00000001
00001000
00000100
,
00010000
00001000
00010000
00001000
,
00100000
00010000
01000000
00100000
,
10000000
00000000
00100000
10000000
00100000
00000000
10000000
00000000
,
01000000
00100000
00010000
00001000
,
00000100
00000000
00000010
00000001
00000010
00000000
00000001
00000000
,
00000100
00010000
00001000
00100000
,
00010000
00000000
10000000
01000000
10000000
00000000
00100000
00000000
,
01000000
00000000
00001000
00000000
00010000
00001000
00010000
00000000
,
00000100
00001000
00000100
00000000
00001000
00000000
00000010
00000000
,
00000100
00000001
00000100
00000010
,
00010000
00000000
00001000
00010000
00001000
00000000
01000000
00000000
,
00010000
01000000
10000000
01000000
,
00100000
00000000
00001000
00010000
00001000
00000000
00010000
00000000
,
00000100
00000000
00001000
00000010
00001000
00000000
00000001
00000000
,
00000100
00000000
00000010
00000000
00001000
00000100
00001000
00000100
,
00010000
00001000
00010000
00000000
00100000
00010000
00100000
00010000
,
01000000
00100000
01000000
00000000
10000000
00000000
00000000
01000000
,
00100000
00000000
00000000
00001000
00010000
00001000
00010000
00000000
,
00000100
00000000
00000000
00001000
00000010
00000000
00000100
00000001
,
00000100
00000000
00000010
00001000
00000100
00000000
00001100
00000000
,
00010000
00000000
00011000
00000000
00100000
00000000
00000000
00010000
,
01000000
00000000
00000000
00100000
10000000
01000000
00100000
00000000
,
10010000
00000000
00000000
10000000
01000000
00000000
00100000
00010000
,
00001000
00000000
00000100
00000000
00001000
00000010
00000100
00000000
,
00000001
00000100
00000010
00000000
00001000
00000000
00001100
00000000
,
00010000
00000000
00011000
00000000
00100000
00010000
01000000
00000000
,
10010000
00000000
00000000
00100000
10000000
00000000
01000000
00100000
,
00010000
00000000
00100000
00001000
00010000
00000000
00010100
00000000
,
00000100
00001100
00001000
00000010
,
00000100
00000000
00000001
00000000
00000010
00000100
00001000
00000000
,
00001100
00000000
00000000
00000100
00010000
00000000
00010000
00001000
,
00100000
00000000
00100000
00010000
01000000
00000000
00100000
00000000
,
10000000
00000000
00000000
00000000
20000000
30000000
02000000
03000000
,
00002000
00003000
00000200
00000300
00000020
00000030
00020000
00030000
,
00200000
00300000
20000000
30000000
00100000
00000000
01000000
00000000
,
00001000
00000000
00010000
00000000
00000200
00000300
00000020
00000030
,
00000001
00000010
00000100
00001000
,
00020000
00000000
00000000
00030000
00000000
00000000
00002000
00000000
00000000
00003000
00000000
00000000
00010000
00000000
00000000
00000000
00010000
00000000
00100000
00000000
00000000
00000000
00000000
00000000
,
10000000
00000000
10000000
01000000
00000000
00000000
00100000
00000000
00100000
00001000
00000000
00000000
,
00010000
00000000
00010000
00000100
00000000
00000000
00001000
00000000
00001000
00000100
00000000
00000000
,
00000100
00000000
00000100
00000001
00000000
00000000
00000001
00000000
00000001
00001000
00000000
00000000
,
00000010
00000100
00000010
00000100
00000000
00000000
00000001
00000000
00000001
00000100
00000000
00000000
,
00000100
00000000
00000100
00010000
00000000
00000000
00010000
00000000
00010000
01000000
00000000
00000000
,
01000000
00000000
01000000
10000000
00000000
00000000
10000000
00100000
10000000
00100000
00000000
00000000
,
00001000
00000000
00010000
00000000
00001000
00000000
00010000
00000000
00000000
00000000
00000000
00000000
00000100
00000000
00000000
00001000
00000000
00000000
00010000
00000000
00000000
00100000
00000000
00000000
,
01000000
00100000
01000000
00000000
,
10000000
00010000
10000000
00000000
,
00100000
00010000
00100000
00000000
,
00001000
00010000
00001000
00000000
,
00000100
00001000
00000100
00000000
,
00000010
00000001
00000010
00000000
,
00000001
00000100
00000010
00001000
,
00000100
00010000
00001000
00100000
,
00010000
01000000
10000000
00000000
,
10000000
01000000
00010000
00000000
,
00100000
00001000
00010000
00000000
,
00000100
00001000
00000010
00000000
,
00000001
00000010
00000001
00000000
00000100
00000000
00000010
00000000
,
00001000
00000100
00001000
00000000
00000100
00000000
00010000
00000000
,
00001000
00100000
00010000
01000000
,
00100000
10000000
00100000
00000000
00010000
01000000
00010000
00000000
,
10000000
00000000
00000000
11000000
00000000
00000000
01000000
00000000
,
01000000
00000000
00000000
00110000
00000000
00000000
00001000
00000000
,
00001000
00000000
00000000
00011000
00000000
00000000
00000100
00000000
,
00001000
00000100
00001000
00000000
00000001
00000100
00000001
00000000
,
00000001
00000000
00000000
00000011
00000000
00000000
00000010
00000000
,
00000010
00000000
00000000
00001010
00000000
00000000
00010000
00000000
,
00010000
00000000
00000000
00011000
00000000
00000000
00001000
00000000
,
01000000
00010000
01000000
00000000
00100000
10000000
00100000
00000000
,
10000000
00000000
00000000
11000000
00000000
00000000
01010000
00000000
,
00000000
01000000
00100000
01000000
00100000
01000000
00100000
00000000
,
10000000
00000000
00000000
01010000
00000000
00000000
00100000
00000000
,
00000000
00001000
00010000
00001000
00010000
00001000
00010000
00000000
,
00001000
00000000
00010000
00000000
00001000
00000000
00010000
00000000
00000100
00000000
00001000
00000000
,
00000010
00000000
00000100
00000000
00000010
00000000
00001000
00000000
00000100
00000000
00010000
00000000
,
00001000
00000000
00100000
00000000
00010000
00000000
10000000
00000000
01000000
00000000
00100000
00000000
,
00010000
00000000
10010000
00000000
,
11000000
00000000
00100000
00010000
00100000
00000000
00001000
00000100
,
00001000
00000100
00001000
00000000
00000011
00000000
00000100
00000001
,
00000100
00000000
00000010
00001000
00000100
00000000
00000100
00010000
,
00001000
00010000
01000000
10000000
,
01000000
00000000
10000000
01000000
00010000
00000000
00100000
00001000
,
00100000
00001000
00000100
00000000
00001000
00000000
00000010
00000001
,
00000010
00000000
00000010
00000100
00001000
00000000
00000100
00010000
,
00100000
00000000
00010000
00100000
01000000
10000000
01000000
00000000
,
10000000
01000000
00100000
00010000
00001000
00000100
00000010
00000000
,
00000001
00000010
00000100
00001000
00010000
00100000
01000000
00000000
,
10000000
00100000
00001000
00000010
,
00000001
00000100
00010000
00100000
,
00022000
00000000
00000000
00000000
,
00033000
00000000
00000000
00000000
;
