#TITLE:Go Ahead!! (Invasion Remix);
#SUBTITLE:;
#ARTIST:Ryu vs Sota vs Luxion + RTM\:TSDJ;
#TITLETRANSLIT:;
#SUBTITLETRANSLIT:;
#ARTISTTRANSLIT:;
#GENRE:;
#CREDIT:;
#BANNER:Go Ahead!! (Invasion Remix).png;
#BACKGROUND:Go Ahead!! (Invasion Remix)-bg.png;
#LYRICSPATH:;
#CDTITLE:;
#MUSIC:Go Ahead!! (Invasion Remix).ogg;
#OFFSET:-4.199999;
#SAMPLESTART:7.799999;
#SAMPLELENGTH:10.500000;
#SELECTABLE:YES;
#DISPLAYBPM:50.000000:200.000000;
#BPMS:0.000000=200.000000
,50.000000=196.000000
,52.000000=200.000000
,88.000000=199.440002
,116.000000=200.000000
,135.000000=199.979996
,146.000000=400.000000
,147.000000=100.000000
,177.000000=150.000000
,178.000000=154.000000
,180.000000=200.000000
,308.000000=100.000000
,340.000000=50.000000
,342.000000=25.000000
,344.000000=200.000000
;
#STOPS:146.000000=0.499900
;
#BGCHANGES:;
#KEYSOUNDS:;
#ATTACKS:;

//---------------dance-single - ----------------
#NOTES:
     dance-single:
     :
     Hard:
     13:
     0.472470,0.742916,0.301348,0.768437,0.056503,439.000000,399.000000,40.000000,102.000000,0.000000,0.000000,0.472470,0.742916,0.301348,0.768437,0.056503,439.000000,399.000000,40.000000,102.000000,0.000000,0.000000:
0000
0000
0000
0000
,
0000
0000
0000
0000
,
0000
0000
0000
0000
,
1100
0000
0000
0101
0000
0000
2002
0000
,
0000
0000
3003
0010
,
0101
0000
0000
1100
0000
0000
2002
0000
,
0000
0000
3003
0010
,
1001
0000
0000
1100
0000
0000
0101
0000
,
0000
0110
0000
0000
2002
0000
3003
0000
,
1010
0000
1010
0000
0010
1000
1010
0000
,
0101
0000
0101
0000
0100
0001
0101
0000
,
1010
0010
1000
0000
0101
0100
0001
0000
,
1001
0000
0000
0000
1000
0100
0001
0000
,
2000
0001
3000
0200
0000
0000
0310
0000
,
0002
0103
0000
0020
1000
0030
1001
0000
,
2000
0100
3000
0002
0000
0000
0103
0000
,
0020
1030
0000
0002
0100
0003
1001
0000
,
1000
0100
0000
2000
0000
0000
3001
0000
,
0002
0103
0000
2000
0010
3000
0001
0000
,
2000
0100
3000
0002
0100
0003
0100
0000
,
0001
0100
1000
0000
0001
0010
1000
0000
,
0101
0010
0100
0001
0100
0010
0100
0001
,
1000
0100
0010
0001
0100
0010
1000
0000
,
0001
0100
0001
0100
0010
1000
0010
1000
,
0001
0100
0010
1000
0100
0010
1001
0000
,
1000
0100
1000
0100
1000
0010
1000
0000
,
0001
0100
0001
0100
0001
1000
0001
0000
,
0010
0100
1001
0000
0100
0010
1001
0000
,
0100
0100
0100
0000
0001
0010
1000
0000
,
2002
0000
0000
0000
,
0000
0000
0000
0000
,
0000
0000
3003
0000
,
0000
0000
0000
0000
0000
0000
0000
0000
0000
0000
0000
0000
0000
0000
0000
0000
0000
0000
0000
0000
0020
0000
0000
0000
0000
0000
0000
0000
0000
0000
0000
0000
0030
0000
0000
0000
0000
0000
0000
0000
0000
0000
0000
0000
0000
2002
0000
0000
,
0000
0000
0000
0000
,
0000
0000
0000
0000
,
3003
0000
0000
0000
,
0000
0000
0000
0020
,
0032
0203
2300
3020
,
0000
2030
3200
0320
,
0032
0203
2300
3020
,
0000
0230
0302
2003
,
3002
0023
0230
2300
,
3002
0203
0320
0032
,
0203
0320
2030
3200
,
0000
2300
0000
0000
,
3001
1000
0000
0001
1000
0000
0010
0000
,
1000
0001
0000
1000
0001
0000
0100
0000
,
0001
0100
0001
0100
0001
0000
0010
0000
,
1000
0100
0000
1000
0100
0000
1010
0000
,
0100
0001
0100
0001
0100
0000
1010
0000
,
0001
0001
0000
0100
0010
0000
1001
0000
,
1000
0100
1000
0100
1000
0000
0101
0000
,
0010
0010
0000
1000
1000
0000
1001
0000
,
0002
0100
0000
0103
0020
0000
1000
0030
,
0200
0001
0000
0301
2000
0000
0010
3000
,
0200
0001
0000
0301
0020
0000
1000
0030
,
0200
0010
0000
0310
0002
0000
1000
0003
,
0020
0100
0000
0100
0032
0000
1000
0000
,
0203
0010
0000
0310
0002
0000
1000
0000
,
0203
0000
0000
0000
0300
0000
0001
0010
,
1000
1001
1001
1001
,
1000
0010
0100
0001
1000
0010
0100
0001
,
1000
0100
0010
0001
1000
0100
0010
0001
,
1000
0001
0100
0010
1000
0001
0100
0010
,
1000
0001
0100
0001
1000
0100
1000
0001
,
0100
0010
0100
0010
1000
0001
1000
0001
,
0100
0000
0000
0001
0000
0000
0100
0000
0000
0001
0000
0000
1000
0000
0100
0000
1000
0000
0100
0000
1000
0000
0010
0000
,
0100
0001
0010
0100
0010
1000
0100
0010
,
0001
0100
0001
0100
0001
0100
0001
0100
0001
0000
0010
0000
1000
0000
0100
0000
,
0010
0001
0100
0010
1000
0100
0010
0001
,
0100
0001
0000
0000
0001
0100
0000
0000
0100
0010
0000
0000
0010
1000
0000
0000
,
1000
0010
1000
0010
1000
0001
1000
0001
,
0100
0010
0100
0010
1000
0001
1000
0001
,
1000
0100
0010
0001
0100
0100
0110
0000
,
0001
0010
0100
1000
0010
0010
0110
0000
,
1000
1000
1001
0000
0001
0001
1001
0000
,
0020
0230
0302
2003
,
3020
0032
0203
2300
,
3020
0000
2030
3200
,
0302
0023
0230
2300
,
3020
0000
0230
0302
,
2003
3002
0023
0230
,
2300
3020
0230
2300
,
3002
0203
0320
2030
,
3200
0000
0000
0000
0300
0000
0001
0010
0200
0000
0000
0000
0300
0000
0000
0000
,
2000
3002
0203
0320
2030
0000
3000
0000
;

//---------------dance-double - ----------------
#NOTES:
     dance-double:
     :
     Hard:
     13:
     0.442336,0.581413,0.301348,0.678033,0.007534,411.000000,371.000000,40.000000,90.000000,0.000000,0.000000,0.442336,0.581413,0.301348,0.678033,0.007534,411.000000,371.000000,40.000000,90.000000,0.000000,0.000000:
00000000
00000000
00000000
00000000
,
00000000
00000000
00000000
00000000
,
00000000
00000000
00000000
00000000
,
01010000
00000000
00000000
00011000
00000000
00000000
00000202
00000000
,
00000000
00000000
00000303
00000000
,
00000101
00000000
00000000
00011000
00000000
00000000
02020000
00000000
,
00000000
00000000
03030000
00000000
,
11000000
00000000
00000000
01010000
00000000
00000000
00011000
00000000
,
00000000
00001100
00000000
00000000
00000202
00000000
00000303
00000000
,
00000101
00000101
00001100
00011000
,
01010000
01010000
01010000
11000000
,
01010000
00011000
00001100
00011000
,
02000000
00000000
03001000
00010000
,
01000000
00000000
01000000
00000000
01000000
00001000
00000000
00001000
,
00010000
00000010
00000000
00000010
00000100
00000000
00001001
00000000
,
00000010
00000000
00000010
00000000
00000010
00010000
00000000
00010000
,
00001000
00100000
00000000
00020000
00000000
00000000
01030000
00000000
,
00100000
00000000
00100000
00000000
10000000
01000000
00000000
01000000
,
00001000
00010000
00000000
00020000
00000000
00000000
00030100
00000000
,
00001000
00000000
00001000
00000000
00001000
00000010
00000100
00000001
,
00000100
00001001
00001100
00001100
,
00020000
00000000
00031000
00000000
00100000
00010000
01000000
00000000
,
00100000
10000000
01000000
10000000
00100000
10000000
01000000
00000000
,
02000000
00000000
03001000
00000000
00010000
00000100
00001000
00000000
,
00001000
00000010
00001000
00000100
00001000
00000001
00001000
00000000
,
00000200
00000000
00010300
00000000
00001000
01000000
00100000
00000000
,
10000000
00010000
01000000
00100000
10000000
00010000
01000000
00000000
,
00200000
00000000
00301000
00000000
00020000
00000100
00030100
00000000
,
00002000
00000000
00003001
00000000
00000010
00010000
00001000
00000000
,
00022000
00000000
00000000
00000000
,
00000000
00000000
00000000
00000000
,
00033000
00000000
00000000
00000000
,
00000000
00000000
00000000
00000000
00000000
00000000
00000000
00000000
00000000
00000000
00000000
00000000
00000000
00000000
00000000
00000000
00002000
00000000
00000000
00000000
00000000
00000000
00000000
00000000
00003000
00000000
00000000
00000000
00000000
00000000
00000000
00000000
00000000
00000000
00000000
00000000
00000000
00000000
00000000
00000000
00000000
00000000
00000000
00000000
00000000
00022000
00000000
00000000
,
00000000
00000000
00000000
00000000
,
00000000
00000000
00000000
00000000
,
00033000
00000000
00000000
00000000
,
00000000
00000000
00000000
20000000
,
32000000
03200000
00320000
00230000
,
00000000
02300000
03020000
00032000
,
00003200
00000320
00000032
00000203
,
00000000
00002300
00023000
00032000
,
00003002
00000023
00002030
00023000
,
00030200
00002300
02003000
03020000
,
00230000
02300000
23000000
30200000
,
00000000
02300000
00000000
00000000
,
03001000
00010000
00001000
00010000
00001000
00000000
00011000
00000000
,
00001000
00000010
00000000
00000100
00000001
00000000
00001001
00000000
,
00000010
00000100
00000010
00000100
00000010
00000000
00001001
00000000
,
00000100
00010000
00000000
00001000
01000000
00000000
10010000
00000000
,
10000000
00100000
10000000
00100000
10000000
00000000
10010000
00000000
,
10000000
00100000
00000000
00001000
00100000
00000000
00001000
00000000
,
00010000
00000010
00010000
00000010
00010000
00000000
00000010
00000000
,
00001000
00000001
00000000
00000100
00000010
00000000
00001001
00000000
,
00000002
00000100
00000000
00000103
00000020
00000000
00001030
00000000
,
00000200
00010000
00000000
00010300
00002000
00000000
01003000
00000000
,
00020000
10000000
00000000
10030000
00200000
00000000
10300000
00000000
,
00200000
01000000
00000000
01300000
00002000
00000000
00013000
00000000
,
00020000
00000010
00000000
00030010
00000200
00000000
00000301
00000000
,
00000002
00001000
00000000
00001003
00000200
00000000
00010300
00000000
,
00002000
00000000
00000000
00000000
00003000
00000000
01000000
00010000
,
00100000
10010000
00011000
00001001
,
00000001
00000100
00000001
00000100
00000010
00001000
00000010
00001000
,
00000100
00010000
00000100
00010000
00001000
01000000
00001000
01000000
,
00010000
10000000
00010000
10000000
00100000
01000000
00100000
01000000
,
00001000
00010000
00001000
00010000
00000010
00000100
00000010
00000100
,
00000001
00000010
00000100
00001000
00000100
00001000
00000100
00001000
,
00000010
00010000
00001000
00010000
00001000
01000000
00010000
01000000
,
00010000
00100000
01000000
10000000
01000000
00000000
10010000
00000000
,
01000000
00100000
00001000
00010000
00000100
00000000
00001100
00000000
,
00000001
00000100
00000010
00000000
00001000
00000100
00001000
00000000
,
01000000
00010000
01000000
00000000
10000000
01000000
10000000
00000000
,
00010000
01000000
00010000
00000000
00001000
01000000
00001000
00000000
,
00010000
00000100
00010000
00000000
00000001
00000100
00000001
00000000
,
00000100
00000010
00001000
00000100
00000010
00000001
00000100
00000010
,
00001000
00000100
00010000
00001000
01000000
00010000
00100000
01000000
,
10000000
00100000
01000000
00001000
00010000
00000010
00000100
00000001
,
00000010
00000100
00001000
00000100
00010000
00001000
00100000
00010000
,
02000000
23000000
30200000
00320000
,
02030000
00000000
03002000
00023000
,
00030020
00000032
00000203
00002300
,
00003020
00000000
00020030
00032000
,
02003000
03020000
20030000
30200000
,
00302000
00003200
00000302
00000023
,
00020030
00032000
02003000
03200000
,
00302000
00000000
00020000
00033000
,
00010000
00001000
00000100
00000010
00000002
00000000
00000003
00000000
;

//---------------dance-single - ----------------
#NOTES:
     dance-single:
     :
     Medium:
     10:
     0.331483,0.549112,0.323949,0.384218,0.007534,308.000000,265.000000,43.000000,51.000000,0.000000,0.000000,0.331483,0.549112,0.323949,0.384218,0.007534,308.000000,265.000000,43.000000,51.000000,0.000000,0.000000:
0000
0000
0000
0000
,
0000
0000
0000
0000
,
0000
0000
0000
0000
,
2000
0000
0000
3200
0000
0000
0302
0000
,
0000
0000
0003
0100
,
0002
0000
0000
0203
0000
0000
2300
0000
,
0000
0000
0000
0000
3000
0010
0010
0000
,
2000
0000
0000
3200
0000
0000
0320
0000
,
0000
0032
0000
0000
0203
0000
0310
0000
,
1001
1001
1001
0010
,
1001
1001
1001
0100
,
1001
0010
1001
0100
,
0020
0000
0130
0100
,
1000
0000
0010
0000
1000
0010
0000
0100
,
0001
0100
0000
0001
0000
0000
0100
0000
,
0010
0000
0010
0000
0100
0010
0100
0010
,
0000
0000
0000
0001
0000
0000
1000
0000
,
0010
0000
0100
0000
0001
1000
0000
1000
,
0001
1000
0000
0010
0000
0000
0100
0000
,
0000
0000
1001
0000
0000
0100
0010
0000
,
0000
0000
0110
1001
,
1000
0000
1000
0000
1000
0100
1000
0000
,
0001
0001
0100
0100
,
0001
0000
0001
0000
0001
0100
0001
0000
,
0100
0100
0200
0300
,
0010
0000
0010
0000
1000
0010
1000
0000
,
0000
0001
1000
0001
1000
0000
0010
0000
,
0000
0000
1001
0000
0000
0100
0010
0000
,
0000
0000
0000
0000
1000
0100
1000
0000
,
0020
0000
0000
0000
,
0000
0000
0000
0000
,
0030
0000
0000
0000
,
0000
0000
0000
0000
0000
0000
0000
0000
0000
0000
0000
0000
0000
0000
0000
0000
0000
0000
0000
0000
0010
0000
0000
0000
0000
0000
0000
0000
0000
0000
0000
0000
0000
0000
0000
0000
0000
0000
0000
0000
0000
0000
0000
0000
0000
2002
0000
0000
,
0000
0000
0000
0000
,
0000
0000
0000
0000
,
3003
0000
0000
0000
,
0000
0000
0020
0030
,
0100
0100
0100
0200
,
0000
0300
0000
0001
,
0001
1000
1000
0002
,
0000
0003
0000
0010
,
0010
0010
0000
1000
,
1000
1000
0000
0001
,
0100
0001
0100
0002
,
0000
2000
0000
3003
,
0010
0000
0000
0110
0000
0000
0000
0000
,
0001
0000
0000
1001
0000
0000
0000
0000
,
1000
0000
0000
0110
0000
0000
0000
0000
,
0010
0000
0000
1001
0000
0000
0000
0000
,
1000
0000
0000
0101
0000
0000
0000
0000
,
0001
0000
0000
1100
0000
0000
0000
0000
,
0010
0000
0000
1001
0000
0000
0000
0000
,
0100
0000
0000
1001
0000
0000
0000
0000
,
2000
3000
0002
0003
,
0200
0300
0020
0030
,
2000
3000
0200
0300
,
0020
0030
0002
0003
,
0100
0010
0100
0010
,
0100
0010
0100
0010
0100
0010
0100
0010
,
0200
0000
0000
0300
,
0002
1000
1000
1003
,
1010
0000
0101
0000
1000
0100
1000
0000
,
0001
0100
0001
0000
0010
0000
1000
0000
,
0101
0000
1010
0000
0001
0100
0001
0000
,
1000
0100
1000
0000
0110
0000
0110
0000
,
1100
0000
1100
0000
0001
0100
0001
0000
,
0101
0000
0101
0000
1000
0100
1000
0000
,
0110
0110
1001
1001
,
0001
1000
0001
1000
0001
1000
0001
0000
,
0100
0100
0110
0110
,
0001
0001
1001
1001
,
0100
0100
1100
1100
,
0001
0001
0101
0101
,
1000
0100
1000
0000
0010
0100
0010
0000
,
0100
0001
0100
0000
0010
1000
0010
0000
,
1000
0100
1000
0100
1000
0100
1000
0010
,
0100
0001
0100
0001
0100
0001
0100
0010
,
2000
0000
0000
3000
,
0002
0000
0000
0003
,
0200
0000
0000
0300
,
0020
0000
0000
0030
,
0002
0203
0320
2030
,
3002
0023
0230
2300
,
3020
0230
0302
2003
,
3020
0000
0230
0000
,
0302
0000
2000
3003
;

//---------------dance-single - ----------------
#NOTES:
     dance-single:
     :
     Easy:
     7:
     0.283052,0.484511,0.248612,0.256146,0.003767,263.000000,230.000000,33.000000,34.000000,0.000000,0.000000,0.283052,0.484511,0.248612,0.256146,0.003767,263.000000,230.000000,33.000000,34.000000,0.000000,0.000000:
0000
0000
0000
0000
,
0000
0000
0000
0000
,
0000
0000
0000
0000
,
0010
0000
0000
0100
0000
0000
0020
0000
,
0000
0000
0000
0030
,
0100
0000
0000
0010
0000
0000
0200
0000
,
0000
0000
0000
0300
,
1000
0000
0000
0100
0000
0000
0010
0000
,
0000
0001
0000
0000
0200
0000
0300
0000
,
0010
0010
0010
0000
,
0100
0100
0100
0000
,
0020
0030
0200
0300
,
0000
0000
0001
1000
,
0001
0000
0000
1001
0000
0000
0000
0000
,
1000
0000
0000
0100
0000
0000
0010
0000
,
1000
0000
0000
1001
0000
0000
0000
0000
,
0001
0000
0000
0100
0000
0000
0010
0000
,
1000
0000
0000
1001
0000
0000
0000
0000
,
1000
0000
0000
0100
0000
0000
0001
0000
,
1000
1001
0000
0110
,
0000
0010
0110
1001
,
0100
0100
0001
0001
,
1000
0100
0010
0001
,
0010
0010
1000
1000
,
0010
0110
1001
0000
,
0001
0001
0100
0100
,
0000
0010
0100
0010
0100
0000
0000
0000
,
2000
3001
0002
0103
,
0000
0000
0110
1001
,
0200
0000
0000
0000
,
0000
0000
0000
0000
,
0300
0000
0000
0000
,
0000
0000
0000
0000
0000
0000
0000
0000
0000
0000
0000
0000
0000
0000
0000
2002
,
0000
0000
0000
0000
,
0000
0000
0000
0000
,
3003
0000
0000
0000
,
0000
0000
0000
0000
,
0002
0203
2300
3020
,
0000
2030
3000
0002
,
0203
0320
2030
3200
,
0000
0302
0003
1000
,
0001
0010
0000
1000
,
0010
0100
0000
0001
,
0010
0100
1000
0020
,
0000
0200
0000
0330
,
0001
0000
0000
0001
0000
0000
0000
0000
,
1000
0000
0000
1000
0000
0000
1000
0000
,
0010
0000
0000
0010
0000
0000
0000
0000
,
0100
0000
0000
0100
0000
0000
1001
0000
,
0010
0000
0000
0010
0000
0000
0000
0000
,
1000
0000
0000
1000
0000
0000
0001
0000
,
0100
0000
0000
0100
0000
0000
0000
0000
,
0010
0000
0000
1000
0000
0000
0100
0000
,
0001
0000
0000
1000
0001
0000
0000
0000
,
1000
0000
0000
0001
1000
0000
0000
0000
,
0010
0000
0000
0100
0010
0000
0000
0000
,
0100
0000
0000
0010
0100
0000
0000
0000
,
0010
0010
0010
0010
,
0010
0010
0010
0000
0010
0010
0010
0000
,
0200
0000
0000
0300
,
0000
0001
0001
0001
,
1000
0101
0001
0100
,
0010
1100
0010
0100
,
0001
1001
0100
0010
,
1000
0101
0010
0100
,
0001
0100
0011
1000
,
0100
1000
0101
0010
,
1000
0100
0001
0010
,
0100
0010
0100
0000
0010
0100
0010
0000
,
0100
0101
1000
1100
,
0001
0011
1000
1100
,
0010
0110
1000
1001
,
0100
0101
1000
1010
,
0001
0100
0010
1001
,
1000
0010
0100
1001
,
0110
0110
1001
1001
,
1000
0100
0010
0001
,
0200
0000
0000
0300
,
0002
0003
2000
3000
,
0020
0000
0000
0030
,
2000
3000
0002
0003
,
1000
0100
0010
0001
,
0100
0001
0010
0100
,
0001
0100
0010
1000
,
0200
0000
0320
0000
,
2030
0000
0002
3003
;

//---------------dance-single - ----------------
#NOTES:
     dance-single:
     :
     Beginner:
     5:
     0.159284,0.290706,0.052736,0.143140,0.000000,148.000000,141.000000,7.000000,19.000000,0.000000,0.000000,0.159284,0.290706,0.052736,0.143140,0.000000,148.000000,141.000000,7.000000,19.000000,0.000000,0.000000:
0000
0000
0000
0000
,
0000
0000
0000
0000
,
0000
0000
0000
0000
,
0010
0000
0000
0010
,
0000
0000
0000
0000
,
0100
0000
0000
0100
,
0000
0000
0000
0000
,
0010
0000
0000
0010
,
0000
0000
0010
0000
,
0020
0000
0030
0000
,
0200
0000
0300
0000
,
0010
0000
0100
0000
,
0000
0000
0010
0010
,
0000
0000
0000
0000
,
0001
0001
0001
0001
,
0000
0000
0000
0000
,
1000
1000
1000
0000
,
0000
0000
0000
0000
,
0010
0010
0010
0000
,
0000
0100
0000
0100
,
0000
0000
0010
0010
,
0000
0000
0000
0000
,
1000
1000
1000
1000
,
0000
0000
0000
0000
,
0001
0001
0001
0000
,
0000
0000
0000
0000
,
0000
0100
0100
0000
,
0000
1001
0000
0110
,
0000
0000
0010
0010
,
0020
0000
0000
0000
,
0000
0000
0000
0000
,
0030
0000
0000
0000
,
0000
0000
0000
0000
,
0000
0000
0000
0000
,
0000
0000
0000
0000
,
0000
0000
0000
0000
,
0000
0000
0200
0300
,
0000
0010
0000
0200
,
0000
0300
0000
0001
,
0000
1000
0000
0002
,
0000
0003
0000
1000
,
0000
1000
0000
0001
,
0000
0001
0000
0100
,
0000
0100
0000
0020
,
0000
0030
0000
0000
,
1000
0000
1000
0000
,
0001
0000
0001
0000
,
0200
0000
0300
0000
,
0001
0000
0001
0000
,
1000
0000
1000
0000
,
0010
0000
0010
0000
,
0200
0000
0300
0000
,
0001
0000
1000
0000
,
0010
0000
0010
0000
,
0100
0000
0100
0000
,
0001
0000
0001
0000
,
1000
0000
1000
0000
,
0010
0010
0010
0000
,
0100
0100
0100
0000
,
1001
0000
0000
0000
,
0000
0010
0010
0010
,
0020
0030
0010
0000
,
2000
3000
1000
0000
,
0002
0003
0001
0000
,
0100
0100
0100
0000
,
0020
0030
0010
0000
,
0002
0003
0001
0000
,
0100
0100
0100
0000
,
0010
0010
0010
0010
,
0010
0000
0001
0000
,
0100
0100
0100
0000
,
0010
0000
1000
0000
,
0100
0100
0100
0000
,
0001
0001
0001
0000
,
1000
1000
1000
0000
,
1001
0000
1001
0000
,
0110
0000
0110
0000
,
2000
0000
3000
0000
,
0002
0000
0003
0000
,
2000
0000
3000
0000
,
0002
0000
0003
0000
,
0100
0100
0100
0000
,
0010
0010
0010
0000
,
1000
0000
1000
0000
,
0001
0000
0001
0000
,
0200
0000
0000
0300
;

//---------------dance-double - ----------------
#NOTES:
     dance-double:
     :
     Medium:
     10:
     0.335788,0.549112,0.226011,0.293814,0.007534,312.000000,282.000000,30.000000,39.000000,0.000000,0.000000,0.335788,0.549112,0.226011,0.293814,0.007534,312.000000,282.000000,30.000000,39.000000,0.000000,0.000000:
00000000
00000000
00000000
00000000
,
00000000
00000000
00000000
00000000
,
00000000
00000000
00000000
00000000
,
00100000
00000000
00000000
00001000
00000000
00000000
00022000
00000000
,
00000000
00000000
00033000
00000000
,
00000010
00000000
00000000
00010000
00000000
00000000
00022000
00000000
,
00000000
00000000
00033000
00000000
,
10000000
00000000
00000000
00100000
00000000
00000000
00010000
00000000
,
00000000
00000010
00000000
00000000
00000001
00000000
00000000
00000000
,
00000001
00000100
00001000
00000000
,
00010000
01000000
10000000
00000000
,
01000000
00010000
00000100
00000001
,
00000000
00000000
00000100
00010000
,
00001000
00010000
00000000
00001000
00010000
00000000
00000000
00000000
,
00100000
01000000
00000000
00100000
00000000
00000000
10010000
00000000
,
01000000
00100000
00000000
01000000
00100000
00000000
00000000
00000000
,
00001000
00010000
00000000
00001000
00000000
00000000
00011000
00000000
,
00010000
00000100
00000000
00010000
00000100
00000000
00000000
00000000
,
00001000
00000001
00000000
00001000
00000000
00000000
00001001
00000000
,
00000000
00001100
00000000
01010000
,
00000000
00000000
01010000
00001100
,
00010000
00000000
00011000
00000000
00010000
00000100
00001000
00000000
,
00000010
00000010
00001001
00001001
,
00001100
00000000
00001100
00000000
00000100
00010000
00001000
00000000
,
00011000
00011000
00011000
00000000
,
00001000
00000000
01001000
00000000
01000000
00010000
01000000
00000000
,
00000000
00100000
10000000
00100000
01000000
00100000
10000000
00000000
,
00000000
00000000
01100000
00000000
00000000
10000000
00010000
00000000
,
00000000
01000000
00010000
00001000
,
00000200
00000000
00000000
00000000
,
00000000
00000000
00000000
00000000
,
00000300
00000000
00000000
00000000
,
00000000
00000000
00000000
00000000
00000000
00000000
00000000
00000000
00000000
00000000
00000000
00000000
00000000
00000000
00000000
00000000
00000000
00000000
00000000
00000000
00022000
00000000
00000000
00000000
00000000
00000000
00000000
00000000
00000000
00000000
00000000
00000000
00000000
00000000
00000000
00000000
00033000
00000000
00000000
00000000
00000000
00000000
00000000
00000000
00000000
02000000
00000000
00000000
,
00000000
00000000
00000000
00000000
,
00000000
00000000
00000000
00000000
,
03000000
00000000
00000000
00000000
,
00000000
00000000
00000000
20000000
,
32000000
03200000
00320000
00230000
,
00000000
00302000
00023000
00030020
,
00000230
00002300
00003002
00000203
,
00000000
00000302
00000203
00000310
,
00000100
00001000
00010000
00001000
,
00010000
00100000
01000000
00010000
,
00100000
01000000
10000000
00200000
,
00000000
02000000
00000000
03300000
,
10000000
00000000
00000000
01010000
00000000
00000000
00000000
00000000
,
00010000
00000000
00000000
00001100
00000000
00000000
00000000
00000000
,
00000100
00000000
00000000
00011000
00000000
00000000
00000000
00000000
,
00100000
00000000
00000000
11000000
00000000
00000000
00000000
00000000
,
10000000
00000000
00000000
01010000
00000000
00000000
00010000
00000000
,
00010000
00000000
00000000
00001100
00000000
00000000
00000010
00000000
,
00000010
00000000
00000000
00000101
00000000
00000000
00001000
00000000
,
00001000
00000000
00000000
00110000
00000000
00000000
10000000
00000000
,
20000000
00000000
30000000
10000000
00200000
00000000
00300000
00100000
,
02000000
00000000
03000000
01000000
00020000
00000000
00030000
00010000
,
00000200
00000000
00000300
00000100
00002000
00000000
00003000
00001000
,
00000002
00000000
00000003
00000001
00002000
00000000
00003000
00001000
,
00000010
00000100
00001000
00010000
,
00010000
00001000
00010000
00001000
00010000
00001000
00010000
00001000
,
00010000
00000000
00000000
00000000
,
00000000
00100000
00100000
00100000
,
10000000
01000000
10000000
00000000
00010000
01000000
00010000
00000000
,
01000000
00100000
01000000
00000000
00100000
00000000
00001000
00000000
,
00010000
00000100
00010000
00000000
00000100
00001000
00000100
00000000
,
00001000
00000001
00001000
00000000
00000010
00000000
00001000
00000000
,
00000100
00010000
00000100
00000000
00010000
00001000
00010000
00000000
,
00001000
01000000
00001000
00000000
01000000
00000000
00100000
00000000
,
10000000
01000000
10000000
00000000
00010000
00000000
01000000
00000000
,
00001000
00010000
00001000
00000000
00010000
00000000
00000010
00000000
,
00000100
00000001
00000100
00000000
00000010
00001000
00000010
00000000
,
00001000
00000100
00001000
00000000
00000100
00000000
00010000
00000000
,
00001000
01000000
00001000
00000000
01000000
00010000
01000000
00000000
,
00100000
10000000
00100000
00000000
01000000
00000000
00001000
00000000
,
00010000
00000100
00010000
00000100
00010000
00000100
00010000
00000100
,
00001000
00000010
00001000
00000010
00001000
00000010
00001000
00000010
,
00000100
00001001
00000010
00001001
,
00000010
00000100
00010000
00001000
,
02000000
00000000
00000000
03000000
,
00020000
00000000
00000000
00030000
,
10000000
01000000
00100000
00010000
,
02000000
03000000
00010000
00100000
,
00001000
00000001
00000010
00010000
,
00100000
10000000
01000000
00001000
,
00000100
00000001
00000010
00010000
,
00200000
00000000
00302000
00000000
,
00023000
00000000
00002000
00033000
;

//---------------dance-double - ----------------
#NOTES:
     dance-double:
     :
     Easy:
     7:
     0.235697,0.355308,0.105472,0.210943,0.003767,219.000000,205.000000,14.000000,28.000000,0.000000,0.000000,0.235697,0.355308,0.105472,0.210943,0.003767,219.000000,205.000000,14.000000,28.000000,0.000000,0.000000:
// measure 0
00000000
00000000
00000000
00000000
,  // measure 1
00000000
00000000
00000000
00000000
,  // measure 2
00000000
00000000
00000000
00000000
,  // measure 3
00001000
00000000
00000000
00010000
00000000
00000000
00002000
00000000
,  // measure 4
00000000
00000000
00000000
00003000
,  // measure 5
00010000
00000000
00000000
00001000
00000000
00000000
00020000
00000000
,  // measure 6
00000000
00000000
00000000
00030000
,  // measure 7
00100000
00000000
00000000
00010000
00000000
00000000
00001000
00000000
,  // measure 8
00000000
00000100
00000000
00000000
00020000
00000000
00030000
00000000
,  // measure 9
00001000
00001000
00001000
00000000
,  // measure 10
00010000
00010000
00010000
00000000
,  // measure 11
00002000
00003000
02000000
03000000
,  // measure 12
00000000
00000000
00010000
10000000
,  // measure 13
00010000
00000000
00000000
10010000
00000000
00000000
00000000
00000000
,  // measure 14
10000000
00000000
00000000
01000000
00000000
00000000
00100000
00000000
,  // measure 15
00001000
00000000
00000000
00011000
00000000
00000000
00000000
00000000
,  // measure 16
00010000
00000000
00000000
00000100
00000000
00000000
00000010
00000000
,  // measure 17
00000001
00000000
00000000
00001001
00000000
00000000
00000000
00000000
,  // measure 18
00000100
00000000
00000000
00010000
00000000
00000000
00001000
00000000
,  // measure 19
00000000
00100000
00000000
01000000
,  // measure 20
00000000
00100000
01100000
10010000
,  // measure 21
01000000
01000000
00010000
00010000
,  // measure 22
10000000
01000000
00100000
00010000
,  // measure 23
00001000
00001000
00000010
00000010
,  // measure 24
00000100
00000110
00001001
00000000
,  // measure 25
00000100
00000100
00010000
00010000
,  // measure 26
00000000
00001000
00010000
00001000
00010000
00000000
00000000
00000000
,  // measure 27
00000000
00011000
00000000
00011000
,  // measure 28
00000000
00000000
01100000
10010000
,  // measure 29
02000000
00000000
00000000
00000000
,  // measure 30
00000000
00000000
00000000
00000000
,  // measure 31
03000000
00000000
00000000
00000000
,  // measure 32
00000000
00000000
00000000
00000000
00000000
00000000
00000000
00000000
00000000
00000000
00000000
00000000
00000000
00000000
00000000
00022000
,  // measure 33
00000000
00000000
00000000
00000000
,  // measure 34
00000000
00000000
00000000
00000000
,  // measure 35
00033000
00000000
00000000
00000000
,  // measure 36
00000000
00000000
00000000
00000000
,  // measure 37
00020000
02030000
23000000
30200000
,  // measure 38
00000000
20300000
30000000
00020000
,  // measure 39
00030200
00002300
00003020
00000230
,  // measure 40
00000000
00000302
00000003
00000010
,  // measure 41
00000100
00001000
00000000
00010000
,  // measure 42
00100000
01000000
00000000
00010000
,  // measure 43
00100000
01000000
10000000
00200000
,  // measure 44
00000000
02000000
00000000
03300000
,  // measure 45
00010000
00000000
00000000
00010000
00000000
00000000
00000000
00000000
,  // measure 46
10000000
00000000
00000000
10000000
00000000
00000000
10000000
00000000
,  // measure 47
00100000
00000000
00000000
00100000
00000000
00000000
00000000
00000000
,  // measure 48
00001000
00000000
00000000
00001000
00000000
00000000
00000000
00000000
,  // measure 49
00000010
00000000
00000000
00000010
00000000
00000000
00000000
00000000
,  // measure 50
00000001
00000000
00000000
00000001
00000000
00000000
00000100
00000000
,  // measure 51
00010000
00000000
00000000
00010000
00000000
00000000
00000000
00000000
,  // measure 52
00100000
00000000
00000000
10000000
00000000
00000000
01000000
00000000
,  // measure 53
00010000
00000000
00000000
10000000
00010000
00000000
00000000
00000000
,  // measure 54
00100000
00000000
00000000
00001000
00010000
00000000
00000000
00000000
,  // measure 55
00010000
00000000
00000000
00010000
00000100
00000000
00000000
00000000
,  // measure 56
00000010
00000000
00000000
00000010
00000100
00000000
00000000
00000000
,  // measure 57
00001000
00001000
00010000
00010000
,  // measure 58
00001000
00010000
00001000
00000000
00010000
00001000
00010000
00000000
,  // measure 59
00200000
00000000
00000000
00300000
,  // measure 60
00000000
00010000
00010000
00010000
,  // measure 61
00001000
00000100
00000010
00000001
,  // measure 62
00000001
00000010
00000100
00000000
,  // measure 63
00010000
00100000
01000000
10000000
,  // measure 64
10000000
01000000
00100000
00000000
,  // measure 65
00000100
00001000
00000010
00000000
,  // measure 66
00010000
01000000
00100000
00000000
,  // measure 67
10000000
00010000
00100000
00000000
,  // measure 68
00001000
00010000
00000010
00000000
,  // measure 69
00000001
00000100
00001000
00000000
,  // measure 70
00010000
01000000
10000000
00000000
,  // measure 71
01000000
00100000
00010000
00000000
,  // measure 72
00000100
00000010
00000001
00000000
,  // measure 73
00000100
00010000
00001000
00000000
,  // measure 74
01000000
00001000
00010000
00000000
,  // measure 75
00010100
00000000
00101000
00000000
,  // measure 76
00000100
00001000
00010000
00100000
,  // measure 77
02000000
00000000
03000000
00000000
,  // measure 78
00002000
00000000
00003000
00000000
,  // measure 79
00020000
00000000
00030000
00000000
,  // measure 80
00000020
00000000
00000030
00000000
,  // measure 81
00000001
00000010
00000100
00000000
,  // measure 82
00000010
00000100
00001000
00000000
,  // measure 83
00010000
00100000
01000000
00000000
,  // measure 84
10000000
00000000
00100000
00000000
,  // measure 85
00002000
00000000
00020000
00033000
;
