#TITLE:Get the Glory;
#SUBTITLE:;
#ARTIST:中ノ森文子;
#TITLETRANSLIT:;
#SUBTITLETRANSLIT:;
#ARTISTTRANSLIT:Ayako Nakanomori;
#GENRE:;
#CREDIT:;
#BANNER:Get the Glory.png;
#BACKGROUND:Get the Glory-bg.jpg;
#LYRICSPATH:;
#CDTITLE:;
#MUSIC:Get the Glory.ogg;
#OFFSET:-0.939000;
#SAMPLESTART:57.149525;
#SAMPLELENGTH:12.552631;
#SELECTABLE:YES;
#DISPLAYBPM:190.000000;
#BPMS:0.000000=190.000000
;
#STOPS:
;
#BGCHANGES:-3.000=Get the Glory.avi=1.000=0=0=0=StretchNoLoop====,
99999=-nosongbg-=1.000=0=0=0 // don't automatically add -songbackground-
;
#KEYSOUNDS:;
#ATTACKS:;

//---------------dance-single - ----------------
#NOTES:
     dance-single:
     :
     Hard:
     10:
     0.481608,0.567252,0.373364,0.373364,0.000000,307.000000,273.000000,34.000000,34.000000,0.000000,0.000000,0.481608,0.567252,0.373364,0.373364,0.000000,307.000000,273.000000,34.000000,34.000000,0.000000,0.000000:
0000
0000
0000
0000
,
0000
0000
0000
0000
,
0000
0000
0000
0000
,
0000
0000
0000
0000
0000
0000
0000
1020
,
0000
0000
0031
0100
0001
0100
0000
0201
,
0000
0000
0310
1000
0010
1000
0000
1200
,
0000
0000
1300
0010
0000
0110
0000
1001
,
0000
0100
0000
0001
0010
0100
0000
1002
,
0000
0000
0103
0010
0100
0010
0000
1020
,
0000
0000
0130
0001
0100
0001
0000
1020
,
0000
0000
0100
0000
0130
0000
0001
2000
,
0000
0010
3010
0001
,
0100
0000
1000
0000
0100
0000
0001
1000
,
0000
0001
1000
0000
0010
0000
0100
0000
,
0001
0000
1000
0100
0000
0100
0000
1000
,
0100
0010
0001
0100
,
0010
0000
1000
0100
0000
0000
0001
0000
,
1000
0010
0000
1000
0001
0000
0001
2000
,
0000
0000
0010
0000
3010
0000
0100
0002
,
0000
0000
1000
0000
1003
0000
0000
1100
,
0000
0001
0100
0000
1001
0000
0010
0100
,
0000
0100
0010
0000
1000
0000
0001
0000
,
0100
0000
0010
1000
0000
0100
0000
0001
,
1000
0001
1000
0000
0010
0000
1000
0000
,
0100
1000
0100
1000
0000
0001
0100
0000
,
0010
0100
0000
1000
0010
0000
0100
0002
,
0000
0000
1000
0000
1003
0000
0000
2000
,
0000
0010
3010
1001
,
2000
3000
0002
0003
,
0200
0300
0020
0030
,
1000
0000
0100
0001
0000
1000
0000
0001
,
0000
1000
0020
0000
0000
0000
0030
0000
,
1001
0000
0002
0000
,
2003
0000
3020
0000
,
0230
0002
0000
0303
,
0000
0000
0110
1001
,
1000
1000
0020
0130
,
0002
0103
0020
0130
,
2000
0000
3001
0100
0000
0010
0000
0100
,
0000
0001
2000
0000
3010
0000
0100
0000
,
1001
0000
0010
0100
0000
1001
0000
0100
,
0000
0010
0000
1000
0000
0100
0000
1001
,
0000
0001
0100
0001
0100
0001
0000
1001
,
0000
1000
0001
0000
0100
0010
0000
1001
,
0000
0001
0100
0000
0010
1000
0000
0100
,
0000
0100
0000
1000
0001
0000
1000
0001
,
0000
0100
0000
0010
0000
1000
0000
0001
,
0000
0000
0100
0010
0100
0010
0000
0001
,
1000
0001
0000
0000
1000
0100
0000
1001
,
0000
0010
0000
1000
0001
0000
0100
0010
,
0000
1000
0000
0100
0000
0001
0000
1001
,
0000
0000
0001
0100
0000
0000
1000
0200
,
0000
0000
1300
0000
0001
1000
0000
0001
,
0000
0100
0010
0100
0010
0000
1000
0100
,
0000
0010
0000
0001
0000
0100
0001
1000
,
0000
0010
1000
0100
0000
0010
0100
0010
,
0000
1001
0000
0000
0100
0000
1001
0000
,
0110
0000
0000
1100
0000
0000
0101
0000
,
0000
0110
0000
0000
2002
0000
0003
0000
,
0010
0010
0010
3010
,
0110
0000
0100
0010
0000
1000
0000
0002
,
0000
0000
0103
0000
0100
0000
0010
2000
,
0000
0010
0000
0010
0000
3010
0000
0002
,
0000
0000
0100
0100
0000
0103
0000
1001
,
0000
1000
0100
1000
0000
0001
0000
1001
,
0000
0000
0100
0010
0100
0010
0000
1001
,
0000
0000
1000
0100
0000
0001
0000
0101
,
0000
0010
0010
0010
,
0001
1000
0000
0001
0000
2002
0000
3003
;

//---------------dance-double - ----------------
#NOTES:
     dance-double:
     :
     Hard:
     10:
     0.462783,0.529435,0.263551,0.263551,0.000000,295.000000,271.000000,24.000000,24.000000,0.000000,0.000000,0.462783,0.529435,0.263551,0.263551,0.000000,295.000000,271.000000,24.000000,24.000000,0.000000,0.000000:
// measure 0
00000000
00000000
00000000
00000000
,  // measure 1
00000000
00000000
00000000
00000000
,  // measure 2
00000000
00000000
00000000
00000000
,  // measure 3
00000000
00000000
00000000
00000000
00000000
00000000
00000000
00200000
,  // measure 4
00000000
00000000
00301000
00000000
00010000
00000000
00000100
00001000
,  // measure 5
00000000
00000010
00000000
00000100
00000000
00000001
00000000
00002000
,  // measure 6
00000000
00000000
00003001
00000100
00000000
00000010
00000000
00001000
,  // measure 7
00000000
00000100
00000000
00010000
00000000
00001000
00000000
02000000
,  // measure 8
00000000
00000000
03100000
00000000
10000000
00000000
00100000
01000000
,  // measure 9
00000000
00010000
00000000
00001000
00000000
00000100
00000000
00000001
,  // measure 10
00000000
00000000
00001000
00000010
00001000
00000100
00000000
00010000
,  // measure 11
00000000
00001000
00010000
00001000
00000000
00000000
00010000
00000000
,  // measure 12
10000000
00000000
01000000
00000000
00100000
00000000
01000000
00010000
,  // measure 13
00000000
00010000
01000000
00000000
00001000
00000000
00010000
00000000
,  // measure 14
00000100
00000000
00001000
00000010
00000000
00000010
00000000
00000010
,  // measure 15
00000100
00000010
00000100
00000000
00001001
00000000
00000010
00000000
,  // measure 16
00001000
00000000
00000100
00010000
00000000
00000000
00001000
00000000
,  // measure 17
01000000
00100000
00000000
01000000
00100000
00000000
10000000
00020000
,  // measure 18
00000000
00000000
01000000
00000000
01030000
00000000
00000000
20010000
,  // measure 19
00000000
00000000
00100000
00000000
30100000
00000000
00000000
01000000
,  // measure 20
00000000
00001000
00010000
00000000
00000100
00000000
00001000
00000001
,  // measure 21
00000000
00000001
00001000
00000000
00000010
00000000
00001000
00000000
,  // measure 22
00000100
00000000
00010000
00001000
00000000
00001000
00000000
00001000
,  // measure 23
01000000
00100000
10010000
11000000
,  // measure 24
01010000
00000000
01000000
00100000
00000000
00000000
10010000
00000000
,  // measure 25
01000000
00001000
00000000
00001000
00010000
00000000
00010000
00000200
,  // measure 26
00000000
00000000
00001300
00000000
00001100
00000000
00000000
00000012
,  // measure 27
00000000
00000100
00000103
00000010
,  // measure 28
00002000
00003000
00000200
00000300
,  // measure 29
00020000
00030000
02000000
03000000
,  // measure 30
10000000
00000000
00000000
00100000
00000000
00010000
00000000
00001000
,  // measure 31
00000000
00000100
00000100
00000000
00000010
00000000
00000001
00000000
,  // measure 32
00002000
00003000
00000020
00000030
,  // measure 33
00020000
00030000
00002000
00003000
,  // measure 34
02000000
00200000
00000000
00000000
,  // measure 35
00000000
00000000
03300000
00010000
10000000
00010000
10000000
00000000
,  // measure 36
10000000
11000000
00010000
01010000
,  // measure 37
00100000
00001000
00010000
00000010
,  // measure 38
00001000
00001010
00000001
00000101
,  // measure 39
00001000
00000100
00010000
00001000
,  // measure 40
01000000
00000000
00100000
10000000
00000000
00010000
01000000
00100000
,  // measure 41
00000000
10000000
00000000
01000000
00000000
00100000
00000000
00010000
,  // measure 42
00000000
00000100
00000000
00001000
00000010
00001000
00000000
00000002
,  // measure 43
00000000
00000100
00000100
00000103
,  // measure 44
00001001
00000000
00000000
00000000
00000010
00000010
00000000
00001001
,  // measure 45
00000000
00000000
00000100
00000000
00010000
00000000
00001000
01000000
,  // measure 46
00000000
00100000
00000000
10000000
00000000
00100000
00000000
00001000
,  // measure 47
00000000
00000000
00010000
00001000
00010000
00001000
00000000
00001000
,  // measure 48
00010000
00001000
00000000
00000000
00010000
00000100
00000000
00001000
,  // measure 49
00000000
00000000
00000010
00000000
00000100
00000010
00000000
00001000
,  // measure 50
00000000
00000100
00000000
00010000
00001000
00010000
00000000
00011000
,  // measure 51
00000000
00000000
00002000
02000000
00000000
03003000
02000000
00100000
,  // measure 52
00000000
03100000
00000000
20000000
00010000
30010000
00000000
01100000
,  // measure 53
00000000
10000000
00000000
00000000
01000000
00000000
00100000
00001000
,  // measure 54
00000000
00010000
00000000
00000100
00001000
00000100
00001000
00000010
,  // measure 55
00000000
00000100
00000001
00000100
00000000
00000010
00001000
00000100
,  // measure 56
00000000
00010100
00000000
00000000
00010000
00000000
00001000
00000000
,  // measure 57
01001000
00000000
00000000
01100000
00000000
00000000
10100000
00000000
,  // measure 58
00000000
01010000
00000000
00000000
00100000
00000000
00101000
00000000
,  // measure 59
00010000
00000100
00010000
00000100
00010000
00000010
00010000
00000000
,  // measure 60
00000010
00000000
00001000
00000001
00000000
00000100
00000000
00001001
,  // measure 61
00000000
00000000
00000010
00000000
00001000
00000100
00001000
00000100
,  // measure 62
00000000
00010000
00000000
00001000
00000000
01000000
00000000
00010000
,  // measure 63
00000000
10000000
00010000
10000000
00000000
00100000
00000000
01000000
,  // measure 64
00000000
00001000
00000000
00010000
00001000
00010000
00000000
00000010
,  // measure 65
00000000
00000000
00000100
00000000
00000001
00001000
00000001
00001000
,  // measure 66
00000000
00000010
00000000
00001000
00000000
00000100
00000000
00010000
,  // measure 67
00000000
00001000
00100000
01000000
,  // measure 68
10000000
10000000
00000000
00100000
00000000
00022000
00000000
00033000
;

//---------------dance-single - ----------------
#NOTES:
     dance-single:
     :
     Beginner:
     3:
     0.169426,0.301436,0.054906,0.186682,0.000000,108.000000,103.000000,5.000000,17.000000,0.000000,0.000000,0.169426,0.301436,0.054906,0.186682,0.000000,108.000000,103.000000,5.000000,17.000000,0.000000,0.000000:
0000
0000
0000
0000
,
0000
0000
0000
0000
,
0000
0000
0000
0000
,
0000
0000
0000
0000
,
0020
0000
0030
0000
,
0020
0000
0030
0000
,
0200
0000
0300
0000
,
0200
0000
0300
0000
,
0020
0000
0030
0000
,
0020
0000
0030
0000
,
0002
0000
0003
0000
,
2000
0000
3000
0000
,
0010
0000
0000
0000
,
0000
0000
0000
0000
,
0100
0000
0000
0000
,
0100
0000
0000
0000
,
0001
0000
0000
0000
,
0001
0000
0000
0000
,
2002
0000
0000
0000
,
3003
0000
0000
0000
,
0010
0000
0010
0000
,
0010
0000
0000
0000
,
0100
0000
0100
0000
,
0100
0000
0000
0000
,
0001
0000
1000
0000
,
0001
0000
1000
0000
,
2002
0000
0000
0000
,
3003
0000
0000
0000
,
0100
0000
0100
0000
,
0001
0000
0001
0000
,
0100
0000
0100
0000
,
0002
0000
0003
0000
,
0010
0000
0010
0000
,
1000
0000
1000
0000
,
0010
0020
0000
0000
,
0000
0000
0030
0000
,
1000
0000
0100
0000
,
0001
0000
0100
0000
,
1000
0000
0010
0000
,
0001
0000
0010
0000
,
0100
0100
0100
0000
,
0010
0010
0010
0000
,
1001
0000
0000
0000
,
1001
0000
0000
0000
,
0020
0000
0030
0000
,
0000
0100
0100
0000
,
0001
0000
0001
0000
,
1000
0000
1000
0000
,
0001
0001
0001
0000
,
0000
0010
0010
0000
,
1000
0000
1000
0000
,
0001
0000
0001
0000
,
2000
0000
3000
0000
,
0100
0100
0100
0000
,
0010
0000
0100
0000
,
0001
0000
1000
0000
,
0001
0001
0000
0000
,
0010
0000
0010
0010
,
0010
0000
0100
0100
,
0200
0000
0300
0000
,
0001
0000
0000
0000
,
1000
0000
1000
0000
,
0001
0000
0001
0000
,
0100
0000
0100
0000
,
0010
0000
0010
0000
,
0100
0100
0100
0000
,
0010
0010
0010
0000
,
0000
0000
0000
0000
,
0000
0000
0000
0000
0000
1001
0000
0000
;

//---------------dance-single - ----------------
#NOTES:
     dance-single:
     :
     Easy:
     5:
     0.263551,0.339116,0.175701,0.340420,0.000000,168.000000,152.000000,16.000000,31.000000,0.000000,0.000000,0.263551,0.339116,0.175701,0.340420,0.000000,168.000000,152.000000,16.000000,31.000000,0.000000,0.000000:
0000
0000
0000
0000
,
0000
0000
0000
0000
,
0000
0000
0000
0000
,
0000
0000
0000
0000
,
0002
0100
0103
0000
,
2000
0100
3100
0000
,
0002
0010
0013
0000
,
2000
0010
3010
0000
,
0200
0010
0310
0000
,
2000
0001
3001
0000
,
0002
0100
0100
0100
,
0200
0000
0303
0000
,
0020
0000
0030
0000
,
2000
3000
0002
0003
,
0200
0000
0300
0000
,
0002
0003
2000
3000
,
0020
0000
0030
0000
,
0200
0000
0300
0000
,
2002
0000
0000
0000
,
3003
0000
0000
0000
,
0010
0010
0010
0000
,
1000
0001
1000
0000
,
0100
0100
0100
0000
,
0001
1000
0001
0000
,
1000
0100
0001
0000
,
0001
0100
1000
0000
,
2002
0000
0000
0000
,
3003
0000
0000
0000
,
0110
0000
1000
0000
,
0001
0000
1000
0000
,
0100
0100
0100
0000
,
0010
0010
0010
0000
,
1000
0000
0100
0000
,
0010
0000
0001
0000
,
2000
0002
0000
0000
,
0000
0000
3003
0000
,
0010
0000
0100
0000
,
0001
0000
1000
0000
,
0010
0010
0010
0000
,
0100
0100
0100
0000
,
1000
0100
1000
0000
,
0001
0100
0001
0000
,
1100
0000
0101
0000
,
2002
0000
3003
0000
,
0110
0000
0000
0000
,
1000
1000
0001
0001
,
0010
0010
0010
0000
,
0001
0001
1000
1000
,
0010
0010
0010
0000
,
1000
0100
1000
0000
,
0001
0100
0001
0000
,
1001
0000
0110
0000
,
2002
0000
3003
0000
,
0010
0010
0010
0010
,
0100
0100
0100
0000
,
1000
1000
0001
0001
,
1000
1000
0001
0000
,
0110
0000
1100
0000
,
0101
0000
1001
0000
,
0010
0010
0010
0010
,
0010
0000
0000
0000
,
2000
0100
3100
0000
,
0002
0100
0103
0000
,
2000
0010
3010
0000
,
0002
0010
0013
0000
,
2000
0100
0100
0100
,
3100
0000
1001
0000
,
0000
0000
0000
0000
,
0000
0000
0000
0000
0000
1001
0000
0000
;

//---------------dance-single - ----------------
#NOTES:
     dance-single:
     :
     Medium:
     8:
     0.338851,0.414475,0.208644,0.395326,0.000000,216.000000,197.000000,19.000000,36.000000,0.000000,0.000000,0.338851,0.414475,0.208644,0.395326,0.000000,216.000000,197.000000,19.000000,36.000000,0.000000,0.000000:
0000
0000
0000
0000
,
0000
0000
0000
0000
,
0000
0000
0000
0000
,
0000
0000
0000
0000
0000
0000
0000
1001
,
0000
0000
0100
0000
0100
0000
0000
1001
,
0000
0000
0010
0000
0010
0000
0000
1100
,
0000
0000
0001
0000
0001
0000
0000
0101
,
0000
0000
1000
0000
1000
0000
0000
0010
,
0000
0000
1000
0000
1000
0000
0000
0101
,
0000
0000
0100
0000
0100
0000
0000
0001
,
0000
0000
1000
0000
0010
0000
1000
0010
,
0000
0100
0100
0000
,
0001
0000
1000
0000
0001
0000
0000
1000
,
0000
0100
0001
0000
,
1000
0000
0001
1000
0000
0001
0000
0000
,
0001
0100
1000
0000
,
0010
0000
0000
0100
0000
0000
0001
0000
,
1000
0100
0000
1000
0100
0000
1000
0200
,
0000
0000
1000
0000
1300
0000
0000
0002
,
0000
0100
0103
0000
,
0010
1000
0100
0001
,
0100
1000
1001
0000
,
0010
0001
0100
1000
,
0100
0001
1001
0000
,
0010
0000
1000
0100
0000
0000
0001
0000
,
0100
0001
0000
0100
0001
0000
0100
0002
,
0000
1000
1003
0000
,
2000
0010
3010
0000
,
0200
0300
2000
3000
,
0002
0003
0020
0030
,
1000
0000
0000
0001
0000
1000
0000
0001
,
0000
1000
0000
0000
0000
0000
0000
0000
,
0000
0000
0002
0003
,
2000
3000
0020
0030
,
0200
0020
0000
0000
,
0000
0000
0330
1001
,
0000
0000
2010
3000
,
0102
0003
0210
0300
,
0010
0000
1000
0001
0000
0100
0000
0001
,
0000
1000
0002
0000
0003
0000
0100
0000
,
0010
0000
1000
0010
0000
0100
0000
0001
,
0000
1000
0000
0010
0000
0100
0000
1000
,
0000
0010
0100
0000
0010
0100
0000
0110
,
0000
0000
1000
0000
0001
0000
0000
2002
,
0000
0000
0000
0000
3003
0000
0000
0100
,
0000
0000
0001
0000
1000
0000
0000
0100
,
0000
0100
0000
1000
0000
0001
0000
1000
,
0000
0001
0100
0000
,
0010
0010
0000
0000
1000
0100
0000
0001
,
0000
0000
1000
0000
0100
0000
0000
0001
,
0000
0100
0000
0010
0000
1000
0000
0100
,
0000
0000
0001
1000
0000
0000
0001
1000
,
0000
0000
0000
0000
0010
0010
0000
1001
,
0000
0000
1000
0000
0100
0000
0000
0001
,
0000
0100
0000
0010
0000
1000
0000
0200
,
0000
0300
0000
0002
0000
0003
0000
1000
,
0000
1000
0000
0000
0010
0000
0100
0000
,
0002
0000
0003
0200
0000
0300
2000
0000
,
3000
0020
0000
0030
0200
0000
0000
0000
,
0001
0001
0001
0301
,
1000
0000
0000
0100
0000
0100
0000
2002
,
0000
0000
0000
0000
0000
3003
0000
0220
,
0000
0000
0000
0000
0000
0330
0000
2200
,
0000
3300
0000
0202
0000
0303
0000
0001
,
0000
1000
0000
0001
0000
1000
0000
2002
,
0000
0000
0000
0000
0000
0000
3003
0010
,
0000
0010
0000
0100
0000
0100
0000
0000
,
0000
0001
0001
0001
,
1000
1000
0000
1000
0000
1000
0000
0000
;

//---------------dance-double - ----------------
#NOTES:
     dance-double:
     :
     Medium:
     8:
     0.343557,0.414475,0.208644,0.384345,0.000000,219.000000,200.000000,19.000000,35.000000,0.000000,0.000000,0.343557,0.414475,0.208644,0.384345,0.000000,219.000000,200.000000,19.000000,35.000000,0.000000,0.000000:
// measure 0
00000000
00000000
00000000
00000000
,  // measure 1
00000000
00000000
00000000
00000000
,  // measure 2
00000000
00000000
00000000
00000000
,  // measure 3
00000000
00000000
00000000
00000000
00000000
00000000
00000000
00011000
,  // measure 4
00000000
00000000
00100000
00000000
00100000
00000000
00000000
00011000
,  // measure 5
00000000
00000000
00000100
00000000
00000100
00000000
00000000
00011000
,  // measure 6
00000000
00000000
01000000
00000000
01000000
00000000
00000000
00011000
,  // measure 7
00000000
00000000
00000010
00000000
00000010
00000000
00000000
00001000
,  // measure 8
00000000
00000000
00000001
00000000
00000001
00000000
00000000
00001000
,  // measure 9
00000000
00000000
00000100
00000000
00010000
00001000
00000000
01000000
,  // measure 10
00000000
00000000
00001000
00000000
01000000
00000000
00000000
10000000
,  // measure 11
00000000
00010000
00010000
00000000
,  // measure 12
10000000
00000000
01000000
00000000
00100000
00000000
00000000
10000000
,  // measure 13
00000000
01000000
00010000
00000000
,  // measure 14
00100000
00000000
00000000
00001000
00000000
00000100
00000000
00000000
,  // measure 15
00001000
00000100
00000010
00000000
,  // measure 16
00000010
00000000
00000000
00000100
00000000
00000000
00000001
00000000
,  // measure 17
00001000
00000100
00000000
00001000
00000100
00000000
00001000
00000200
,  // measure 18
00000000
00000000
00010000
00000000
00010300
00000000
00000000
00002000
,  // measure 19
00000000
01000000
01003000
00000000
,  // measure 20
00010000
10000000
01000000
00100000
,  // measure 21
00010000
10000000
10010000
00000000
,  // measure 22
00100000
00010000
00001000
00000100
,  // measure 23
00001000
00000010
00001001
00000000
,  // measure 24
00000100
00000000
00010000
00000100
00000000
00000000
00010000
00000000
,  // measure 25
00001000
00010000
00000000
00001000
00010000
00000000
00001000
02000000
,  // measure 26
00000000
00000000
00010000
00000000
03010000
00000000
00000000
20020000
,  // measure 27
00000000
30030000
00100000
10000000
,  // measure 28
02000000
03000000
20000000
30000000
,  // measure 29
00020000
00030000
00200000
00300000
,  // measure 30
00001000
00000000
00000000
00010000
00000000
00001000
00000000
00010000
,  // measure 31
00000000
00001000
00000000
00000000
00000000
00000000
00000000
00000000
,  // measure 32
00000000
00000000
00002000
00003000
,  // measure 33
00000020
00000030
00020000
00030000
,  // measure 34
00001000
00022000
00000000
00000000
,  // measure 35
00000000
00033000
01000000
10010000
,  // measure 36
00000000
00000000
20100000
30000000
,  // measure 37
01020000
00030000
00012000
00003000
,  // measure 38
00010000
00000000
00001000
00000100
00000000
00000010
00000000
00000001
,  // measure 39
00000000
00000100
00002000
00000000
00003000
00000000
00010000
00000000
,  // measure 40
00100000
00000000
10000000
00100000
00000000
01000000
00000000
00010000
,  // measure 41
00000000
00100000
00000000
00001000
00000000
00010000
00000000
00000010
,  // measure 42
00000000
00000100
00000010
00000000
00000100
00000010
00000000
00000110
,  // measure 43
00000000
00000000
00001000
00000000
00010000
00000000
00000000
00022000
,  // measure 44
00000000
00000000
00000000
00000000
00033000
00000000
00000000
01000000
,  // measure 45
00000000
00000000
00010000
00000000
10000000
00000000
00000000
01000000
,  // measure 46
00000000
01000000
00000000
10000000
00000000
00010000
00000000
00100000
,  // measure 47
00000000
00010000
00001000
00000000
,  // measure 48
00000100
00000100
00000000
00000000
00001000
00000100
00000000
00000001
,  // measure 49
00000000
00000000
00001000
00000000
00000100
00000000
00000000
00000001
,  // measure 50
00000000
00000100
00000000
00000010
00000000
00001000
00000000
01000000
,  // measure 51
00000000
00000000
00010000
10000000
00000000
00000000
00010000
10000000
,  // measure 52
00000000
00000000
00000000
00000000
00100000
00100000
00000000
10010000
,  // measure 53
00000000
00000000
10000000
00000000
01000000
00000000
00000000
00010000
,  // measure 54
00000000
00001000
00000000
00000100
00000000
00000001
00000000
00000020
,  // measure 55
00000000
00000030
00000000
00000200
00000000
00000300
00000000
00001000
,  // measure 56
00000000
00010000
00000000
00000000
00100000
00000000
01000000
00000000
,  // measure 57
00020000
00000000
00030000
02000000
00000000
03000000
20000000
00000000
,  // measure 58
30000000
00200000
00000000
00300000
02000000
00000000
00000000
00000000
,  // measure 59
00010000
00010000
00010000
03010000
,  // measure 60
00100000
00000000
00000000
00001000
00000000
00001000
00000000
00022000
,  // measure 61
00000000
00000000
00000000
00000000
00000000
00033000
00000000
00022000
,  // measure 62
00000000
00000000
00000000
00000000
00000000
00033000
00000000
02020000
,  // measure 63
00000000
03030000
00000000
00002200
00000000
00003300
00000000
00010000
,  // measure 64
00000000
00000100
00000000
00000010
00000000
00000001
00000000
00000010
,  // measure 65
00000000
00000000
00000100
00000000
00010000
00000000
00001000
00100000
,  // measure 66
00000000
00010000
00000000
01000000
00000000
10000000
00000000
00000000
,  // measure 67
00000000
00010000
00010000
00010000
,  // measure 68
10000000
10000000
00000000
10000000
00000000
10000000
00000000
00000000
;

//---------------dance-double - ----------------
#NOTES:
     dance-double:
     :
     Easy:
     5:
     0.258845,0.376795,0.153738,0.274532,0.000000,165.000000,151.000000,14.000000,25.000000,0.000000,0.000000,0.258845,0.376795,0.153738,0.274532,0.000000,165.000000,151.000000,14.000000,25.000000,0.000000,0.000000:
// measure 0
00000000
00000000
00000000
00000000
,  // measure 1
00000000
00000000
00000000
00000000
,  // measure 2
00000000
00000000
00000000
00000000
,  // measure 3
00000000
00000000
00000000
00000000
,  // measure 4
00020000
00001000
00031000
00000000
,  // measure 5
00002000
00010000
00013000
00000000
,  // measure 6
02000000
00001000
03001000
00000000
,  // measure 7
00020000
00000100
00030100
00000000
,  // measure 8
00010000
00001000
00010000
00000000
,  // measure 9
00001000
01000000
00010000
00000000
,  // measure 10
10000000
00000000
00010000
00000000
,  // measure 11
20020000
00000000
30030000
00000000
,  // measure 12
00100000
00000000
00100000
00000000
,  // measure 13
10000000
00010000
10000000
00000000
,  // measure 14
01000000
00000000
01000000
00000000
,  // measure 15
00001000
00010000
00001000
00000000
,  // measure 16
00000100
00000000
00000100
00000000
,  // measure 17
00001000
00000001
00001000
00000000
,  // measure 18
00000020
00000000
00000030
00000000
,  // measure 19
00000200
00000000
00000300
00000000
,  // measure 20
00000001
00000001
00000100
00000000
,  // measure 21
00001000
00001000
00000100
00000000
,  // measure 22
00010000
00010000
00001000
00001000
,  // measure 23
00100000
00100000
00010000
00000000
,  // measure 24
10000000
10000000
01000000
00000000
,  // measure 25
00100000
00000000
00001000
00000000
,  // measure 26
00022000
00000000
00000000
00000000
,  // measure 27
00033000
00000000
00100000
00000000
,  // measure 28
00020000
00030000
20000000
30000000
,  // measure 29
02000000
03000000
00200000
00300000
,  // measure 30
00001000
00000000
00010000
00000000
,  // measure 31
00001000
00001000
00000000
00000000
,  // measure 32
00000000
00000000
00010000
00000000
,  // measure 33
00001000
00000000
00000010
00000000
,  // measure 34
00000200
00000020
00000000
00000000
,  // measure 35
00000000
00000330
00000001
00001000
,  // measure 36
00000000
00000000
00000200
00000300
,  // measure 37
00020000
00030000
00002000
00003000
,  // measure 38
01000000
00010000
00100000
01000000
,  // measure 39
10000000
10010000
00000000
01000000
,  // measure 40
01000000
00000000
00001000
00000000
,  // measure 41
00010000
00000000
00000100
00000000
,  // measure 42
00001000
00001000
00000001
00000001
,  // measure 43
00000200
00000000
00000300
00000000
,  // measure 44
00000020
00000000
00000000
00000000
00000030
00000000
00000000
00001001
,  // measure 45
00000000
00001000
00001000
00000100
,  // measure 46
00010000
00010000
00001000
00000000
,  // measure 47
01000000
01000000
00010000
00000000
,  // measure 48
10000000
10000000
10000000
00000000
,  // measure 49
00100000
01000000
10010000
00000000
,  // measure 50
01000000
00100000
10010000
00000000
,  // measure 51
01100000
00000000
00100000
00000000
,  // measure 52
00101000
00000000
00010000
00000000
,  // measure 53
00011000
00000000
00001000
00000000
,  // measure 54
00000010
00000100
00001000
00000000
,  // measure 55
00000001
00000000
00000100
00000000
,  // measure 56
00001000
00000100
00001000
00000000
,  // measure 57
00011000
00000000
00100000
00000000
,  // measure 58
01100000
00000000
10000000
00000000
,  // measure 59
10010000
00000000
00000000
00000000
,  // measure 60
00011000
00000000
00000000
00000000
,  // measure 61
00002000
00000100
00003100
00000000
,  // measure 62
00000002
00000100
00000103
00002000
,  // measure 63
01000000
01003000
00000000
00000000
,  // measure 64
02000000
00010000
03010000
00000000
,  // measure 65
10000000
01000000
00100000
00000000
,  // measure 66
00010000
00000100
00001000
00000000
,  // measure 67
00000000
00000000
00000000
00000000
,  // measure 68
00000000
00000000
00000000
00000000
00000000
00011000
00000000
00000000
;
