#TITLE:Forever Mine;
#SUBTITLE:;
#ARTIST:B.E.R.;
#TITLETRANSLIT:;
#SUBTITLETRANSLIT:;
#ARTISTTRANSLIT:;
#GENRE:;
#CREDIT:;
#BANNER:Forever Mine.png;
#BACKGROUND:Forever Mine-bg.png;
#LYRICSPATH:;
#CDTITLE:;
#MUSIC:Forever Mine.ogg;
#OFFSET:-0.320000;
#SAMPLESTART:45.660015;
#SAMPLELENGTH:12.000000;
#SELECTABLE:YES;
#BPMS:0.000000=126.999992
;
#STOPS:
;
#BGCHANGES:;
#KEYSOUNDS:;
#ATTACKS:;

//---------------dance-single - ----------------
#NOTES:
     dance-single:
     :
     Hard:
     9:
     0.369534,0.411347,0.221494,0.087016,0.000000,327.000000,299.000000,28.000000,11.000000,0.000000,0.000000,0.369534,0.411347,0.221494,0.087016,0.000000,327.000000,299.000000,28.000000,11.000000,0.000000,0.000000:
0000
0000
0000
0000
,
0000
0000
0000
0000
,
0000
0000
0000
0000
,
0000
0000
0000
0000
,
0010
0000
0001
0000
0000
1000
0010
1000
,
0010
0000
1000
0000
0000
0001
0010
0001
,
0010
0000
1000
0000
0000
0100
0010
0100
,
0010
0000
1000
0000
0100
0001
0100
0001
,
1000
0000
1000
0000
1000
0000
0001
0100
,
0010
0000
0010
0000
0010
0000
1000
0001
,
0100
0000
0001
0000
0100
0000
0100
0001
,
0100
0000
0001
0000
0010
0000
1000
0010
,
1000
0000
0010
0000
0010
0000
0100
0010
,
0100
0000
0001
0000
1000
0000
0001
1000
,
0001
0000
0100
0000
0010
0000
1000
0100
,
1000
0000
0010
0000
0001
0000
0100
0010
,
0100
0000
0001
0000
0001
0010
0001
0010
,
0001
0000
0100
0000
1000
0010
1000
0010
,
1000
0000
0001
0000
0100
0010
0000
0110
,
0000
1001
0000
0101
0000
0000
0001
0100
,
0001
0000
0010
0000
1000
0100
1000
0010
,
1000
0000
0010
0000
0001
0100
0001
0010
,
0001
1100
0101
1010
,
0100
0000
1001
0000
0010
0100
0001
0100
,
0010
0010
0000
2000
0000
3010
0000
0001
,
0100
0020
0000
1000
0000
0100
0000
0000
,
0130
0000
0001
0000
0100
0010
1000
0000
,
0100
0000
1000
0000
0010
0100
0001
0000
,
1000
0100
0000
0002
0000
0010
0000
1000
,
0000
0100
0000
1000
0000
0010
0003
0100
,
0010
0000
0010
0000
1000
0001
0100
0000
,
0000
0110
0000
1001
0000
0110
0000
0000
,
1001
0000
0100
0000
0010
1000
0100
0000
,
0001
0000
0100
0000
0010
0001
0100
0000
,
0010
0000
1000
0000
0100
1000
0100
0000
,
0000
1001
0000
0110
0000
1001
0000
0000
,
0100
0000
0100
0000
0010
0010
1000
0000
,
0010
0000
0010
0000
0100
0100
0001
0000
,
1000
0000
0010
0000
0001
0000
0100
0010
,
0000
1010
0000
0101
0000
0000
0110
0000
,
1000
0000
0001
0000
1000
0001
0100
0001
,
1000
0000
0010
0000
0001
1000
0100
1000
,
0001
0000
0100
0000
0010
1000
0010
0100
,
0010
0000
0001
0000
0100
0010
0100
0001
,
0100
0000
0010
0000
1000
0100
1000
0001
,
1000
0000
0010
0000
0001
0100
0001
1000
,
0001
0000
0010
0000
1000
0010
1000
0010
,
0100
0010
0100
0001
0100
0010
0100
0010
,
0100
0000
0001
0010
0100
0000
1000
0010
,
0100
0000
1000
0001
0100
0001
1000
0000
,
0001
0000
1000
0010
0100
0000
0001
0100
,
0000
0110
0000
1001
0000
1000
0010
0100
,
0010
0000
1001
0000
0001
0100
0001
0000
,
1010
0000
0100
0000
0001
1000
0001
0100
,
0010
0000
1000
0000
0100
0001
1000
0001
,
0000
0101
0000
1100
0000
0010
0100
0000
,
0001
0002
0000
2003
0000
0000
3000
0010
,
0100
0020
0000
0000
0000
0000
0000
0000
,
1030
0000
0001
0000
0100
0010
0100
0000
,
0001
0000
1000
0000
0010
0100
0010
0000
,
1000
0001
0000
2002
0000
0000
0000
0003
,
0020
0000
0000
3000
,
0130
0001
0100
1000
,
0010
1001
0000
0110
0000
1001
0000
0000
,
2002
0000
0000
0000
,
3003
0000
0000
0000
;

//---------------dance-double - ----------------
#NOTES:
     dance-double:
     :
     Hard:
     9:
     0.315291,0.411347,0.166121,0.087016,0.000000,279.000000,258.000000,21.000000,11.000000,0.000000,0.000000,0.315291,0.411347,0.166121,0.087016,0.000000,279.000000,258.000000,21.000000,11.000000,0.000000,0.000000:
00000000
00000000
00000000
00000000
,
00000000
00000000
00000000
00000000
,
00000000
00000000
00000000
00000000
,
00000000
00000000
00000000
00000000
,
00100000
00000000
00100000
00000000
00000000
01000000
00010000
00000000
,
00010000
00000000
00010000
00000000
00000000
00001000
00010000
00000000
,
00000100
00000000
00000100
00000000
00000000
00000010
00001000
00000000
,
00000001
00000000
00000001
00000000
00000100
00001000
00000100
00001000
,
00000100
00000000
00001000
00000000
00010000
00000000
01000000
00010000
,
01000000
00000000
10000000
00000000
00100000
00000000
00010000
00001000
,
00010000
00001000
00000010
00000100
,
00000001
00000000
00000100
00000000
00001000
00000000
00000100
00001000
,
00000100
00000000
00010000
00000000
00001000
00000000
00100000
00010000
,
00100000
00000000
10000000
00000000
01000000
00000000
00010000
10000000
,
00010000
00000000
10000000
00000000
00100000
00000000
00001000
00010000
,
00001000
00100000
10000000
01000000
,
00010000
00000000
00001000
00000000
00000100
00000000
00000010
00000100
,
00000010
00001000
00000100
00010000
,
00001000
00000000
01000000
00000000
00010000
00000000
00000000
10000000
,
00000000
11000000
00000000
01010000
00000000
00000000
00100000
00010000
,
00100000
00000000
00001000
00000000
00010000
00000000
00000100
00001000
,
00000100
00010000
00001000
00100000
,
00010000
00000000
01000000
00000000
10000000
00000000
00100000
00001000
,
00000000
00010000
00000000
00000100
00000000
00001000
00000010
00000000
,
00000100
00000100
00000000
00000002
00000000
00000000
00000000
00001003
,
00000010
00000200
00000000
00000000
00000000
00000000
00000300
00000000
,
00000010
00001000
00000100
00010000
,
00001000
00000000
01000000
00000000
00100000
10000000
01000000
00000000
,
00100000
00100000
00000000
00020000
00000000
00000000
00000000
00000000
,
00032000
00000000
00000000
00003000
,
00000010
00000100
00000001
00001000
,
00000000
00000110
00000000
00001001
00000000
00000110
00000000
00000000
,
00000010
00000000
00001000
00000000
00000100
00000100
00000100
00000000
,
00010000
00000000
00001000
00000000
01000000
01000000
01000000
00000000
,
00100000
00000000
10000000
00000000
00100000
00100000
00100000
00000000
,
00000000
00011000
00000000
00011000
00000000
00011000
00000000
00000000
,
00000100
00000000
00000100
00000000
00001000
00001000
00001000
00000000
,
00000010
00000000
00000001
00000000
00000100
00000100
00000100
00000000
,
00010000
00000000
00001000
00000000
01000000
01000000
01000000
00000000
,
00000000
01100000
00000000
10010000
00000000
00000000
10000000
01000000
,
10000000
00000000
00100000
00000000
00010000
00000000
01000000
00010000
,
01000000
00000000
00010000
00000000
00001000
00000000
00010000
00001000
,
00010000
00000000
00000100
00000000
00001000
00000000
00000010
00001000
,
00000010
00000000
00000001
00000000
00000100
00000000
00001000
00000100
,
00001000
00000000
00010000
00000000
00001000
00000000
00100000
00010000
,
00100000
00000000
00010000
00000000
01000000
00000000
00100000
10000000
,
00100000
01000000
00010000
00100000
,
00001000
00010000
00001000
00010000
00001000
00000000
00000100
00000000
,
00001010
00000000
00000101
00000000
00000001
00001000
00000100
00001000
,
00000001
00000000
00001001
00000000
00001100
00000000
00000100
00010000
,
00001000
00000000
00011000
00000000
00001000
00100000
00010000
01000000
,
00000000
00100000
00000000
10000000
00000000
01000000
00010000
00100000
,
00010000
00000000
00001000
00000000
00010000
00000000
00000100
00001000
,
00000100
00000000
00001000
00000000
00000010
00000000
00000100
00000010
,
00000100
00000000
00000001
00000000
00001000
00000000
00000010
00000100
,
00000000
00001001
00000000
00000110
00000000
00000000
00000000
00000000
,
00001000
00002000
00000000
00023000
00000000
00000000
00000000
00030000
,
00001000
00200000
00000000
00000000
00000000
00000000
00300000
00000000
,
00010000
00100000
10000000
01000000
,
00010000
00001000
00000100
00000001
,
00000010
00001000
00000000
00000200
00000000
00000000
00000000
00000000
,
00020000
00000000
00000000
00030300
,
00000100
00010000
00001000
00010000
,
00000000
00011000
00000000
00011000
00000000
00011000
00000000
00000000
,
00022000
00000000
00000000
00000000
,
00033000
00000000
00000000
00000000
;

//---------------dance-single - ----------------
#NOTES:
     dance-single:
     :
     Medium:
     7:
     0.254267,0.334219,0.142389,0.118658,0.000000,225.000000,207.000000,18.000000,15.000000,0.000000,0.000000,0.254267,0.334219,0.142389,0.118658,0.000000,225.000000,207.000000,18.000000,15.000000,0.000000,0.000000:
0000
0000
0000
0000
,
0000
0000
0000
0000
,
0000
0000
0000
0000
,
0000
0000
0000
0000
,
0010
2000
3000
0001
,
0100
0002
0003
1000
,
0010
2000
3000
0001
,
0100
0002
0003
1000
,
0010
0010
0010
0001
,
1000
1000
1000
0001
,
0100
0100
0100
0001
,
1000
0001
1000
0001
,
0010
0010
0010
1000
,
0001
0001
0001
1000
,
0100
0100
0100
1000
,
0001
1000
0001
1000
,
0010
1010
0010
0001
,
0100
0101
0100
1000
,
0010
0000
1000
0000
0100
0000
1000
0001
,
0000
1001
0000
1001
0000
0000
0000
0000
,
0010
0010
1000
0100
,
1000
0010
0001
0001
,
0010
0000
0100
0000
0001
0000
1000
0010
,
0000
0110
0000
1001
0000
0000
0000
0000
,
0010
1000
0000
0001
0000
0000
0000
1000
,
0100
2000
0000
0000
0000
0000
0000
0000
,
3000
0001
0000
0001
,
0000
1000
0000
1000
,
0010
0010
0000
0100
0000
0000
0000
0001
,
1000
0001
0000
1000
,
0000
0001
0000
1000
,
0000
0010
0000
0010
0000
0010
0000
0000
,
0100
0002
0003
0100
,
0010
2000
3000
0010
,
1000
0002
0003
1000
,
0000
0010
0000
0010
0000
0010
0000
0000
,
0001
2000
3000
0001
,
0100
0020
0030
0100
,
1000
0200
0300
1000
,
0000
0001
0000
0100
0000
0000
1000
0000
,
0020
0000
0000
0000
0030
0000
0001
0100
,
0000
0010
0000
0010
,
1000
0100
1000
0010
,
0001
0000
0100
0000
0001
1000
0001
0000
,
0020
0000
0000
0000
0030
0000
1000
0001
,
0000
0100
0000
0100
,
0001
0001
1000
1000
,
0010
0010
0100
0100
,
0001
1000
0100
1000
,
0001
0010
0100
1000
,
0001
0000
1000
0000
0100
0000
0000
1001
,
0000
0110
0000
1001
0000
0000
0000
0000
,
0010
0010
1000
1000
,
0001
0001
1000
1000
,
0001
0000
0100
0000
1000
0000
0000
1001
,
0000
1010
0000
1100
0000
0000
0000
0000
,
0001
0001
0001
0001
,
0010
0010
0010
0010
,
1000
1000
1000
1000
,
0100
0100
0100
0100
,
1001
0010
0010
0100
,
0100
1000
1000
0001
,
0001
1000
1000
0110
,
0000
1100
0000
0011
0000
1100
0000
0000
,
2002
0000
0000
0000
,
3003
0000
0000
0000
;

//---------------dance-double - ----------------
#NOTES:
     dance-double:
     :
     Medium:
     7:
     0.268958,0.359928,0.316421,0.213584,0.000000,238.000000,198.000000,40.000000,27.000000,0.000000,0.000000,0.268958,0.359928,0.316421,0.213584,0.000000,238.000000,198.000000,40.000000,27.000000,0.000000,0.000000:
00000000
00000000
00000000
00000000
,
00000000
00000000
00000000
00000000
,
00000000
00000000
00000000
00000000
,
00000000
00000000
00000000
00000000
,
00100000
20020000
30030000
01000000
,
00100000
00220000
00330000
00100000
,
00010000
00020200
00030300
00000100
,
00001000
00000020
00000030
00000001
,
00000100
00001000
00000100
00001100
,
00010000
00001000
00010000
00011000
,
00100000
00010000
01000000
00010000
,
10000000
01000000
00100000
10010000
,
00010000
00100000
00010000
00110000
,
00100000
00001000
00010000
00011000
,
00010000
00000100
00001000
00000010
,
00000100
00000001
00000010
00001000
,
00000100
00000100
00010000
00010000
,
01000000
01000000
10000000
10000000
,
01000000
01000000
00001000
00001000
,
00020000
00030000
00002000
00003000
,
00010000
00010000
00000100
00000100
,
00001000
00000010
00000001
00000100
,
00001001
00000000
00000110
00000000
00001001
00000000
00000000
00000110
,
00000000
00001001
00000000
00000110
00000000
00000000
00000000
00000000
,
00002000
00000000
00003002
00000000
,
00002003
00000000
00003200
00000000
,
00000300
00001000
00010000
00001000
,
00000000
00010000
00001000
00010000
,
00002000
00003000
02000000
03000000
,
00020000
00000000
00000000
00000000
,
20030000
00000000
00000000
30000000
,
00000000
01100000
00000000
10010000
00000000
01100000
00000000
00000000
,
00100000
00010000
00100000
00010000
,
00001000
00000100
00001000
00000100
,
00010000
00001000
00010000
00001000
,
00000000
00010000
00000000
00011000
00000000
00010000
00000000
00000000
,
00001000
00010000
00001000
00010000
,
00001000
00000100
00001000
00000100
,
00010000
00100000
00010000
00100000
,
00000000
00010000
00000000
00011000
00000000
00000000
00000000
00000000
,
00000100
00000100
00000010
00000010
,
00000001
00001000
00000001
00001000
,
00000010
00000010
00000100
00000100
,
00000000
00011000
00000000
00011000
00000000
00011000
00000000
00000000
,
00100000
01000000
00100000
01000000
,
10000000
00010000
10000000
00110000
,
00100000
00000000
00010000
00000000
00100000
00000000
00000000
00011000
,
00000000
00011000
00000000
00011000
00000000
00000000
00001000
00000000
,
00000010
00001000
00000010
00000100
,
00000001
00000010
00000110
00001000
,
00000100
00000000
00010000
00000000
00001000
00000000
00000000
00011000
,
00000000
00011000
00000000
00011000
00000000
00000000
00010000
00000000
,
00001000
00100000
00010000
01000000
,
00100000
10000000
00100000
00010000
,
00000010
00000000
00001000
00000000
00000100
00000000
00000000
00001001
,
00000000
00001001
00000000
00001001
00000000
00000000
00000000
00000000
,
00000220
00000000
00000000
00000330
,
00002002
00000000
00000000
00003003
,
00000010
00001000
00000100
00010000
,
00001000
01000000
10000000
00100000
,
00020000
00200000
00000000
00330000
,
22000000
00000000
33000000
00100000
,
00100000
00100000
00100000
00000000
,
00000000
00011000
00000000
00011000
00000000
00011000
00000000
00000000
,
00022000
00000000
00000000
00000000
,
00033000
00000000
00000000
00000000
;

//---------------dance-single - ----------------
#NOTES:
     dance-single:
     :
     Beginner:
     2:
     0.123178,0.128546,0.000000,0.063284,0.000000,109.000000,109.000000,0.000000,8.000000,0.000000,0.000000,0.123178,0.128546,0.000000,0.063284,0.000000,109.000000,109.000000,0.000000,8.000000,0.000000,0.000000:
0000
0000
0000
0000
,
0000
0000
0000
0000
,
0000
0000
0000
0000
,
0000
0000
0000
0000
,
1000
0000
0000
0000
,
0001
0000
0000
0000
,
0100
0000
0000
0000
,
0010
0000
0000
0000
,
0000
1000
0000
1000
,
0000
1000
0000
1000
,
0000
0001
0000
0001
,
0000
0001
0000
0001
,
0000
1000
0000
1000
,
0000
0001
0000
0001
,
0000
1000
0000
1000
,
0000
0001
0000
0001
,
0000
0100
0000
0100
,
0000
0100
0000
0100
,
0000
0010
0000
0010
,
0000
0010
0000
0010
,
0000
0100
0000
0100
,
0000
0010
0000
0010
,
0000
0100
0000
0100
,
0000
0010
0000
0000
,
0002
0000
0003
0000
,
2000
0000
3000
0000
,
0020
0000
0030
0000
,
0200
0000
0300
0000
,
0002
0000
0003
0000
,
2000
0000
3000
0000
,
0020
0000
0000
0030
,
0000
0100
0100
0000
,
0000
0001
0000
0001
,
0000
1000
0000
1000
,
0000
0010
0000
0010
,
0000
0100
0100
0000
,
0000
1000
0000
1000
,
0000
0001
0000
0001
,
0000
0100
0000
0100
,
0000
0010
0010
0000
,
0000
1000
0000
1000
,
0000
0001
0000
0001
,
0000
1000
0000
1000
,
0000
1000
0000
1000
,
0000
0001
0000
0001
,
0000
1000
0000
1000
,
0000
0001
0000
0001
,
0000
0001
0000
0001
,
0000
0010
0000
0010
,
0000
0100
0000
0100
,
0000
0010
0000
0010
,
0000
0010
0000
0010
,
0000
0100
0000
0100
,
0000
0010
0000
0010
,
0000
0100
0000
0100
,
0000
0100
0000
0100
,
0100
0000
0010
0000
,
1000
0000
0001
0000
,
0100
0000
0010
0000
,
1000
0000
0001
0000
,
1000
0000
0001
0000
,
0100
0000
0010
0000
,
1000
0000
0001
0000
,
0000
0100
0100
0000
,
0020
0000
0000
0000
,
0030
0000
0000
0000
;

//---------------dance-single - ----------------
#NOTES:
     dance-single:
     :
     Easy:
     5:
     0.176291,0.205673,0.007911,0.158210,0.000000,156.000000,155.000000,1.000000,20.000000,0.000000,0.000000,0.176291,0.205673,0.007911,0.158210,0.000000,156.000000,155.000000,1.000000,20.000000,0.000000,0.000000:
0000
0000
0000
0000
,
0000
0000
0000
0000
,
0000
0000
0000
0000
,
0000
0000
0000
0000
,
0010
0000
0100
0000
,
0001
0000
1000
0000
,
0010
0000
0100
0000
,
0001
0000
1000
0000
,
1000
1000
1000
0000
,
0001
0001
0001
0000
,
1000
1000
0001
0001
,
1000
0001
1000
0000
,
0010
0010
0010
0000
,
0100
0100
0100
0000
,
0010
0010
0100
0100
,
0001
1000
0001
0000
,
1000
0001
1000
0000
,
0001
1000
0001
0000
,
0010
0010
0010
0000
,
0100
0100
0100
0000
,
0001
1000
0001
1000
,
0001
0001
0001
0000
,
1000
0001
1000
0001
,
1000
1000
1000
0000
,
0020
0000
0000
0030
,
0200
0000
0000
0300
,
0002
0003
2000
3000
,
0002
0003
2000
3000
,
0200
0000
0000
0300
,
0020
0000
0000
0030
,
2000
0000
0000
3000
,
0000
0010
0000
0010
0000
0010
0000
0000
,
0100
0000
0010
0000
,
0100
0000
0010
0000
,
1000
0000
0001
0000
,
0000
0010
0000
0010
0000
0010
0000
0000
,
0100
0000
0010
0000
,
0100
0000
0010
0000
,
1000
0000
0001
0000
,
0000
0001
0000
0001
0000
0001
0000
0000
,
0010
0010
0010
0000
,
0001
0001
0001
0000
,
1000
1000
0001
0001
,
0010
0100
0010
0000
,
1000
1000
1000
0000
,
0100
0100
0100
0000
,
0100
0100
0010
0010
,
1000
0001
1000
0000
,
0010
0100
0010
0000
,
0100
0010
0100
0000
,
1000
0100
1000
0000
,
0001
0100
0001
0000
,
0010
0100
0010
0100
,
0010
0010
0010
0000
,
0100
0010
0100
0010
,
0100
0100
0100
0000
,
0020
0000
0000
0030
,
0200
0000
0000
0300
,
0002
0003
2000
3000
,
0002
0003
2000
3000
,
0200
0000
0000
0300
,
0020
0000
0000
0030
,
2000
0000
0000
3000
,
0000
0010
0000
0010
0000
0010
0000
0000
,
2002
0000
0000
0000
,
3003
0000
0000
0000
;

//---------------dance-double - ----------------
#NOTES:
     dance-double:
     :
     Easy:
     5:
     0.170641,0.231383,0.007911,0.158210,0.000000,151.000000,150.000000,1.000000,20.000000,0.000000,0.000000,0.170641,0.231383,0.007911,0.158210,0.000000,151.000000,150.000000,1.000000,20.000000,0.000000,0.000000:
// measure 0
00000000
00000000
00000000
00000000
,  // measure 1
00000000
00000000
00000000
00000000
,  // measure 2
00000000
00000000
00000000
00000000
,  // measure 3
00000000
00000000
00000000
00000000
,  // measure 4
00010000
00000000
00001000
00000000
,  // measure 5
00010000
00000000
00001000
00000000
,  // measure 6
00010000
00000000
00001000
00000000
,  // measure 7
00010000
00000000
00000000
00000000
,  // measure 8
00100000
00100000
00100000
00000000
,  // measure 9
01000000
01000000
01000000
00000000
,  // measure 10
10000000
00000000
00010000
00000000
,  // measure 11
10000000
00000000
00010000
00000000
,  // measure 12
00001000
00001000
00001000
00000000
,  // measure 13
00010000
00010000
00010000
00000000
,  // measure 14
00001000
00000000
00000010
00000000
,  // measure 15
00000100
00000000
00000001
00000000
,  // measure 16
00000100
00000100
00000100
00000000
,  // measure 17
00000010
00000010
00000010
00000000
,  // measure 18
00000001
00000000
00001000
00000000
,  // measure 19
00000001
00000000
00001000
00000000
,  // measure 20
00010000
00010000
00010000
00000000
,  // measure 21
00001000
00001000
00001000
00000000
,  // measure 22
00010000
00000000
01000000
00000000
,  // measure 23
00100000
00000000
10000000
00000000
,  // measure 24
00200000
00000000
00000000
00300000
,  // measure 25
02000000
00000000
00000000
03000000
,  // measure 26
20000000
30000000
00200000
00300000
,  // measure 27
02000000
03000000
00002000
00003000
,  // measure 28
00020000
00000000
00000000
00030000
,  // measure 29
00002000
00000000
00000000
00003000
,  // measure 30
00020000
00000000
00000000
00030000
,  // measure 31
00000000
00000100
00000000
00000100
00000000
00000100
00000000
00000000
,  // measure 32
00001000
00000001
00001000
00000001
,  // measure 33
00001000
00000100
00001000
00000100
,  // measure 34
00010000
00001000
00010000
00001000
,  // measure 35
00100000
00010000
00100000
00010000
,  // measure 36
01000000
00000000
00100000
00000000
,  // measure 37
01000000
00000000
00100000
00000000
,  // measure 38
10000000
00000000
00010000
00000000
,  // measure 39
00000000
00010000
00000000
00010000
00000000
00000000
00000000
00000000
,  // measure 40
00100000
00100000
00100000
00000000
,  // measure 41
10000000
10000000
10000000
00000000
,  // measure 42
01000000
01000000
00010000
00010000
,  // measure 43
00100000
00100000
00100000
00000000
,  // measure 44
00001000
00001000
00001000
00000000
,  // measure 45
00010000
00010000
00010000
00000000
,  // measure 46
00000010
00000010
00000001
00000001
,  // measure 47
00000100
00000100
00000100
00000000
,  // measure 48
00010000
00001000
00010000
00001000
,  // measure 49
01000000
01000000
01000000
00000000
,  // measure 50
00010000
10000000
00010000
01000000
,  // measure 51
00001000
00001000
00001000
00000000
,  // measure 52
00010000
00001000
00010000
00001000
,  // measure 53
00010000
00000010
00000010
00000000
,  // measure 54
00000010
00001000
00000010
00001000
,  // measure 55
00000100
00000100
00000100
00000000
,  // measure 56
00000200
00000000
00000000
00000300
,  // measure 57
00000020
00000000
00000000
00000030
,  // measure 58
00000002
00000003
00000200
00000300
,  // measure 59
00000020
00000030
00020000
00030000
,  // measure 60
00002000
00000000
00000000
00003000
,  // measure 61
00020000
00000000
00000000
00030000
,  // measure 62
00002000
00000000
00000000
00003000
,  // measure 63
00000000
00100000
00000000
00100000
00000000
00100000
00000000
00000000
,  // measure 64
20020000
00000000
00000000
00000000
,  // measure 65
30030000
00000000
00000000
00000000
;
