#TITLE:fascination -egoistic rage mix-;
#SUBTITLE:;
#ARTIST:2TB;
#TITLETRANSLIT:;
#SUBTITLETRANSLIT:;
#ARTISTTRANSLIT:;
#GENRE:;
#CREDIT:;
#BANNER:Fascination -egoistic rage mix-.png;
#BACKGROUND:Fascination -egoistic rage mix--bg.png;
#LYRICSPATH:;
#CDTITLE:;
#MUSIC:Fascination -egoistic rage mix-.ogg;
#OFFSET:0.000000;
#SAMPLESTART:10.909091;
#SAMPLELENGTH:12.388555;
#SELECTABLE:YES;
#DISPLAYBPM:110.000000:440.000000;
#BPMS:0.000000=110.000000
,19.000000=440.000000
,84.000000=220.000000
,85.000000=259.000000
,85.500000=220.000000
,110.000000=55.000000
,111.000000=110.000000
,112.000000=220.000000
,113.000000=440.000000
,114.000000=400.000000
,115.000000=198.000000
,116.000000=218.000000
,135.000000=222.000000
,138.000000=219.300003
,145.000000=220.199997
,154.000000=221.199997
,157.000000=219.500000
,163.000000=220.100006
,211.000000=55.000000
,212.000000=880.000000
,216.000000=440.000000
,218.000000=228.000000
,222.000000=224.000000
,226.000000=220.000000
,299.000000=110.000000
,300.000000=220.000000
,301.000000=440.000000
,348.000000=149.000000
,348.500000=110.000000
,349.000000=440.000000
,413.000000=119.000000
,414.000000=110.010002
,417.000000=220.000000
,425.000000=440.000000
;
#STOPS:19.000000=0.409000,
85.000000=0.136000,
86.500000=0.136000,
87.500000=0.136000,
89.000000=0.136000,
90.000000=0.136000,
91.500000=0.136000,
93.000000=0.136000,
97.500000=0.136000,
99.000000=0.136000,
100.000000=0.136000,
101.500000=0.136000,
102.500000=0.136000,
290.500000=0.409000,
292.500000=0.136000,
298.000000=0.818000,
427.000000=0.136000,
430.000000=0.136000,
438.000000=0.136000,
443.000000=0.136000,
448.000000=0.136000,
453.000000=0.136000,
456.000000=0.136000
;
#BGCHANGES:;
#KEYSOUNDS:;
#ATTACKS:;

//---------------dance-single - ----------------
#NOTES:
     dance-single:
     :
     Hard:
     18:
     0.970223,1.433335,0.315886,0.122845,0.697583,774.000000,738.000000,36.000000,14.000000,0.000000,0.000000,0.970223,1.433335,0.315886,0.122845,0.697583,774.000000,738.000000,36.000000,14.000000,0.000000,0.000000:
// measure 0
0000
0000
0000
0000
,  // measure 1
0000
0000
0000
0000
,  // measure 2
0000
0000
0000
0000
,  // measure 3
0001
0000
0100
0001
0100
0000
0000
0000
1000
0010
1000
0010
1000
0000
0000
0000
1000
0000
0000
0000
0001
0000
0100
0000
0000
0000
0000
0000
0000
0000
0000
0000
,  // measure 4
1000
0000
0100
1000
0100
0000
0000
0000
0001
0010
0001
0010
0001
0000
0000
0000
0100
0000
0000
0000
0001
0000
0100
0000
1001
0000
0000
0000
0000
0000
0000
0000
,  // measure 5
1000
0100
1000
0100
,  // measure 6
1000
0100
0010
0001
,  // measure 7
0010
0001
0100
0010
,  // measure 8
1000
0010
0100
0010
0100
0010
1000
0000
,  // measure 9
0000
1000
0100
0010
,  // measure 10
0001
0010
0001
0100
,  // measure 11
0010
0100
0001
0100
,  // measure 12
1000
0000
0100
0000
0010
0100
0010
0100
,  // measure 13
0001
0010
0001
1000
,  // measure 14
0001
0000
0010
0000
0001
0000
1000
0010
,  // measure 15
1000
0000
0001
0101
,  // measure 16
0000
0000
0000
0000
0010
0100
0010
0100
,  // measure 17
0001
0010
0010
1000
,  // measure 18
1000
0000
0001
0000
0010
0000
0100
0010
,  // measure 19
1000
0000
0001
0101
,  // measure 20
0000
1000
0100
0010
,  // measure 21
0010
0100
0001
0010
0001
1000
0100
1000
,  // measure 22
0010
1000
1000
0001
0100
0100
0001
0001
,  // measure 23
1000
0100
0100
0100
1000
0010
0100
0001
,  // measure 24
0010
0100
1000
0001
0001
0100
0010
0010
,  // measure 25
1000
0001
0010
0010
0010
0100
0100
1000
,  // measure 26
0010
0001
0010
1000
0100
0001
0100
1000
,  // measure 27
0001
0000
0100
0000
0001
0010
0100
2000
0002
0000
0000
0000
0000
0000
0000
0000
,  // measure 28
0000
0000
0000
0000
0000
0000
0000
0000
3003
0000
0000
0000
0010
0100
0000
0000
,  // measure 29
0100
1000
0000
0000
1000
0010
0000
0000
0010
0100
0000
0000
0100
0001
0000
0000
,  // measure 30
0001
0010
0000
0000
0010
1000
0000
0000
1000
0000
0001
0000
0100
1000
0000
0000
,  // measure 31
1000
0001
0000
0000
0001
0010
0000
0000
0010
0100
0000
0000
0100
1000
0000
0000
,  // measure 32
1000
0010
0000
0000
0010
0100
0000
0000
0100
0000
1000
0000
0100
0001
0000
0000
,  // measure 33
0001
1000
0000
0000
1000
0100
0000
0000
0100
0010
0000
0000
0010
0100
0000
0000
,  // measure 34
0100
1000
0000
0000
1000
0010
0000
0000
0010
0000
0100
0000
0001
0010
0000
0000
,  // measure 35
0010
0001
0000
0000
0001
0100
0000
0000
0100
1000
0000
0000
1000
0100
0000
0000
,  // measure 36
0100
0001
0000
0000
0001
0010
0000
0000
0010
0000
0100
0000
1000
0100
0000
0000
,  // measure 37
0100
0010
0000
0000
0010
0001
0000
0000
0001
0100
0000
0000
0100
0010
0000
0000
,  // measure 38
0010
1000
0000
0000
1000
0100
0000
0000
0100
0000
0001
0000
0100
1000
0000
0000
,  // measure 39
1000
0010
0000
0000
0010
0100
0000
0000
0100
0001
0000
0000
0001
0010
0000
0000
,  // measure 40
0010
0001
0000
0000
0001
0000
0100
0000
0010
0000
1000
0000
0100
1000
0000
0000
,  // measure 41
0001
0010
0000
0000
1000
0010
0000
0000
0001
1000
0000
0000
0001
0100
0000
0000
,  // measure 42
0001
0010
0000
0000
0100
1000
0000
0000
0010
0000
0100
0000
0001
1000
0000
0000
,  // measure 43
0100
1000
0000
0000
0010
0100
0000
0000
1000
0100
0000
0000
0001
0100
0000
0000
,  // measure 44
0010
1000
0000
0000
0100
0010
0000
0000
0100
0000
1000
0000
0010
0100
0000
0000
,  // measure 45
0010
1000
0000
0000
0001
0100
0000
0000
0001
0000
0010
0000
0100
1000
0000
0000
,  // measure 46
0001
0100
0000
0000
0010
0100
0000
0000
0001
0000
1000
0000
0100
0010
0000
0000
,  // measure 47
0001
0000
1000
0000
0100
0000
1000
0000
0001
0100
0000
0000
0010
0000
1000
0000
,  // measure 48
0001
0000
1000
0000
0010
0100
0000
0000
0001
0000
0010
0000
0001
0000
0100
0000
,  // measure 49
0010
1000
0000
0000
0001
1000
0000
0000
0100
1000
0000
0000
0001
0010
0000
0000
,  // measure 50
0001
0000
1000
0000
0010
0000
0100
0000
0001
0000
0010
0000
0100
0010
0000
0000
,  // measure 51
0001
0100
0000
0000
0010
0100
0000
0000
1000
0000
0100
0000
0001
0000
0010
0000
,  // measure 52
0100
1000
0000
0000
1000
0000
0001
0000
0100
0000
0010
0000
2000
0000
0000
0000
,  // measure 53
0000
0000
0000
0000
,  // measure 54
3020
0000
0230
0301
,  // measure 55
1000
0100
0010
0100
,  // measure 56
2000
0000
0000
0000
0000
0001
0000
0000
,  // measure 57
3200
0010
0301
0200
,  // measure 58
0000
0000
0310
0000
,  // measure 59
1000
0100
1000
0100
1000
0010
0100
0001
0010
0001
0100
0001
,  // measure 60
1000
0001
0010
0001
1000
0001
0100
0010
0001
0100
0001
0010
,  // measure 61
1000
0100
1000
0100
1000
0010
0100
0001
0010
0001
0100
0001
,  // measure 62
1000
0001
0010
0001
1000
0001
0100
0001
1000
0001
0000
0000
,  // measure 63
0100
0000
0000
0010
0000
0000
1000
0000
0000
0001
1000
0010
,  // measure 64
0100
0010
0100
0001
,  // measure 65
0100
0100
0100
0001
,  // measure 66
1000
0000
0010
0000
0100
0000
0001
0000
0000
0000
0000
0000
,  // measure 67
0001
0010
0001
0010
0001
0100
0010
1000
0100
1000
0010
1000
,  // measure 68
0001
1000
0100
1000
0001
1000
0001
0010
0100
1000
0000
0000
,  // measure 69
1000
0010
1000
0010
1000
0100
0010
0001
0100
0001
0010
0001
,  // measure 70
1000
0010
0100
0010
1000
0100
1000
0100
1000
0001
1000
0001
,  // measure 71
1000
0000
0100
0000
0001
0000
0100
0000
0010
1000
0010
0000
0001
0000
0100
0000
,  // measure 72
0001
0010
0100
1000
0010
0100
0001
0010
,  // measure 73
0001
0010
0001
0010
0001
0010
0001
0100
,  // measure 74
0010
0000
0000
1000
0000
0000
0000
0000
0000
0000
0000
0000
2002
0000
3003
0000
0000
0000
0001
0000
0000
0010
0000
0000
,  // measure 75
1000
0010
1000
0000
1010
0000
1001
0000
,  // measure 76
0011
1001
1000
1001
,  // measure 77
1100
1001
1000
0110
,  // measure 78
0101
0110
0001
0110
,  // measure 79
1100
0110
1000
0011
,  // measure 80
1001
0101
0010
1100
,  // measure 81
1001
0000
1010
0000
0100
0000
1000
0001
,  // measure 82
0100
0010
1000
0000
0100
0000
0011
0000
,  // measure 83
1000
0000
1010
0000
0100
0000
0001
0100
,  // measure 84
0010
1000
0100
0000
0010
0000
1100
0000
,  // measure 85
0001
0000
0101
0000
1000
0100
0010
0001
,  // measure 86
1000
1001
0101
1100
,  // measure 87
0000
0110
0010
1000
0010
1000
0010
1000
,  // measure 88
0010
0000
0000
0000
1000
0000
0001
0100
,  // measure 89
0001
0100
0001
0100
0001
0100
0010
0100
,  // measure 90
0010
0100
0010
0100
0010
0100
0001
0000
,  // measure 91
0000
0000
0000
0010
0001
0010
0001
0100
,  // measure 92
0001
0100
0010
0100
0010
0100
1000
0100
,  // measure 93
1000
0100
0010
0100
0010
0100
0001
0100
,  // measure 94
0001
0100
0000
0000
0000
0000
0001
0000
,  // measure 95
0000
0000
0010
0100
0010
0100
0010
0100
,  // measure 96
0010
0100
0001
0010
0001
0010
0001
0100
,  // measure 97
0010
0100
0010
0100
0010
0100
0001
0100
,  // measure 98
0001
0100
0001
0000
0000
0000
1000
0000
,  // measure 99
0000
0000
0001
1000
0010
0100
0010
1000
,  // measure 100
0100
0010
0001
0100
0001
0010
0100
1000
,  // measure 101
0100
0010
0100
1000
0001
0010
0100
1000
,  // measure 102
0010
1000
0100
0000
0010
0000
0100
0000
,  // measure 103
0010
0000
0000
0000
0010
0010
1000
0001
0001
1000
0100
0100
0010
0001
1000
1000
,  // measure 104
0010
0100
0100
0010
1000
0000
0000
0000
1000
0000
0001
0000
0100
0000
0001
0000
,  // measure 105
1000
0010
0000
0100
0001
1000
0100
1000
,  // measure 106
0001
0100
0010
1000
0010
1000
0010
0000
,  // measure 107
0100
0001
0100
0001
0100
0000
0001
0000
,  // measure 108
0100
0010
0001
0010
,  // measure 109
0100
0000
0010
0000
0110
0001
0100
0000
,  // measure 110
0010
0000
1000
0000
0010
0000
0011
1000
,  // measure 111
0100
0010
0001
0010
,  // measure 112
1001
0100
1000
0000
0010
0000
0001
0000
,  // measure 113
0010
0000
1000
0010
0001
0100
0001
0100
,  // measure 114
0010
1000
0010
1000
0010
0000
0100
0000
,  // measure 115
2002
0000
0000
0000
,  // measure 116
3003
0000
0001
0010
0100
1000
0010
0100
,  // measure 117
2002
0000
0000
0000
,  // measure 118
0000
0000
0000
0000
,  // measure 119
0000
0000
0000
0000
,  // measure 120
0000
0000
0000
0000
,  // measure 121
3003
0000
0000
0000
;

//---------------dance-single - ----------------
#NOTES:
     dance-single:
     :
     Medium:
     14:
     0.631773,0.955557,0.535252,0.114070,0.078972,504.000000,443.000000,61.000000,13.000000,0.000000,0.000000,0.631773,0.955557,0.535252,0.114070,0.078972,504.000000,443.000000,61.000000,13.000000,0.000000,0.000000:
0000
0000
0000
0000
,
0000
0000
0000
0000
,
0000
0000
0000
0000
,
0001
0100
0001
1000
0100
1000
0100
0000
,
1000
0100
1001
0010
0001
1000
0100
0000
,
1000
0100
1000
0100
,
0000
0000
0010
0001
,
0010
0001
0100
0010
,
1000
0000
0110
0000
,
0000
1000
0100
0010
,
0001
0000
1000
0100
,
0010
0100
1000
0100
,
0001
0000
0100
0000
0001
0100
0000
0000
,
0001
0010
0001
1000
,
0001
0010
0001
1000
,
0100
0000
0001
0100
,
0000
0000
0000
0000
,
1000
0010
1000
0001
,
0010
0001
0010
0100
,
1000
0000
0001
0100
,
0000
0000
0000
0000
,
0001
0100
1000
0000
0010
1000
0000
0010
,
0000
0001
0100
0000
1000
0000
0010
0100
,
0000
0001
1000
0000
0100
0010
1000
0010
,
0100
0001
1000
0010
0000
0100
0010
0000
,
0001
0000
1000
0001
0000
0100
0000
0001
,
1000
0100
0010
0001
0100
1000
0100
0001
,
0010
0100
1000
0010
2002
0000
0000
0000
,
0000
0000
3003
1001
,
0100
0001
0010
0000
1000
0000
0001
0010
,
0100
0000
0001
0000
1000
0001
0100
0000
,
1010
0110
0101
1001
,
1001
0000
1001
0000
0010
0000
1000
0100
,
0001
0000
0100
0000
0010
0001
0100
0000
,
1100
0000
0010
1000
0100
0000
0101
0000
,
1000
0001
0010
0000
0100
0000
1000
0010
,
0100
0000
0001
0000
0100
0010
1000
0000
,
0101
0000
0001
0010
0100
0000
1001
0000
,
0010
0100
0010
0000
1000
0100
0010
0000
,
0001
0000
1010
0000
1000
0001
0010
0000
,
0100
0000
1000
0001
0100
0000
1010
0000
,
1010
0000
0010
0000
0100
0000
1000
0100
,
0010
1001
1001
0100
,
1100
1100
0100
0011
,
1000
0001
0100
0000
0010
0000
0101
0000
,
1100
0110
0101
1100
,
0110
0000
1000
0100
1000
0000
0110
0000
,
0110
0001
1100
1100
,
0010
1001
1001
1001
,
1100
1001
1010
0101
,
0101
0101
0101
1001
,
0011
0011
0100
0001
,
0110
1000
0010
2002
,
0000
0000
0000
0000
,
0000
0000
0000
3003
,
1000
0100
0010
0100
,
1000
0000
0000
0001
0000
0000
0000
0000
,
0100
0010
0001
0200
,
0000
0000
0310
0000
,
1000
0000
0000
1000
0000
0000
0001
0000
0010
0001
0000
0010
,
0001
0000
0000
1000
0100
0010
1000
0000
0000
0000
0000
0000
,
1000
0000
0000
1000
0000
0000
0001
0000
1000
0001
0000
1000
,
0001
0000
0000
1000
0010
0100
0001
0000
0000
1000
0000
0000
,
0100
0010
0001
1000
,
0100
0000
0010
0001
,
0100
1000
0100
0001
,
1000
0000
1000
0000
1000
0000
0100
0000
0000
0000
0000
0000
,
0001
0000
0000
0001
0000
0000
1000
0000
0010
1000
0000
0010
,
1000
0000
0000
0001
0100
0010
0001
0000
0000
0000
0000
0000
,
0001
0000
0000
0001
0000
0000
1000
0000
0001
1000
0000
0001
,
1000
0000
0000
0001
0010
0100
1000
0000
0000
0000
0000
0000
,
0001
0100
0001
0100
0000
0000
0001
0100
,
0001
0010
0100
1000
0010
0100
0001
0010
,
0001
0010
0001
0010
0001
0010
0001
0100
,
0010
1000
0000
0000
2002
0000
0000
0000
,
0000
0000
3003
0101
,
0000
1000
0100
0000
,
0100
1000
0000
1000
,
0010
0000
0010
0100
,
0000
0110
0000
0101
,
0000
0001
0010
0000
,
0010
0001
0000
0001
,
0100
0000
0100
0010
,
0000
1010
0000
1001
,
0000
0010
0100
0000
,
0100
0010
0000
1000
,
0100
0000
1000
0100
,
0000
1000
0100
1000
,
0100
0000
0000
1000
,
0001
0100
0010
1000
,
0010
0100
0001
0010
,
0000
0000
0010
0001
,
0010
0001
0000
0010
,
0100
0010
0100
0010
,
0100
1000
0100
1000
,
0000
0010
0100
1000
,
0100
0000
0000
1000
,
0001
0100
0010
1000
,
0010
0100
0001
0010
,
0000
0000
0100
1000
,
0100
1000
0000
0001
,
0010
0100
0010
0100
,
0010
0001
0010
0100
,
0000
2000
0000
0200
,
3300
0000
0001
0000
0000
0110
0000
1100
,
0000
1001
0000
0000
0011
0000
1001
0000
,
0101
1000
0001
0100
,
0001
1000
0100
0001
,
0010
0100
1000
0100
,
0010
0100
0010
0100
,
1000
0001
0100
0001
,
0010
0100
1000
0100
,
1000
0010
0100
0001
,
0100
0001
0010
0001
,
0010
0100
1000
0100
,
2002
0000
0000
0000
,
3003
0001
0010
0100
,
2002
0000
0000
0000
,
0000
0000
0000
0000
,
0000
0000
0000
0000
,
0000
0000
0000
0000
,
3003
0000
0000
0000
;

//---------------dance-double - ----------------
#NOTES:
     dance-double:
     :
     Hard:
     18:
     0.831082,1.327162,0.070197,0.096521,0.280788,663.000000,655.000000,8.000000,11.000000,0.000000,0.000000,0.831082,1.327162,0.070197,0.096521,0.280788,663.000000,655.000000,8.000000,11.000000,0.000000,0.000000:
00000000
00000000
00000000
00000000
,
00000000
00000000
00000000
00000000
,
00000000
00000000
00000000
00000000
,
00010000
00000000
00001000
00010000
00001000
00000000
00000000
00000000
00010000
00000010
00010000
00000010
00010000
00000000
00000000
00000000
00001000
00000000
00000000
00000000
00010000
00000000
00000100
00000000
00000000
00000000
00000000
00000000
00000000
00000000
00000000
00000000
,
00001000
00000000
00010000
00001000
00010000
00000000
00000000
00000000
00001000
00100000
00001000
00100000
00001000
00000000
00000000
00000000
00010000
00000000
00000000
00000000
00001000
00000000
00020000
00000000
00030000
00000000
00000000
00000000
00000000
00000000
00000000
00000000
,
00000100
00001000
00000100
00001000
,
00000000
00000010
00010000
00001000
,
00100000
01000000
00100000
01000000
,
10000000
00000000
01000000
00100000
01000000
00000000
00000000
00000000
,
00000000
10000000
01000000
00100000
,
00010000
01000000
00001000
00010000
,
00000010
00010000
00001000
00100000
,
00001000
00010000
00000100
00000000
,
00010000
00000000
00001000
00000000
00010000
00000000
00001000
00100000
,
00010000
00000000
01000000
00000000
00001000
00010000
00100000
00000000
,
00010000
00001000
00000010
00000001
,
00000000
00000010
00001000
00010000
,
00001000
00000000
00010000
00000000
00001000
00000000
00010000
00000010
,
00001000
00000000
00000100
00000000
00010000
00001000
00000010
00000000
,
00001000
00010000
00001000
00100000
,
00000000
00000000
10010000
00000000
,
10000000
01000000
10000000
00010000
00001000
00010000
00001000
00000001
,
00000100
00001000
00010000
00010000
01000000
01000000
10000000
00100000
,
00001000
00000100
00000001
00000010
00001000
00010000
00001000
00000100
,
00001000
00100000
01000000
10000000
00010000
00100000
01000000
00001000
,
00000100
00000100
00000010
00000001
00000001
00001000
00010000
00100000
,
10000000
01000000
00010000
00000010
00000100
00001000
00100000
01000000
,
00010000
00000100
00001000
00000020
00000200
00000000
00000000
00000000
,
00000000
00000000
00000330
00010000
,
00001000
00000100
00000010
00010000
00000100
00000010
00000001
00000100
,
00000010
00000000
00001000
00000000
00000001
00000010
00001000
00010000
,
00001000
00000100
00001000
00010000
00100000
00000000
10000000
00000000
,
00010000
01000000
00100000
01000000
00001000
00010000
00100000
10000000
,
01000000
00000000
00010000
00000000
00001000
00000100
00000001
00000010
,
00001000
00010000
00100000
00010000
00001000
00000000
00000010
00000000
,
00000100
00001000
00000100
00010000
00001000
00100000
00010000
01000000
,
00001000
00000000
00010000
00000000
00100000
10000000
01000000
00010000
,
00001000
00100000
01000000
10000000
00010000
00000000
00001000
00000000
,
00000010
00000100
00000001
00000010
00000100
00001000
00000010
00010000
,
00001000
00000000
00100000
00000000
00010000
01000000
00100000
00010000
,
00001000
00000010
00001000
00010000
00001000
00000100
00000001
00000010
,
00001000
00000001
00000100
00001000
00010000
01000000
10000000
01000000
,
00100000
10000000
01000000
00100000
00001000
00010000
00100000
00010000
,
00001000
00000100
00000001
00001000
00000100
00010000
00000010
00000100
,
00000001
00000010
00001000
00010000
01000000
00010000
00001000
00010000
,
00100000
10000000
00010000
01000000
00100000
10000000
01000000
00010000
,
00001000
00000010
00000001
00000100
00001000
00010000
00100000
10000000
,
00010000
00100000
00010000
00100000
01000000
10000000
00010000
01000000
,
00010000
01000000
00001000
00010000
00000100
00000010
00000100
00000010
,
00000001
00000010
00000100
00001000
00000100
00000010
00000001
00000100
,
00001000
00010000
00000010
00001000
00000100
00010000
00000010
00001000
,
00000100
00000010
00001000
00010000
00100000
10000000
01000000
00010000
,
00001000
00000100
00000001
00000010
00000100
00001000
00000001
00000000
,
00000000
00000000
00000000
00000000
,
00000000
00000000
00000000
00000000
,
10000000
01000000
00010000
00001000
,
00000200
00000000
00000000
00000000
00000000
00000301
00000000
00000000
,
00000001
00000100
00001000
00020000
,
00000000
00000000
00130000
00000000
,
00100000
01000000
00100000
01000000
00000000
00000000
00001000
00010000
00001000
00010000
00000000
00000000
,
00000100
00001000
00000001
00000010
00000000
00000000
00000010
00000001
00001000
00000100
00000000
00000000
,
00001000
00000100
00001000
00000100
00000000
00000000
00000010
00000100
00000001
00000010
00000000
00000000
,
00000100
00000000
00010000
00001000
00000000
00000000
00100000
00000000
00000000
01000000
00000000
00000000
,
10000000
00000000
00000000
01000000
00000000
00000000
00010000
00000000
00000000
00001000
00010000
00001000
,
00010000
00001000
00011000
00010000
,
00001000
00000100
00000001
00000010
,
00000001
00000000
00000010
00000000
00001000
00000000
00010000
00000000
00000000
00000000
00000000
00000000
,
00100000
01000000
00100000
01000000
00000000
00001000
00010000
00001000
00010000
00000100
00000000
00001000
,
00000001
00001000
00000001
00000010
00000000
00000001
00001000
00000001
00001000
00000001
00000100
00000010
,
00001000
00000100
00001000
00000100
00000000
00000010
00000100
00000010
00000100
00000001
00000000
00001000
,
00000100
00001000
00000100
00010000
00000000
00001000
01000000
00100000
01000000
00100000
10000000
01000000
,
10000000
00000000
01000000
00000000
00010000
00000000
00001000
00000000
00000100
00000001
00000010
00000000
00000001
00000000
00000100
00000000
,
00000001
00000100
00001000
00010000
00100000
01000000
10000000
01000000
,
00100000
01000000
00100000
00001000
00010000
00000100
00001000
00000001
,
00000100
00000001
00000000
00000000
00002002
00000000
00000000
00000000
,
00000000
00000000
00003003
00001000
,
00100000
01000000
10000000
00010000
,
00100000
10000000
01000000
00010000
,
00001000
00100000
01000000
10000000
,
00010000
00100000
00001000
00000010
,
00010000
00100000
00001000
00010000
,
00000100
00010000
00001000
00000010
,
00000001
00000100
00001000
01000000
,
00001000
00100000
00010000
00100000
,
00001000
00010000
01000000
10000000
,
00100000
01000000
00001000
00100000
,
01000000
00010000
01000000
10000000
,
00000000
10000000
01000000
00100000
,
00001000
00000000
00010000
00000010
00010000
00000010
00010000
00001000
,
00010000
00001000
00100000
00000000
00001000
00000000
00100000
00000000
,
00001000
00000000
00010000
00000000
00001000
00010000
00001000
00010000
,
00000100
00001000
00000100
00000000
00010000
00000000
00000100
00000000
,
00001000
00000000
00000010
00000100
00000010
00000100
00000001
00000000
,
00000100
00000010
00010000
00001000
,
00100000
00000000
00001000
00000000
00010000
00000000
00001000
00010000
,
00001000
00000100
00000001
00000100
,
00000001
00000000
00000100
00000000
00000010
00010000
00000010
00010000
,
00001000
01000000
00001000
00100000
,
00010000
00000000
00100000
00001000
00010000
00001000
00010000
00001000
,
00010000
00001000
00010000
00000100
,
00001000
00000010
00000100
00000010
00000100
00000000
00000001
00000000
,
00000100
00000000
00000010
00000000
00010000
00001000
00010000
00001000
,
00100000
00001000
00100000
00001000
00010000
00001000
00100000
00010000
,
00000000
00000000
00000000
00000000
00000010
00000010
00001000
00000100
00000100
00010000
00100000
00100000
01000000
00010000
00100000
00100000
,
00001000
00000100
00000100
00000010
00001000
00000000
00000000
00000000
00000100
00000000
00000010
00000000
00000100
00000000
00010000
00000000
,
00000010
00000100
00000000
00000001
00000010
00001000
00010000
00100000
,
10000000
00000000
00010000
00100000
00010000
00100000
00010000
00000000
,
01000000
00001000
01000000
00001000
01000000
00000000
10000000
00000000
,
01000000
00010000
00001000
00000010
,
00000001
00000100
00000011
00000010
,
00000100
00000001
00000100
00011000
,
00100000
01000000
10000000
01000000
,
00110000
00001000
00010000
00001000
,
00000010
00000000
00000011
00000000
00000010
00000100
00000010
00000100
,
00010000
00100000
01000000
10000000
01000000
00000000
00100000
00000000
,
20020000
00000000
00000000
00000000
,
30030000
00000000
00100000
10000000
00100000
01000000
00001000
00020000
,
00002000
00000000
00000000
00000000
,
00000000
00000000
00000000
00000000
,
00000000
00000000
00000000
00000000
,
00000000
00000000
00000000
00000000
,
00033000
00000000
00000000
00000000
;

//---------------dance-double - ----------------
#NOTES:
     dance-double:
     :
     Medium:
     14:
     0.640548,0.955557,0.561576,0.114070,0.043873,511.000000,447.000000,64.000000,13.000000,0.000000,0.000000,0.640548,0.955557,0.561576,0.114070,0.043873,511.000000,447.000000,64.000000,13.000000,0.000000,0.000000:
00000000
00000000
00000000
00000000
,
00000000
00000000
00000000
00000000
,
00000000
00000000
00000000
00000000
,
10000000
01000000
00010000
00001000
00000100
00000001
00000010
00000000
,
00000001
00000100
00001000
00010000
01000000
10000000
01000000
00000000
,
10000000
01000000
00010000
00001000
,
00000000
00000000
00010000
00001000
,
00000100
00000010
00001000
00000010
,
00000100
00000000
00000101
00000000
,
00000000
00000001
00000100
00001000
,
00010000
00000000
00001000
00010000
,
00001000
00010000
00100000
10000000
,
01000000
00000000
00100000
00000000
00010000
10000000
00000000
00000000
,
10000000
00000000
01000000
00000000
,
00010000
00001000
00000100
00000001
,
00000100
00000000
00000010
00000100
,
00000000
00000000
00000000
00000000
,
00000100
00000000
00010000
00000000
,
00001000
00010000
00001000
00010000
,
00001000
00000000
00010000
00011000
,
00000000
00000000
00000000
00000000
,
00010000
00001000
00010000
00000000
00100000
10000000
00000000
00010000
,
00000000
01000000
00001000
00000000
00010000
00000000
00001000
00000100
,
00000000
00000001
00000100
00000000
00001000
00010000
01000000
10000000
,
00100000
10000000
01000000
00100000
00000000
10000000
01000000
00000000
,
00010000
00000000
00001000
00000100
00000000
00000001
00000000
00000010
,
00001000
00000100
00000010
00000001
00000100
00001000
00010000
00100000
,
10000000
01000000
00100000
00000000
10010000
00000000
00000000
00000000
,
00000000
00000000
00000000
00001001
,
00000010
00001000
00000100
00000000
00001000
00000000
00000001
00000100
,
00000010
00000000
00000100
00000000
00000001
00000010
00001000
00000000
,
00011000
00110000
11000000
10010000
,
10010000
00000000
10010000
00000000
00100000
00000000
01000000
00010000
,
10000000
00000000
00100000
00000000
01000000
00001000
00010000
00000000
,
00010000
00012000
00013000
00021000
,
00001000
00000000
00031000
00000000
00000100
00000000
00000010
00000100
,
00001000
00000000
00000001
00000000
00000100
00001000
00000010
00000000
,
00001010
00001100
00000011
00001001
,
00001001
00000000
00001001
00000000
00000100
00000000
00000010
00001000
,
00000001
00000110
00001010
00000101
,
00000010
00000000
00001000
00000001
00000100
00000000
00000011
00000000
,
00001100
00000000
00010000
00000000
00000100
00000000
00010000
00001000
,
00010000
00011000
00011000
00100000
,
01000000
01100000
01100000
10010000
,
10010000
00000000
01000000
10000000
00100000
00000000
10010000
00000000
,
00110000
01010000
10010000
00110000
,
01010000
00000000
00100000
00010000
10000000
00010000
01010000
00000000
,
01001000
00010000
00011000
00010010
,
00001000
00001010
00001001
00000101
,
00000110
00001000
00010000
00011000
,
00101000
00110000
10010000
01000000
,
00100000
10010000
01100000
10010000
,
11000000
01100000
00110000
00022000
,
00000000
00000000
00000000
00000000
,
00000000
00000000
00000000
00033000
,
00001000
00010000
00100000
01000000
,
10000000
00000000
00000000
00000000
00000000
01000000
00000000
00000000
,
00010000
00001000
00000100
00000002
,
00000000
00000000
00000103
00000000
,
00000001
00000001
00000100
00000100
,
00001000
00010000
01000000
01000000
,
10000000
10000000
01000000
01000000
,
00010000
00001000
00000100
00000001
,
00000100
00001000
00010000
00100000
,
10000000
00000000
00100000
10000000
,
01000000
00010000
00001000
00000010
,
00000001
00000000
00000010
00000000
00000001
00000000
00000100
00000000
00000000
00000000
00000000
00000000
,
00001000
00001000
00010000
01000000
,
10000000
00000000
00010000
10000000
00010000
01000000
00100000
01000000
00000000
00000000
00000000
00000000
,
00001000
00001000
00010000
00010000
,
00001000
00010000
00001000
00010000
00000100
00001000
00000100
00000000
00000000
00000000
00000000
00000000
,
00000001
00000100
00001000
00010000
00000000
00000000
00001000
00010000
,
00001000
00010000
01000000
10000000
00100000
01000000
00010000
00100000
,
00010000
00100000
00001000
00100000
00001000
00100000
00001000
00010000
,
00000010
00000100
00000000
00000000
00002002
00000000
00000000
00000000
,
00000000
00003003
00000010
00000100
,
00000010
00001000
00000001
00001000
,
00000001
00000010
00000001
00000010
,
00000001
00001000
00000100
00001000
,
00000100
00010000
00000010
00010000
,
00000010
00010000
00001000
00010000
,
00001000
01000000
00001000
01000000
,
00001000
00010000
00001000
00010000
,
00001000
00010000
00001000
00010000
,
01000000
00010000
01000000
00100000
,
01000000
10000000
01000000
00010000
,
00001000
00000100
00010000
00011000
,
00000000
00001000
00010000
00001000
,
00010000
00000000
00000000
00001000
,
00010000
01000000
00100000
00010000
,
00100000
01000000
10000000
01000000
,
10000000
01000000
10000000
01000000
,
00010000
00001000
00000000
00010000
,
00001000
00010000
00001000
00000010
,
00000001
00000100
00000010
00001000
,
00000000
00000001
00000100
00001000
,
00010000
00001000
00010000
00001000
,
00010000
01000000
00100000
00010000
,
00100000
01000000
00000000
10000000
,
00100000
00000000
10000000
01000000
,
00010000
00001000
00000000
00010000
,
00001000
00010000
00001000
00000010
,
00000001
00000100
00000010
00001000
,
00000000
00002000
00000000
00000002
,
00003003
00000000
00000010
00000000
00000000
00000110
00000000
00001100
,
00000000
00001010
00000000
00000000
00000101
00000000
00001001
00000000
,
00001100
00000010
00010000
00001000
,
00100000
00010000
01000000
00010000
,
10000000
01000000
10000000
01000000
,
00100000
10000000
01000000
00001000
,
00010000
00001000
00010000
00001000
,
00000100
00000001
00000010
00000001
,
00000010
00000001
00000010
00001000
,
00010000
00100000
10000000
00010000
,
00010000
01000000
01000000
00000000
,
20020000
00000000
00000000
00000000
,
30030000
00010000
00100000
10000000
,
20020000
00000000
00000000
00000000
,
00000000
00000000
00000000
00000000
,
00000000
00000000
00000000
00000000
,
00000000
00000000
00000000
00000000
,
30030000
00000000
00000000
00000000
;

//---------------dance-double - ----------------
#NOTES:
     dance-double:
     :
     Easy:
     10:
     0.455027,0.849384,0.298337,0.131619,0.008775,363.000000,329.000000,34.000000,15.000000,0.000000,0.000000,0.455027,0.849384,0.298337,0.131619,0.008775,363.000000,329.000000,34.000000,15.000000,0.000000,0.000000:
00000000
00000000
00000000
00000000
,
00000000
00000000
00000000
00000000
,
00000000
00000000
00000000
00000000
,
00000011
00000010
00000100
00000100
,
00001000
00000001
00001000
00010000
,
01000000
00000000
10000000
00000000
,
00100000
00010000
00001000
00000000
,
00000010
00000000
00000001
00000000
,
00001000
00000000
00000001
00000000
,
00001000
00000000
00000001
00000000
,
00000010
00001000
00010000
00000000
,
00100000
00000000
10000000
00000000
,
00010000
00000000
00100000
00000000
,
00000000
10000000
00000000
01000000
,
00000000
00010000
00000000
00001000
,
00000000
00000010
00000000
00000001
,
00000000
00000010
00000000
00001000
,
00000000
00010000
00000000
01000000
,
00000000
10000000
00000000
00100000
,
00000000
00010000
00000000
00001000
,
00000000
00000010
00000000
00000100
,
00001000
00010000
00001000
00000000
00001000
00010000
00000000
00001000
,
00000000
00000100
00000001
00000000
00000100
00000000
00001000
00010000
,
00000000
00010000
00001000
00000000
00000000
00100000
00000000
00010000
,
00000000
10000000
01000000
10000000
00000000
01000000
00100000
00000000
,
00010000
00000000
00001000
00000100
00000000
00000001
00000000
00000000
,
00000010
00000100
00000001
00000100
,
00001000
00010000
00022000
00000000
,
00000000
00000000
00033000
00011000
,
01000000
01000000
10000000
00100000
,
00010000
00001000
00010000
00001000
,
00020100
00001000
00030010
00012000
,
00010000
00013000
00100000
00100000
,
01000000
10000000
10000000
00100000
,
01000000
10020000
10030000
02100000
,
00100000
03100000
10000000
10000000
,
00010000
01000000
01000000
00001000
,
01002000
00010000
00103000
00021000
,
00001000
00031000
00000100
00000100
,
00000010
00000120
00000100
00000130
,
00000001
00000001
00000100
00000201
,
00000301
00000100
00001000
00010000
,
00001000
00011000
00011000
00100000
,
00100000
01100000
01100000
11000000
,
11000000
00100000
00100000
10010000
,
10100000
11000000
10010000
10100000
,
11000000
10000000
01000000
01010000
,
01010000
00010000
00011000
00011000
,
00001000
00001100
00001100
00000100
,
00000100
00000001
00000001
00000010
,
00001000
00010000
00100000
10000000
,
01000000
00010000
00001000
00000100
,
00000001
00000100
00001000
00022000
,
00000000
00000000
00000000
00000000
,
00000000
00000000
00033000
00000000
,
00100000
01000000
00001000
00010000
,
00000010
00000000
00000000
00000000
00000000
00000001
00000000
00000000
,
00000001
00000100
00001000
00010000
,
00100000
00000000
00000000
00000000
,
10000000
01000000
00010000
00000000
,
00001000
00000000
00000010
00000000
,
00000001
00000100
00001000
00000000
,
00010000
00100000
10000000
00000000
,
10000000
01000000
00010000
00001000
,
00000100
00000001
00000010
00000001
,
00000100
00001000
00010000
00001000
,
00010000
00000000
00001000
00000000
00001000
00000000
00010000
00000000
00000000
00000000
00000000
00000000
,
00100000
01000000
00010000
00000000
,
10000000
01000000
00010000
00000000
,
00001000
00000000
00000100
00000000
,
00000001
00000010
00000001
00000000
,
00000001
00000100
00000001
00000100
00000000
00000000
00001000
00000000
,
00001000
00000000
00010000
00000000
01000000
00000000
10000000
01000000
,
10000000
01000000
00000000
00000000
00000000
10000000
00000000
01000000
,
00000000
00010000
00000000
00000000
00000000
00000000
00000000
00000000
,
00000000
00000000
00000000
00000101
,
00000000
00000100
00000000
00001000
,
00000000
00010000
00000000
01000000
,
00000000
10000000
00000000
01000000
,
00100000
01000000
00000000
10000000
,
00000000
01000000
00000000
00010000
,
00000000
00001000
00000000
00000100
,
00000000
00000001
00000000
00000010
,
00000100
00000010
00000000
00001001
,
00000000
00000001
00000000
00000100
,
00000000
00001000
00000000
00010000
,
00000000
00001000
00000000
00000000
,
00000000
00010000
00001000
00010000
,
00001000
00000000
00000000
00001000
,
00000000
00000100
00000000
00000001
,
00000000
00001000
00000000
00000001
,
00000000
00000000
00000001
00000100
,
00000001
00000100
00000000
00001000
,
00010000
00001000
00010000
00001000
,
00000000
01000000
00000000
01000000
,
00000000
00010000
01000000
00010000
,
01000000
00000000
00000000
00010000
,
10000000
00010000
10000000
00010000
,
00000000
10000000
00000000
00100000
,
00000000
00000000
00010000
00001000
,
00010000
00001000
00000000
00000100
,
00000010
00000100
00000010
00000100
,
00000000
00000001
00000000
00000100
,
00000000
00002000
00000000
00020000
,
00033000
00000000
01000000
00000000
00000000
10000000
00000000
00010000
,
00000000
01000000
00000000
00000000
00100000
00000000
10000000
00000000
,
01000000
00010000
00000000
00010000
,
00100000
00000000
01000000
01000000
,
00000000
10000000
00000000
10000000
,
00000000
00000000
11000000
00000000
,
10000000
00000000
00100000
00000000
,
00000000
00010000
00000000
00001000
,
00000000
00000000
00000100
00000000
,
00000001
00000000
00000100
00000000
,
00000000
00001000
00000000
00000000
,
00000110
00000000
00000000
00000000
,
00000000
00000010
00000000
00001000
,
00000200
00000000
00000000
00000000
,
00000000
00000000
00000000
00000000
,
00000000
00000000
00000000
00000000
,
00000000
00000000
00000000
00000000
,
00000300
00000000
00000000
00000000
;

//---------------dance-single - ----------------
#NOTES:
     dance-single:
     :
     Easy:
     10:
     0.482604,0.955557,0.579125,0.175492,0.008775,385.000000,319.000000,66.000000,20.000000,0.000000,0.000000,0.482604,0.955557,0.579125,0.175492,0.008775,385.000000,319.000000,66.000000,20.000000,0.000000,0.000000:
0000
0000
0000
0000
,
0000
0000
0000
0000
,
0000
0000
0000
0000
,
0011
0010
0100
0100
,
1000
0001
1000
0001
,
0001
0000
0001
0000
,
0100
0001
0100
0000
,
1000
0000
1000
0000
,
0001
0000
1000
0000
,
0001
0000
1000
0000
,
0100
0010
0100
0000
,
1000
0000
1000
0000
,
0001
0000
0100
0000
,
0100
0000
0010
0000
,
0001
0000
0010
0000
,
0100
0000
1000
0000
,
0100
0000
0010
0000
,
0001
0000
0010
0000
,
0100
0000
1000
0000
,
0001
0000
0100
0000
,
0001
1000
0001
0000
,
1000
0100
1000
0000
0001
0100
0000
0010
,
0000
0001
0100
0000
1000
0000
1000
0100
,
0000
0010
1000
0000
0001
0000
0100
0000
,
1000
0000
0010
0000
0000
1000
0001
0000
,
0010
0000
0100
0010
0000
0100
0000
0000
,
0001
0100
1000
0010
,
0001
0010
1002
2000
,
0000
0000
3003
1001
,
0100
0100
0001
0010
,
0100
1000
1000
0001
,
1010
1010
1010
1001
,
1001
1001
0010
0010
,
0100
1000
1000
0010
,
0100
1001
1001
0101
,
0101
0101
1000
1000
,
0001
0100
0100
0001
,
1001
1001
1001
1100
,
1100
1100
0100
0010
,
0001
0011
0011
0011
,
1000
1000
1000
0101
,
0101
1000
1000
0010
,
0010
1001
1001
0010
,
0010
0110
0110
0101
,
0101
0010
0010
1001
,
1010
1100
1001
1010
,
1100
0010
0001
1001
,
1001
0001
0101
0101
,
0010
1010
1010
0011
,
1010
1001
1001
0101
,
0101
1100
0101
0110
,
0011
1100
0101
1100
,
0011
1010
0011
2002
,
0000
0000
0000
0000
,
0000
0000
3003
0000
,
1000
0000
0100
0000
,
0001
0000
0000
0001
0100
0000
0000
0000
,
0010
0000
0100
0000
,
1000
0000
0000
1000
0100
0000
0000
0000
,
2000
0000
0000
0000
,
0200
3000
0020
0300
,
0002
0000
0000
0030
,
0200
0003
0020
0300
,
1030
0100
0010
0001
,
0001
0010
0100
1000
,
0100
1000
0100
0010
,
0001
0000
0001
0000
0001
0000
0010
0000
0000
0000
0000
0000
,
0002
0000
0000
0000
,
0200
0003
0020
0300
,
2000
0000
0000
0030
,
0200
3000
0020
0300
,
0031
0100
0001
0100
0000
0000
0000
0000
,
0100
0000
0100
0000
0100
0000
1000
0100
,
1000
0100
0000
0000
0000
0100
0000
0100
,
0000
0100
0000
0000
0000
0000
0000
0000
,
0000
0000
0000
1001
,
0000
0001
0000
1000
,
0000
0010
0000
0100
,
0000
0010
0000
0100
,
0010
0100
0000
1001
,
0000
1000
0000
0001
,
0000
1000
0000
0001
,
0000
1000
0000
0010
,
0100
0010
0000
1001
,
0000
0001
0000
1000
,
0000
0001
0000
1000
,
0000
0001
0000
0100
,
0000
0001
1000
0001
,
1000
0000
0000
0100
,
0000
0100
0000
0100
,
0000
0001
0000
1000
,
0000
0000
0010
0001
,
0010
0001
0000
0010
,
0100
0010
0100
0010
,
0000
0100
0000
0100
,
0000
1000
0100
1000
,
0100
0000
0000
1000
,
0001
1000
0001
1000
,
0000
0010
0000
0010
,
0000
0000
0001
1000
,
0001
1000
0000
0100
,
0010
0100
0010
0100
,
0000
0001
0000
0001
,
0000
2000
0000
0002
,
3003
0000
0001
0000
0000
0100
0000
1000
,
0000
0001
0000
0000
0010
0000
1000
0000
,
0100
1000
0000
0100
,
0010
0000
0100
1000
,
0000
0001
0000
1000
,
0000
0000
1001
0000
,
0001
0000
0010
0000
,
0000
1000
0000
0100
,
0000
0000
0001
0000
,
0010
0000
1000
0000
,
0000
0100
0000
0000
,
1001
0000
0000
0000
,
0000
0100
0000
0010
,
2002
0000
0000
0000
,
0000
0000
0000
0000
,
0000
0000
0000
0000
,
0000
0000
0000
0000
,
3003
0000
0000
0000
;

//---------------dance-single - ----------------
#NOTES:
     dance-single:
     :
     Beginner:
     7:
     0.260732,0.424692,0.035098,0.201816,0.000000,208.000000,204.000000,4.000000,23.000000,0.000000,0.000000,0.260732,0.424692,0.035098,0.201816,0.000000,208.000000,204.000000,4.000000,23.000000,0.000000,0.000000:
0000
0000
0000
0000
,
0000
0000
0000
0000
,
0000
0000
0000
0000
,
0010
0010
0010
0000
,
0100
0100
0100
0000
,
0001
0000
0001
0000
,
0000
0000
1000
0000
,
1000
0000
1000
0000
,
2000
0000
3000
0000
,
0000
0001
0000
0001
,
0001
0000
1000
0000
,
0010
0000
0010
0000
,
0020
0000
0030
0000
,
0200
0000
0300
0000
,
0020
0000
0030
0000
,
1000
0000
1000
2000
,
0000
0000
3000
0000
,
0002
0000
0003
0000
,
2000
0000
3000
0000
,
0010
0000
0010
0020
,
0000
0030
0000
0000
,
0100
0000
0000
0100
,
0000
0000
0100
0000
,
0000
0100
0000
0000
,
0000
0010
0000
0000
0010
0000
0000
0010
,
0000
0000
0010
0000
0000
0010
0000
0000
,
0001
0000
0001
0000
,
0001
0000
1001
0000
,
0000
0000
0000
0020
,
0000
0000
0000
0000
,
0000
0030
0000
0000
,
0100
0100
0000
0001
,
0001
0001
0000
0000
,
0000
0010
0000
0000
,
0000
1000
1000
1000
,
1000
1000
0000
0000
,
0000
0001
0000
0000
,
0100
0000
0000
0010
,
0010
0010
0000
0000
,
0000
1000
1000
1000
,
0000
0000
0000
0001
,
0001
0001
0000
0100
,
0000
1000
1000
1000
,
0000
0100
0000
0001
,
0001
0001
0000
0100
,
0100
0100
0100
0100
,
0100
0000
0000
1000
,
1000
0000
0001
0001
,
0000
1000
1000
1000
,
1000
0000
0010
0010
,
0000
0100
0100
0000
,
0001
0001
0001
0001
,
0001
0000
0000
1001
,
0000
0000
0000
0000
,
0000
0000
0000
0000
,
0010
0010
0010
0010
,
0010
0000
0000
0000
,
1000
1000
1000
1000
,
1000
0000
0000
0000
,
0001
0000
0000
0000
,
1000
0000
0001
0000
,
1000
0000
0000
0000
,
0001
0000
1000
0000
,
0010
0010
0010
0010
,
0010
0000
0100
0100
,
0100
0100
0100
0100
,
0000
0000
0000
0000
,
0001
0000
0000
0000
,
1000
0000
0001
0000
,
1000
0000
0000
0000
,
0001
0000
1000
0000
,
0001
0000
0000
0100
,
0100
0100
0100
0000
,
0000
0000
0000
0000
0000
0010
0000
0010
,
0000
0010
0000
0000
0000
0000
0000
0000
,
0000
0000
0000
0020
,
0000
0030
0000
0020
,
0000
0030
0000
0020
,
0000
0030
0000
0020
,
0000
0030
0000
0200
,
0000
0300
0000
0200
,
0000
0300
0000
0200
,
0000
0300
0000
0200
,
0000
0300
0000
2000
,
0000
3000
0000
2000
,
0000
3000
0000
0002
,
0000
0003
0000
0001
,
0000
0010
0000
0010
,
0000
0000
0000
0100
,
0000
0100
0000
0100
,
0000
0100
0100
0100
,
0000
0000
0000
0001
,
0000
0001
0000
0001
,
0000
1000
0000
1000
,
0000
1000
1000
1000
,
0000
0001
0000
0001
,
0000
0000
0000
0100
,
0000
0100
0000
0100
,
0000
0010
0010
0010
,
0000
0000
0000
1000
,
0000
1000
0000
0001
,
0000
0001
0000
0100
,
0000
0100
0000
0100
,
0100
0100
0000
0020
,
0030
0000
0000
0000
,
0000
0000
1000
1000
,
1000
1000
0000
0000
,
0001
0000
0000
1000
,
0000
1000
0000
1000
,
0000
1000
0000
0000
,
0001
0000
0001
0000
,
0000
1000
0000
1000
,
0000
0000
0001
0000
,
0001
0000
0000
1000
,
0000
0000
0001
0000
,
1001
0000
0000
0000
,
0000
0010
0000
0000
,
2002
0000
0000
0000
,
0000
0000
0000
0000
,
0000
0000
0000
0000
,
0000
0000
0000
0000
,
3003
0000
0000
0000
;
