#TITLE:Everlasting Last;
#SUBTITLE:;
#ARTIST:HHHxMMxST;
#TITLETRANSLIT:;
#SUBTITLETRANSLIT:;
#ARTISTTRANSLIT:;
#GENRE:;
#CREDIT:;
#BANNER:Everlasting Last.png;
#BACKGROUND:Everlasting Last-bg.png;
#LYRICSPATH:;
#CDTITLE:;
#MUSIC:Everlasting Last.ogg;
#OFFSET:-0.025000;
#SAMPLESTART:57.453999;
#SAMPLELENGTH:12.000000;
#SELECTABLE:YES;
#BPMS:0.000000=140.000000
;
#STOPS:
;
#BGCHANGES:0.000=Everlasting Last.avi=1.000=1=0=1===CrossFade==,
99999=-nosongbg-=1.000=0=0=0 // don't automatically add -songbackground-
;
#KEYSOUNDS:;
#ATTACKS:;

//---------------dance-single - ----------------
#NOTES:
     dance-single:
     :
     Hard:
     9:
     0.367815,0.439778,0.183907,0.479758,0.151923,322.000000,299.000000,23.000000,60.000000,0.000000,0.000000,0.367815,0.439778,0.183907,0.479758,0.151923,322.000000,299.000000,23.000000,60.000000,0.000000,0.000000:
0000
0000
0000
0000
,
0000
0000
0100
0010
,
2001
0000
0000
0000
0000
0000
0000
0000
3001
0000
0000
0010
0000
0000
0001
0000
,
2000
0000
0000
0000
0000
0000
0000
0000
3010
0000
0000
0001
0000
0000
0100
0000
,
0200
0000
0000
0000
0000
0000
0000
0000
0301
0000
0000
1000
0000
0000
0001
0000
,
0200
0000
0310
0001
,
0210
0000
0000
0000
0000
0000
0000
0000
0301
0000
0000
0010
0000
0000
0001
0000
,
0200
0000
0000
0000
0000
0000
0000
0000
0301
0000
0000
1000
0000
0000
0010
0000
,
0200
0000
0000
0000
0000
0000
0000
0000
0301
0000
0000
1000
0000
0000
0001
0000
,
0020
0000
0200
0330
,
0001
0000
0000
1000
0000
0000
0001
0000
0100
0000
0001
0000
0100
0000
0001
0000
,
1000
0000
0000
0010
0000
0000
1000
0000
0100
0000
0001
0000
0100
0000
0001
0000
,
1000
0000
0000
0100
0000
0000
1000
0000
0001
0000
0010
0000
0001
0000
0010
0000
,
0100
0000
0000
0010
0000
0000
0100
0000
0001
0000
1000
0000
0001
0000
0100
0000
,
0010
0000
0000
1000
0000
0000
0010
0000
0001
0000
0100
0000
0001
0000
0100
0000
,
1000
0000
0000
0100
0000
0000
1000
0000
0001
0000
0100
0000
0001
0000
0100
0000
,
0010
0000
0000
1000
0000
0000
0010
0000
0100
0000
0001
0000
0010
0000
0100
0000
,
1000
1001
0110
1001
,
0020
0130
0200
0310
,
2000
0000
3001
0000
0001
0100
0001
0000
,
0020
1030
2000
3100
,
0200
0000
0301
0000
0010
0001
0100
0000
,
2000
3001
0200
0310
,
2000
0000
3001
0000
0010
1000
0100
0000
,
0002
0103
2000
3100
,
0020
0000
0130
0000
1000
0100
0001
0000
,
1000
0000
0000
1000
0000
0000
0100
0000
0001
0000
0000
0001
0000
0000
0100
0000
,
2000
0000
3010
0100
,
0001
0000
0000
0001
0000
0000
0100
0000
1000
0000
0000
1000
0000
0000
0100
0000
,
0002
0000
1003
0010
,
0100
0000
0000
0100
0000
0000
0010
0000
0001
0000
0000
0001
0000
0000
0010
0000
,
2000
0000
3001
0100
,
0020
0000
1030
0001
,
0110
0000
1001
0110
,
2001
0000
0000
0000
0000
0000
0010
0000
3010
0000
0000
0001
0000
0000
0100
0000
,
0002
0000
0000
0000
0000
0000
1000
0000
1003
0000
0000
0010
0000
0000
0100
0000
,
0200
0000
0000
0000
0000
0000
0301
0000
0010
0000
0000
0100
0000
0000
0010
0000
,
2000
0000
3001
0110
,
2001
0000
0000
0000
0000
0000
0010
0000
3010
0000
0000
0001
0000
0000
0100
0000
,
2000
0000
0000
0000
0000
0000
0010
0000
3010
0000
0000
0100
0000
0000
0010
0000
,
0002
0000
0000
0000
0000
0000
1000
0000
1003
0000
0000
0010
0000
0000
0100
0000
,
0020
0000
0100
0130
,
1000
0000
0000
0010
0000
0000
0001
0000
0001
0000
0000
0010
0000
0000
1000
0000
,
0200
0000
0310
1001
,
0001
0000
0000
0100
0000
0000
1000
0000
1000
0000
0000
0100
0000
0000
0001
0000
,
0002
0000
1003
0110
,
1000
0000
0000
0100
0000
0000
0001
0000
0001
0000
0000
0100
0000
0000
1000
0000
,
0020
0000
0130
1001
,
0020
0000
0000
0000
0000
0000
0000
0000
1030
0000
0000
0001
0000
0000
1000
0000
,
0200
0001
0001
0301
,
2002
0003
0001
3001
,
0002
0000
1003
0010
,
0002
0000
0103
0001
,
0020
0000
1030
0100
,
2000
0000
3002
0000
,
0203
0001
0310
0010
,
0002
0100
1000
1003
,
0220
0330
1001
0110
,
2000
0001
0001
0001
,
0002
3003
0010
0100
,
0000
0000
0000
0000
1001
0000
0000
0000
0010
0000
0000
1000
0000
0000
0010
0000
,
0200
0000
0000
0000
0301
0000
0010
0000
0001
0000
0000
0100
0000
0000
0010
0000
,
2000
0000
0000
0000
3100
0000
1000
0000
0100
0000
0000
0010
0000
0000
0100
0000
,
0002
0103
1010
0101
,
0210
0000
0000
0000
0301
0000
0010
0000
0100
0000
0000
0001
0000
0000
0100
0000
,
0020
0000
0000
0000
1030
0000
0100
0000
1000
0000
0000
0010
0000
0000
0100
0000
,
0002
0000
0000
0000
0103
0000
0010
0000
1000
0000
0000
0010
0000
0000
0002
0000
,
0100
0100
0100
0103
,
2002
0000
0000
3003
;

//---------------dance-double - ----------------
#NOTES:
     dance-double:
     :
     Hard:
     9:
     0.342684,0.412292,0.167915,0.391803,0.151923,300.000000,279.000000,21.000000,49.000000,0.000000,0.000000,0.342684,0.412292,0.167915,0.391803,0.151923,300.000000,279.000000,21.000000,49.000000,0.000000,0.000000:
00000000
00000000
00000000
00000000
,
00000000
00000000
10000000
00100000
,
00012000
00000000
00000000
00000000
00000000
00000000
00000000
00000000
00013000
00000000
00000000
00100000
00000000
00000000
00010000
00000000
,
00002000
00000000
00000000
00000000
00000000
00000000
00000000
00000000
00003100
00000000
00000000
00000010
00000000
00000000
00000001
00000000
,
00000200
00000000
00000000
00000000
00000000
00000000
00000000
00000000
00001300
00000000
00000000
00000001
00000000
00000000
00001000
00000000
,
00000200
00000000
00000310
00001000
,
00000210
00000000
00000000
00000000
00000000
00000000
00000000
00000000
00001300
00000000
00000000
00000010
00000000
00000000
00001000
00000000
,
00020000
00000000
00000000
00000000
00000000
00000000
00000000
00000000
00031000
00000000
00000000
00000001
00000000
00000000
00000010
00000000
,
00002000
00000000
00000000
00000000
00000000
00000000
00000000
00000000
00103000
00000000
00000000
00001000
00000000
00000000
00100000
00000000
,
02000000
00000000
00020000
03030000
,
00000100
00000000
00000000
00001000
00000000
00000000
00000100
00000000
00000000
00000000
00000100
00000000
00001000
00000000
00000100
00000000
,
00100000
00000000
00000000
01000000
00000000
00000000
00100000
00000000
00000000
00000000
00000100
00000000
00010000
00000000
00000100
00000000
,
00001000
00000000
00000000
00010000
00000000
00000000
00001000
00000000
00000000
00000000
00000100
00000000
00000010
00000000
00000100
00000000
,
00001000
00000000
00000000
00000100
00000000
00000000
00010000
00000000
00000000
00000000
00010000
00000000
00001000
00000000
00100000
00000000
,
00010000
00000000
00000000
00000100
00000000
00000000
00010000
00000000
00000000
00000000
01000000
00000000
00100000
00000000
01000000
00000000
,
10000000
00000000
00000000
01000000
00000000
00000000
10000000
00000000
00000000
00000000
01000000
00000000
00010000
00000000
00100000
00000000
,
00001000
00000000
00000000
00010000
00000000
00000000
00000010
00000000
00000000
00000000
00001000
00000000
00000010
00000000
00000100
00000000
,
00010000
00011000
00010100
00001100
,
00000020
00000031
00000002
00000103
,
00002000
00000000
00000000
00000000
00003100
00000001
00000100
00000000
,
00000002
00000000
00000003
00000000
00000010
00000100
00000010
00000000
,
00002000
00000000
00003001
00001100
,
00110000
00000000
01000000
00000000
00010000
10000000
01000000
00000000
,
02000000
00000000
03000000
00000000
10000000
01000000
00010000
00000000
,
00002000
00000000
00103000
01000000
,
00020000
01030000
00100000
10010000
,
00100000
00000000
00000000
00100000
00000000
00000000
01000000
00000000
00010000
00000000
00000000
00010000
00000000
00000000
01000000
00000000
,
00200000
00000000
00310000
01000000
,
00010000
00000000
00000000
00010000
00000000
00000000
00100000
00000000
00001000
00000000
00000000
00001000
00000000
00000000
00000010
00000000
,
00000002
00000000
00001003
00000100
,
00000010
00000000
00000000
00000010
00000000
00000000
00000100
00000000
00010000
00000000
00000000
00010000
00000000
00000000
00001000
00000000
,
00200000
00000000
00310000
10000000
,
00200000
00000000
10300000
01000000
,
10100000
00000000
01000000
00100000
,
00012000
00000000
00000000
00000000
00000000
00000000
00100000
00000000
00103000
00000000
00000000
00010000
00000000
00000000
00001000
00000000
,
00000200
00000000
00000000
00000000
00000000
00000000
00000000
00000000
00000301
00000000
00000000
00000010
00000000
00000000
00001000
00000000
,
00200000
00000000
00000000
00000000
00000000
00000000
00310000
00000000
01000000
00000000
00000000
00100000
00000000
00000000
01000000
00000000
,
20000000
00000000
30010000
01100000
,
20010000
00000000
00000000
00000000
00000000
00000000
01000000
00000000
31000000
00000000
00000000
00010000
00000000
00000000
00001000
00000000
,
00002000
00000000
00000000
00000000
00000000
00000000
00000100
00000000
00003100
00000000
00000000
00000010
00000000
00000000
00000100
00000000
,
00000002
00000000
00000000
00000000
00000000
00000000
00000100
00000000
00000103
00000000
00000000
00010000
00000000
00000000
00001000
00000000
,
00020000
00000000
01000000
01030000
,
00100000
00000000
00000000
00010000
00000000
00000000
00001000
00000000
00001000
00000000
00000000
00010000
00000000
00000000
00100000
00000000
,
02000000
00000000
03010000
00100000
,
00001000
00000000
00000000
00010000
00000000
00000000
01000000
00000000
01000000
00000000
00000000
00010000
00000000
00000000
00001000
00000000
,
00000020
00000000
00001030
00001001
,
00000100
00000000
00000000
00010000
00000000
00000000
00001000
00000000
00001000
00000000
00000000
00010000
00000000
00000000
00000100
00000000
,
00000002
00000000
00000103
00001000
,
00000020
00000000
00000000
00000000
00000000
00000000
00000000
00000000
00001030
00000000
00000000
00000100
00000000
00000000
00000010
00000000
,
00000002
00000100
00000100
00000103
,
00000002
00000000
00000100
00000103
,
00000010
00000000
00001000
00000000
,
00010000
00000000
01000000
00000000
,
10000000
00000000
01000000
00000000
,
00020000
00000000
00030100
00000010
,
00002000
00000010
00000001
00003001
,
00000002
00000100
00001000
00001003
,
00001100
00000000
00110000
00000000
,
02200000
00000000
00000000
00000000
,
03300000
00000000
00010000
01000000
,
00000000
00000000
00000000
00000000
10010000
00000000
00000000
00000000
01000000
00000000
00000000
10000000
00000000
00000000
01000000
00000000
,
00020000
00000000
00000000
00000000
00130000
00000000
00001000
00000000
00010000
00000000
00000000
00000100
00000000
00000000
00000010
00000000
,
00000002
00000000
00000000
00000000
00000103
00000000
00000001
00000000
00000100
00000000
00000000
00000010
00000000
00000000
00000100
00000000
,
00002000
00003100
00011000
00110000
,
20100000
00000000
00000000
00000000
31000000
00000000
00100000
00000000
10000000
00000000
00000000
01000000
00000000
00000000
10000000
00000000
,
00200000
00000000
00000000
00000000
00301000
00000000
00010000
00000000
00001000
00000000
00000000
00100000
00000000
00000000
00010000
00000000
,
02000000
00000000
00000000
00000000
03001000
00000000
00100000
00000000
00001000
00000000
00000000
00100000
00000000
00000000
00010000
00000000
,
00002000
00010000
00010000
00013000
,
00022000
00000000
00000000
00033000
;

//---------------dance-double - Copied from----------------
#NOTES:
     dance-double:
     Copied from:
     Medium:
     7:
     0.285570,0.357320,0.215891,0.391803,0.039980,250.000000,223.000000,27.000000,49.000000,0.000000,0.000000,0.285570,0.357320,0.215891,0.391803,0.039980,250.000000,223.000000,27.000000,49.000000,0.000000,0.000000:
00000000
00000000
00000000
00000000
,
00000000
00000000
00000001
00000100
,
00021000
00000000
00031000
00000100
,
00021000
00000000
00130000
01000000
,
10200000
00000000
00310000
10000000
,
00210000
00000000
01300000
00010000
,
01200000
00000000
00310000
01000000
,
00012000
00000000
00003100
00000010
,
00002010
00000000
00003100
00010000
,
00021000
00000000
00002000
00033000
,
00001000
00000000
00010000
00000000
00100000
00010000
00100000
00000000
,
00010000
00000000
00000100
00000000
00010000
00001000
00100000
00000000
,
00010000
00001000
00010000
00100000
,
00010000
00010000
00001000
00011000
,
00000100
00000000
00010000
00000000
00001000
00001000
00000100
00000000
,
00000010
00000000
00000010
00000000
00000001
00000001
00000010
00000000
,
00000100
00001000
00010000
00100000
,
00011000
00011000
00011000
00000000
,
00100000
01000000
00100000
01000000
,
00020000
00000000
10030000
01000000
,
00200000
00000000
10300000
01000000
,
00020000
00000000
00031000
00000010
,
00000100
00000001
00000100
00001000
,
00000200
00000000
00010300
00001000
,
00200000
00000000
00310000
01000000
,
20000000
00000000
30100000
01000000
,
00010000
00000000
00000000
00001000
00000000
00000000
00000000
00000000
00001000
00000000
00000000
00010000
00000000
00000000
00000000
00000000
,
00020000
00000000
00030100
00000010
,
00000001
00000000
00000000
00000100
00000000
00000000
00000000
00000000
00000010
00000000
00001000
00000000
00000010
00000000
00000000
00000200
,
00000000
00000000
00000310
00000100
,
00001000
00000000
00000000
00010000
00000000
00000000
00000000
00000000
00010000
00000000
00000000
00001000
00000000
00000000
00000000
00000000
,
00200000
00000000
00310000
01000000
,
00200000
00000000
00301000
00010000
,
00000200
00000300
00000010
00000100
,
00021000
00000000
00030100
00001000
,
00210000
00000000
10300000
01000000
,
00010200
00000000
00000310
00000100
,
00000012
00000000
00001003
00000110
,
00001002
00000000
00000013
00001000
,
00000200
00000000
00010300
00001000
,
00210000
00000000
00310000
00001000
,
00022000
00000000
00000000
00033000
,
00000100
00000000
00000000
00010000
00000000
00000000
00000000
00000000
00010000
00000000
00000000
00000100
00000000
00000000
00000000
00000000
,
00000200
00000000
00001300
00000100
,
00000001
00000000
00000000
00000100
00000000
00000000
00000000
00000000
00000100
00000000
00001000
00000000
00000100
00000000
00000000
00020000
,
00000000
00000000
00000000
00030100
,
00001000
00010000
00001000
00100000
,
00010000
01000000
10000000
00010000
,
02000000
00000000
03010000
00100000
,
20020000
00000000
00000000
00000000
,
30030000
00000000
00100000
00010000
,
00001000
00000000
00010000
00000000
,
00001000
00000000
00000010
00000000
,
00000001
00000000
00000010
00000000
,
00002000
00000000
00103000
00010000
,
00020000
00000000
10000000
10030000
,
20000000
00000000
00010000
30010000
,
00020000
00000000
00032000
00000000
,
00003200
00000000
00000010
00000000
,
00000020
00000330
00001000
00000020
,
00000030
00001001
00000010
00000001
,
00000020
00000000
00000130
00000000
00001000
00010000
00100000
00000000
,
00010000
00000000
00100000
00000000
10000000
00100000
01000000
00000000
,
00020000
00130000
00011000
00001100
,
00000102
00000000
00000013
00000000
00000100
00000001
00000010
00000000
,
00000001
00000000
00001000
00000000
00010000
00000100
00001000
00000000
,
00000200
00000000
00010300
00000000
00010000
00001000
00010000
00000000
,
00021000
00001000
00001000
00031000
,
00022000
00000000
00000000
00033000
;

//---------------dance-single - Copied from----------------
#NOTES:
     dance-single:
     Copied from:
     Medium:
     6:
     0.291282,0.384806,0.247875,0.391803,0.039980,255.000000,224.000000,31.000000,49.000000,0.000000,0.000000,0.291282,0.384806,0.247875,0.391803,0.039980,255.000000,224.000000,31.000000,49.000000,0.000000,0.000000:
0000
0000
0000
0000
,
0000
0000
1000
0010
,
2001
0000
3001
0010
,
2001
0000
3100
0010
,
0201
0000
1300
0001
,
1200
0000
0310
1000
,
0210
0000
1300
0010
,
1002
0000
0013
0100
,
0102
0000
0013
1000
,
2001
0000
0002
3003
,
0001
0000
1001
0000
0100
1000
0100
0000
,
1000
0000
1001
0000
1000
0001
0100
0000
,
1000
0000
1001
0000
1000
0100
0001
0000
,
1000
1001
0001
1001
,
0010
0000
1000
0000
0001
0001
0010
0000
,
0100
0000
0100
0000
1000
1000
0100
0000
,
0010
0001
1000
0100
,
1001
1001
1001
0000
,
0100
0010
0100
0010
,
2000
0000
3001
0010
,
0200
0000
0301
0010
,
2000
0000
3001
0100
,
0010
1000
0010
0001
,
0020
0000
1030
0001
,
0200
0000
1300
0010
,
0002
0000
0103
0010
,
1000
0000
0000
0001
0000
0000
0000
0000
0001
0000
0000
1000
0000
0000
0000
0000
,
2000
0000
3010
0100
,
1000
0000
0000
0010
0000
0000
0000
0000
0100
0000
0001
0000
0100
0000
0000
0020
,
0000
0000
0130
0010
,
0001
0000
0000
1000
0000
0000
0000
0000
1000
0000
0000
0001
0000
0000
0000
0000
,
0200
0000
1300
0010
,
0200
0000
0301
1000
,
0020
0030
0100
0010
,
2001
0000
3010
0001
,
1200
0000
0301
0010
,
1020
0000
0130
0010
,
2100
0000
3001
0110
,
2001
0000
3100
0001
,
0020
0000
1030
0001
,
1200
0000
1300
0001
,
2002
0000
0000
3003
,
0010
0000
0000
1000
0000
0000
0000
0000
1000
0000
0000
0010
0000
0000
0000
0000
,
0020
0000
0031
0010
,
1000
0000
0000
0010
0000
0000
0000
0000
0010
0000
0001
0000
0010
0000
0000
2000
,
0000
0000
0000
3010
,
0001
1000
0001
0100
,
1000
0010
0001
1000
,
0020
0000
1030
0100
,
2002
0000
0000
0000
,
3003
0000
0100
1000
,
0001
0000
1000
0000
,
0001
0000
0100
0000
,
1000
0000
0100
0000
,
0002
0000
0103
1000
,
2000
0000
0001
3001
,
0002
0000
1000
1003
,
2000
0000
3002
0000
,
0023
0000
0100
0000
,
0200
0330
0001
0200
,
0300
1001
0100
1000
,
0200
0000
0310
0000
0001
1000
0100
0000
,
1000
0000
0100
0000
0001
0100
0010
0000
,
2000
3100
1001
0011
,
2010
0000
3100
0000
0010
1000
0100
0000
,
1000
0000
0001
0000
1000
0010
0001
0000
,
0020
0000
1030
0000
1000
0001
1000
0000
,
2001
0001
0001
3001
,
2002
0000
0000
3003
;

//---------------dance-double - ----------------
#NOTES:
     dance-double:
     :
     Easy:
     5:
     0.219318,0.274861,0.087956,0.391803,0.000000,192.000000,181.000000,11.000000,49.000000,0.000000,0.000000,0.219318,0.274861,0.087956,0.391803,0.000000,192.000000,181.000000,11.000000,49.000000,0.000000,0.000000:
00000000
00000000
00000000
00000000
,
00000000
00000000
00010000
00001000
,
00020000
00000000
00030100
00001000
,
00000200
00000000
00000310
00000001
,
00000020
00000000
00000130
00000100
,
00000200
00000300
00001000
00001000
,
00010000
00000000
00100000
01000000
,
00200000
00300000
10000000
00100000
,
20000000
30000000
00010000
01000000
,
00020000
00000000
00000000
00030000
,
00100000
00100000
00010000
00010000
,
00000100
00000100
00001000
00001000
,
00000010
00000010
00000001
00000001
,
00001000
00001000
00000100
00001001
,
00000010
00000010
00000100
00000100
,
00010000
00010000
00001000
00001000
,
00100000
00100000
10000000
10000000
,
01000000
00010000
02000000
03000000
,
00200000
00000000
10000000
00000000
,
01300000
00000000
00010000
00000000
,
20000000
00000000
01000000
00000000
,
30010000
00000000
01100000
01100000
,
01100000
00000000
00020000
00000000
,
00000100
00000000
00031000
00000000
,
00000020
00000000
00001000
00000000
,
00000100
00000000
00000031
00000010
,
00002000
00003100
00000200
00001300
,
00020000
00000000
00031000
00100000
,
00002000
00003000
00020000
00030000
,
00200000
00300000
01000000
01100000
,
00020000
00030000
00002000
00003000
,
00000200
00000300
00000010
00000001
,
00002000
00000000
00000000
00000000
,
00013000
00000000
00100000
00001000
,
00020000
00000000
00030100
00001000
,
00000020
00000000
00000130
00000001
,
00002000
00000000
00103000
00010000
,
02000000
03000000
10010000
01100000
,
20010000
00000000
30100000
01000000
,
00020000
00000000
00031000
00000010
,
00000200
00000000
00000301
00000010
,
00002000
00000000
00023000
00000000
,
00030100
00000000
00001000
00000000
,
00100000
00000000
00010000
01000000
,
20000000
00000000
32000000
00000000
,
03020000
00000000
00031000
00000100
,
00000001
00000000
00000010
00000000
,
00001000
00000000
00010000
00001000
,
00200000
00000000
00310000
01000000
,
20000000
00000000
00000000
00000000
,
30010000
00000000
00100000
00010000
,
00001000
00000000
00000010
00000000
,
00000001
00000000
00000010
00000000
,
00001000
00000000
00010000
00000000
,
00001000
00000000
00010000
00000000
,
02000000
00000000
03200000
00000000
,
20300000
00000000
30010000
01000000
,
20000000
00000000
30100000
00100000
,
00020000
00000000
00000000
00000000
,
00000000
00000000
00031000
00010000
,
00011000
00000000
00000010
00000100
,
00000010
00000000
00000001
00001000
,
00000002
00000000
00000103
00001000
,
00020000
00000000
00130000
00100000
,
01010000
00000000
10000000
01000000
,
00020000
00030000
00001000
00000100
,
00000002
00000003
00000010
00002000
,
00020000
00000000
00000000
00033000
,
00022000
00000000
00000000
00033000
;

//---------------dance-single - ----------------
#NOTES:
     dance-single:
     :
     Beginner:
     2:
     0.146212,0.190304,0.047976,0.095952,0.000000,128.000000,122.000000,6.000000,12.000000,0.000000,0.000000,0.146212,0.190304,0.047976,0.095952,0.000000,128.000000,122.000000,6.000000,12.000000,0.000000,0.000000:
0000
0000
0000
0000
,
0000
0000
0000
0000
,
0010
0000
0000
0000
,
0100
0000
0000
0000
,
0001
0000
0000
0000
,
1000
0000
0010
0000
,
0001
0000
0000
0000
,
1000
0000
0000
0000
,
0100
0000
0100
0000
,
0200
0000
0300
0000
,
0001
0000
0000
0001
,
0001
0000
1000
0000
,
0010
0000
0000
0010
,
0010
0000
0100
0000
,
0001
0000
1000
0000
,
0001
0000
1000
1000
,
1000
0000
0001
0000
,
0100
0100
0100
0000
,
1001
0000
0010
0000
,
0020
0000
0030
0000
,
0200
0000
0300
0000
,
0010
0000
1001
1001
,
0000
0000
0001
0000
,
1000
0000
0100
0100
,
0100
0000
0010
0010
,
0020
0000
0030
0000
,
0100
0000
0100
0000
,
0100
0000
0000
0000
,
0001
0000
0001
0000
,
0001
0000
0000
0000
,
1000
0000
1000
0000
,
1000
0000
1000
0000
,
0020
0000
0000
0000
,
0030
0000
0100
0100
,
0100
0000
0001
0000
,
1000
0000
0001
0000
,
1000
0000
0001
0001
,
0001
0000
0100
0100
,
0100
0000
0010
0000
,
0100
0000
0001
0000
,
1000
0000
0001
0000
,
2002
0000
3003
0000
,
0010
0000
0010
0000
,
0010
0000
0100
0100
,
0100
0000
0001
0000
,
0001
0000
1000
1000
,
1000
0000
0100
0000
,
0100
0000
0010
0010
,
0020
0000
0000
0030
,
0020
0000
0000
0000
,
0030
0000
0000
0000
,
0001
0000
0000
0000
,
1000
0000
0000
0000
,
0001
0000
0000
0000
,
1000
0000
0010
0010
,
0010
0000
0100
0000
,
0001
0000
1000
1000
,
1000
0000
0001
0001
,
0002
0000
0000
0000
,
0003
0000
0001
0000
,
0000
1001
0000
0000
,
0010
0000
0100
0000
,
0010
0000
0100
0000
,
0002
0003
0001
0001
,
0001
0000
1000
0000
,
0001
0000
1000
0000
,
0010
0000
0100
0000
,
0002
0000
0003
0000
,
1001
0000
0000
0000
;

//---------------dance-single - Copied from----------------
#NOTES:
     dance-single:
     Copied from:
     Easy:
     4:
     0.247875,0.329834,0.199899,0.175911,0.000000,217.000000,192.000000,25.000000,22.000000,0.000000,0.000000,0.247875,0.329834,0.199899,0.175911,0.000000,217.000000,192.000000,25.000000,22.000000,0.000000,0.000000:
0000
0000
0000
0000
,
0000
0000
0000
0000
,
0001
0000
0001
0100
,
1000
0000
1000
0100
,
0001
0000
0001
0100
,
1000
0000
0001
0000
,
1000
0000
1000
0100
,
0001
0000
0001
0100
,
1000
0000
1000
0100
,
0002
0000
0003
0000
,
1000
1000
0010
0010
,
0001
0001
0100
0100
,
0001
0001
0010
0010
,
1000
1000
1001
1001
,
0010
0010
0001
0001
,
0100
0100
1000
1000
,
0100
0001
0100
1000
,
0100
0001
2002
3003
,
0010
0100
0010
0100
,
0020
0000
0130
0000
,
0200
0000
0310
0000
,
0200
0000
0301
0001
,
0010
0010
0001
0001
,
0020
0000
1030
1000
,
0200
0000
0301
0001
,
0020
0000
0030
0000
,
0010
0100
0010
0100
,
1001
0000
0010
0100
,
0001
1000
0001
1000
,
1001
0000
0010
0100
,
1000
0001
1000
0001
,
1001
0000
0010
0100
,
0020
0000
0000
0000
,
0130
0000
0100
0100
,
0100
0000
0010
0010
,
0010
0000
0001
0001
,
1001
0000
0100
0100
,
0100
0000
0110
0110
,
0110
0000
1000
0001
,
1000
0000
0010
0100
,
0010
0000
0001
1000
,
2002
0000
3003
0000
,
0100
0010
0100
0010
,
1001
0000
0001
0010
,
0100
0010
0100
0010
,
1001
0000
0001
0100
,
0010
1000
0010
1000
,
1001
0000
0001
1000
,
0020
0000
0100
0130
,
2000
0000
0002
0000
,
3003
0000
0010
0100
,
0001
0000
0010
0000
,
0001
0000
0100
0000
,
1000
0000
0100
0000
,
1000
0000
0010
0110
,
0100
0000
0010
1000
,
0010
0000
0100
0001
,
0010
0000
0100
1000
,
0002
0000
0000
0000
,
0003
0000
0100
0020
,
0030
0000
0100
0001
,
0001
0000
0001
1000
,
1000
0000
0010
0100
,
1002
0003
0110
0110
,
0110
0000
1001
0010
,
0100
0000
1001
0100
,
0010
0000
1001
0110
,
2002
0000
3003
0000
,
2002
0000
0000
3003
;

//---------------dance-single - ----------------
#NOTES:
     dance-single:
     :
     Challenge:
     11:
     0.436352,0.467264,0.135931,0.559718,0.307845,382.000000,365.000000,17.000000,70.000000,0.000000,0.000000,0.436352,0.467264,0.135931,0.559718,0.307845,382.000000,365.000000,17.000000,70.000000,0.000000,0.000000:
// measure 0
0000
0000
0000
0000
,  // measure 1
0000
0000
2000
3001
,  // measure 2
0110
0000
0000
0010
0000
0000
1000
0000
0100
0000
0000
0100
0000
0000
1000
0000
,  // measure 3
0020
0000
0000
0100
0000
0000
0130
0000
0001
0000
0000
0100
0000
0000
1000
0000
,  // measure 4
0200
0000
0000
0010
0000
0000
0310
0000
1000
0000
0000
0100
0000
0000
0001
0000
,  // measure 5
0020
0000
0000
0100
0000
0000
0130
0000
0020
0000
0000
0000
0230
0000
0000
0000
,  // measure 6
0302
0000
0000
1000
0000
0000
1003
0000
0010
0000
0000
0100
0000
0000
1000
0000
,  // measure 7
2000
0000
0000
0001
0000
0000
3001
0000
1000
0000
0000
0100
0000
0000
0001
0000
,  // measure 8
0002
0000
0000
1000
0000
0000
1003
0000
0001
0000
0000
0010
0000
0000
0100
0000
,  // measure 9
0020
0000
0000
0100
0000
0000
0100
0000
0130
0000
0000
0000
0110
0000
0000
0000
,  // measure 10
1000
0000
0000
0100
0000
0000
1000
0000
0000
0100
0000
0000
0010
0000
0001
0000
,  // measure 11
0010
0000
0000
0100
0000
0000
0010
0000
0100
0010
0000
0000
0100
0000
0010
0000
,  // measure 12
1000
0000
0000
0010
0000
0000
1000
0000
0000
0100
0000
0000
1000
0000
0010
0000
,  // measure 13
0100
0010
0000
0100
0000
0000
0010
0000
0110
0000
0000
0000
1001
0000
0000
0000
,  // measure 14
0101
0000
0000
0001
0000
0000
1000
0000
0000
1000
0000
0000
0010
0000
0100
0000
,  // measure 15
0001
0000
0000
0001
0000
0000
1000
0100
1000
0100
0000
0000
1100
0000
0000
0000
,  // measure 16
1001
0000
0000
0001
0000
0000
0100
0000
0010
0100
0000
0000
0010
0000
1000
0000
,  // measure 17
0100
0000
0000
1000
0000
0000
0100
0000
0002
0000
0000
0000
0203
0000
0000
0000
,  // measure 18
0310
0000
1000
0000
0001
0000
1000
0000
0010
0000
0000
1000
0000
0000
0100
0000
,  // measure 19
0002
0000
0100
0000
0000
0000
0103
0000
0010
0000
0100
0000
0001
0000
0100
0002
,  // measure 20
0000
0000
1003
0000
0000
0000
1000
0000
0001
0000
1000
0000
0010
0000
1000
0002
,  // measure 21
0000
0103
0200
0320
,  // measure 22
0031
0000
0010
0000
0001
0000
0010
0000
0100
0000
0000
1000
0000
0000
0010
0000
,  // measure 23
0002
0000
0010
0000
0000
0000
0013
0000
1000
0000
0010
0000
0001
0000
0010
0002
,  // measure 24
0000
0000
0103
0000
0000
0000
0100
0000
0001
0000
0100
0000
1000
0000
0100
0002
,  // measure 25
0000
0000
0023
2030
,  // measure 26
3001
0000
0000
0010
0000
0000
1000
0000
1000
0000
0000
0010
0000
0000
0001
0000
,  // measure 27
0002
0000
1003
0001
1000
0100
0010
0001
,  // measure 28
0010
0000
0000
0100
0000
0000
1000
0000
0001
0000
1001
0000
0001
0000
1000
0200
,  // measure 29
0000
0000
0300
0001
0100
1000
0100
0001
,  // measure 30
0010
0000
0000
0001
0000
0000
0100
0000
0100
0000
0000
0001
0000
0000
0010
0000
,  // measure 31
2000
0000
0000
0000
3000
0000
0000
0000
0001
0000
0000
0100
0000
0000
1000
0000
,  // measure 32
2002
0000
0000
3003
,  // measure 33
0220
0330
1100
0011
,  // measure 34
0100
0000
0000
0010
0000
0000
1000
0000
0100
0000
0000
0100
0000
0000
1000
0000
,  // measure 35
2000
0000
0000
0010
0000
0000
3010
0000
0001
0000
0000
0010
0000
0000
0010
0000
,  // measure 36
2000
0000
0000
0100
0000
0000
3100
0000
0010
0000
0000
1000
0000
0000
0001
0000
,  // measure 37
0200
0000
0000
1000
0000
0000
1300
0000
0200
0000
0000
0000
2300
0000
0000
0000
,  // measure 38
3002
0000
0000
0010
0000
0000
0013
0000
0100
0000
0000
1000
0000
0000
0010
0000
,  // measure 39
0020
0000
0000
0001
0000
0000
0031
0000
0010
0000
0000
1000
0000
0000
0001
0000
,  // measure 40
0002
0000
0000
0010
0000
0000
0013
0000
0001
0000
0000
0100
0000
0000
1000
0000
,  // measure 41
0200
0000
0000
1000
0000
0000
1000
0000
1300
0000
0000
0000
1001
0000
0000
0000
,  // measure 42
0002
0000
0000
0100
0000
0000
0203
0000
0010
0000
0000
0010
0000
0000
0310
0000
,  // measure 43
2002
0000
3003
0010
0001
0100
0001
0010
,  // measure 44
0100
0000
0000
0010
0000
0000
1000
0000
0001
0000
0100
0000
0001
0000
0100
0020
,  // measure 45
0000
0000
0000
1030
0100
1000
0100
0010
,  // measure 46
0002
0000
0000
0100
0000
0000
0203
0000
1000
0000
0000
1000
0000
0000
1300
0000
,  // measure 47
0002
0000
0000
0000
0003
0000
0000
0000
1001
0000
0000
0001
0000
0000
0100
0000
,  // measure 48
2000
0000
0000
0000
3100
0000
0000
0000
1000
0000
0000
0100
0000
0000
0001
0000
,  // measure 49
2002
0000
0000
3003
,  // measure 50
0110
0000
2000
3200
,  // measure 51
0302
0003
0020
0130
,  // measure 52
2000
3000
0002
0013
,  // measure 53
0200
0300
2000
3100
,  // measure 54
0020
0000
1000
0031
,  // measure 55
0100
0000
0100
0010
0000
0010
0100
0000
,  // measure 56
1000
0000
0001
1000
0000
1000
0001
0000
,  // measure 57
0010
0000
1000
0100
0000
0100
1000
0000
,  // measure 58
2000
0100
0010
0001
,  // measure 59
0002
0003
3010
0100
,  // measure 60
0001
0000
1000
0100
2000
0000
0000
0000
3010
0000
0100
0010
0000
0000
1000
0000
,  // measure 61
0002
0000
0000
0103
0000
0000
0010
0000
1000
0000
0100
1000
0000
0000
0100
0000
,  // measure 62
0020
0000
0000
1030
0000
0000
0100
0000
0001
0000
0100
0010
0000
0000
0100
0000
,  // measure 63
0002
0203
0320
2030
,  // measure 64
3100
0000
0001
0100
0000
0000
0010
0000
1000
0000
0100
1000
0000
0000
0100
0000
,  // measure 65
0001
0000
0100
0010
0000
0000
1000
0000
0100
0000
0010
0001
0000
0000
0010
0000
,  // measure 66
0200
0000
0000
0010
0000
0000
0310
0000
0001
0000
1000
0100
0000
0000
0010
0000
,  // measure 67
0002
0010
0100
1000
,  // measure 68
2000
0000
0000
3003
;

//---------------dance-double - Copied from----------------
#NOTES:
     dance-double:
     Copied from:
     Challenge:
     11:
     0.422644,0.439778,0.127936,0.559718,0.303847,370.000000,354.000000,16.000000,70.000000,0.000000,0.000000,0.422644,0.439778,0.127936,0.559718,0.303847,370.000000,354.000000,16.000000,70.000000,0.000000,0.000000:
00000000
00000000
00000000
00000000
,
00000000
00000000
20000000
30010000
,
01100000
00000000
00000000
00100000
00000000
00000000
10000000
00000000
01000000
00000000
00000000
01000000
00000000
00000000
00010000
00000000
,
00002000
00000000
00000000
00000010
00000000
00000000
00003010
00000000
00010000
00000000
00000000
00000010
00000000
00000000
00000100
00000000
,
00000020
00000000
00000000
00000100
00000000
00000000
00000130
00000000
00001000
00000000
00000000
00001000
00000000
00000000
00001000
00000000
,
00200000
00000000
00000000
00300000
00020000
00000000
02030000
00000000
,
03020000
00000000
00000000
10000000
00000000
00000000
10030000
00000000
00100000
00000000
00000000
01000000
00000000
00000000
10000000
00000000
,
20000000
00000000
00000000
00010000
00000000
00000000
30010000
00000000
00100000
00000000
00000000
00001000
00000000
00000000
00010000
00000000
,
00020000
00000000
00000000
00000100
00000000
00000000
00030100
00000000
00001000
00000000
00000000
00100000
00000000
00000000
01000000
00000000
,
00200000
00000000
00000000
01000000
00000000
00000000
01000000
00000000
01300000
00000000
00000000
00000000
01100000
00000000
00000000
00000000
,
10000000
00000000
00000000
01000000
00000000
00000000
10000000
00000000
00000000
01000000
00000000
00000000
00100000
00000000
00010000
00000000
,
00000100
00000000
00000000
00000010
00000000
00000000
00000100
00000000
00000010
00000100
00000000
00000000
00000010
00000000
00000100
00000000
,
00010000
00000000
00000000
00001000
00000000
00000000
01000000
00000000
00000000
00010000
00000000
00000000
10000000
00000000
00100000
00000000
,
01000000
00100000
00000000
01000000
00000000
00000000
00100000
00000000
00110000
00000000
00000000
00000000
00011000
00000000
00000000
00000000
,
00010000
00000000
00000000
00010000
00000000
00000000
00001000
00000000
00000000
00001000
00000000
00000000
00000010
00000000
00000100
00000000
,
00010000
00000000
00000000
00010000
00000000
00000000
00001000
01000000
00001000
01000000
00000000
00000000
00011000
00000000
00000000
00000000
,
00101000
00000000
00000000
00010000
00000000
00000000
01000000
00000000
00000000
01000000
00000000
00000000
00100000
00000000
10000000
00000000
,
01000000
00000000
00000000
10000000
00000000
00000000
01000000
00000000
00020000
00000000
00000000
00000000
02030000
00000000
00000000
00000000
,
03100000
00000000
00010000
00000000
00100000
00000000
10000000
00000000
00100000
00000000
00000000
11000000
00000000
00000000
01000000
00000000
,
00020000
00000000
00000000
00000000
00000000
00000000
00031000
00000000
00100000
00000000
00001000
00000000
00100000
00000000
00000000
00020000
,
00000000
00000000
00000100
00000000
00030000
00000000
00000010
00000000
00001000
00000000
00000010
00000000
00001000
00000000
00001000
00000002
,
00000000
00000103
00000200
00000320
,
00000031
00000000
00000010
00000000
00000001
00000000
00000010
00000000
00000100
00000000
00000000
00001000
00000000
00000000
00100000
00000000
,
00020000
00000000
00100000
00000000
00000000
00000000
00130000
00000000
10000000
00000000
00100000
00000000
00010000
00000000
00100000
00020000
,
00000000
00000000
00031000
00000000
00000000
00000000
00000100
00000000
00000001
00000000
00000100
00000000
00001000
00000000
00000100
00000002
,
00000000
00000000
00000023
00002030
,
00013000
00000000
00000000
00100000
00000000
00000000
10000000
00000000
10000000
00000000
00000000
00100000
00000000
00000000
00010000
00000000
,
00020000
00000000
00031000
00010000
00001000
00100000
00001000
00010000
,
00000100
00000000
00000000
00000100
00000000
00000000
00001000
00000000
00000001
00000000
00001001
00000000
00000001
00000000
00001000
00000200
,
00000000
00000000
00000300
00000001
00000100
00001000
01000000
00010000
,
00100000
00000000
00000000
00010000
00000000
00000000
01000000
00000000
01000000
00000000
00000000
00010000
00000000
00000000
00100000
00000000
,
20000000
00000000
00000000
00000000
30000000
00000000
00000000
00000000
00010000
00000000
00000000
01000000
00000000
00000000
10000000
00000000
,
20000000
30200000
02300000
03002000
,
00200000
00303000
00110000
00011000
,
00001100
00000000
00000000
00000010
00000000
00000000
00001000
00000000
00000100
00000000
00000000
00000100
00000000
00000000
00001000
00000000
,
00002000
00000000
00000000
00000010
00000000
00000000
00003010
00000000
00000001
00000000
00000000
00000010
00000000
00000000
00000010
00000000
,
00002000
00000000
00000000
00000100
00000000
00000000
00003100
00000000
00000010
00000000
00000000
00001000
00000000
00000000
00010000
00000000
,
02000000
00000000
00000000
10000000
00000000
00000000
13000000
00000000
02000000
00000000
00000000
00000000
23000000
00000000
00000000
00000000
,
30020000
00000000
00000000
00100000
00000000
00000000
00130000
00000000
00001000
00000000
00000000
00010000
00000000
00000000
00000010
00000000
,
00002000
00000000
00000000
00000100
00000000
00000000
00003001
00000000
00000010
00000000
00000000
00001000
00000000
00000000
00000100
00000000
,
00020000
00000000
00000000
00100000
00000000
00000000
00130000
00000000
00010000
00000000
00000000
01000000
00000000
00000000
10000000
00000000
,
02000000
00000000
00000000
10000000
00000000
00000000
10000000
00000000
13000000
00000000
00000000
00000000
10010000
00000000
00000000
00000000
,
00020000
00000000
00000000
01000000
00000000
00000000
02030000
00000000
00100000
00000000
00000000
00100000
00000000
00000000
03100000
00000000
,
20020000
30030000
00010000
00001000
,
00000100
00000000
00000000
00000010
00000000
00000000
00001000
00000000
00000001
00000000
00000100
00000000
00000001
00000000
00000100
00000020
,
00000000
00000000
00000000
00000030
00001000
00000000
00001000
00000000
,
00020000
00000000
00000000
01000000
00000000
00000000
02030000
00000000
10000000
00000000
00000000
10000000
00000000
00000000
13000000
00000000
,
00020000
00000000
00000000
00000000
00030000
00000000
00000000
00000000
10010000
00000000
00000000
00010000
00000000
00000000
01000000
00000000
,
20000000
00000000
00000000
00000000
31000000
00000000
00000000
00000000
00010000
00000000
00000000
01000000
00000000
00000000
00010000
00000000
,
00022000
00000000
00000000
00033000
,
01100000
00000000
20000000
32000000
,
03020000
00030000
00000020
00000130
,
00002000
00003000
00020000
00130000
,
02000000
03000000
00002000
00003100
,
00000020
00000000
00001000
00010030
,
00001000
00000000
00001000
00100000
00000000
00100000
00001000
00000000
,
00100000
00000000
00010000
10000000
00000000
10000000
00010000
00000000
,
00000100
00000000
00001000
00000010
00000000
00000010
00001000
00000000
,
00000002
00000010
00000100
00001000
,
00002000
00003000
00000103
00010000
,
00010000
00000000
10000000
01000000
20000000
00000000
00000000
00000000
30100000
00000000
01000000
00100000
00000000
00000000
10000000
00000000
,
00020000
00000000
00000000
01030000
00000000
00000000
00100000
00000000
10000000
00000000
01000000
10000000
00000000
00000000
01000000
00000000
,
00200000
00000000
00000000
00301000
00000000
00000000
00000100
00000000
00010000
00000000
00000010
00001000
00000000
00000000
00000010
00000000
,
00000200
00000000
00000320
00002030
,
00003100
00000000
00000000
00001000
00000000
00000000
00100000
00000000
10000000
00000000
01000000
10000000
00000000
00000000
01000000
00000000
,
00010000
00000000
00000000
00000010
00000000
00000000
00001000
00000000
00000100
00000000
00000010
00000001
00000000
00000000
00000010
00000000
,
00000200
00000000
00000000
00000010
00000000
00000000
00000310
00000000
00001000
00000000
00010000
01000000
00000000
00000000
00100000
00000000
,
00020000
00100000
01000000
00001000
,
00002000
00000000
00000000
00033000
;
