#TITLE:Enter The Universe;
#SUBTITLE:;
#ARTIST:GOTH;
#TITLETRANSLIT:;
#SUBTITLETRANSLIT:;
#ARTISTTRANSLIT:;
#GENRE:;
#CREDIT:;
#BANNER:Enter The Universe.png;
#BACKGROUND:Enter The Universe-bg.png;
#LYRICSPATH:;
#CDTITLE:;
#MUSIC:Enter The Universe.ogg;
#OFFSET:-0.120000;
#SAMPLESTART:87.800064;
#SAMPLELENGTH:16.219999;
#SELECTABLE:YES;
#BPMS:0.000000=162.000000
;
#STOPS:
;
#BGCHANGES:0.000=Enter The Universe.avi=1.000=0=0=0=StretchNoLoop====,
99999=-nosongbg-=1.000=0=0=0 // don't automatically add -songbackground-
;
#KEYSOUNDS:;
#ATTACKS:;

//---------------dance-single - ----------------
#NOTES:
     dance-single:
     :
     Hard:
     14:
     0.699558,0.899481,0.225344,0.182009,0.563361,565.000000,539.000000,26.000000,21.000000,0.000000,0.000000,0.699558,0.899481,0.225344,0.182009,0.563361,565.000000,539.000000,26.000000,21.000000,0.000000,0.000000:
0000
0000
0000
0000
,
0000
0010
0010
0010
,
0010
0010
0010
0010
,
0010
0100
0100
0100
,
0100
0100
0100
0100
,
0100
0010
1001
0010
,
1001
0100
1001
0100
,
1001
0010
1001
0010
,
1001
0000
0000
0000
0110
0000
0000
0000
1001
0000
0000
0000
0110
0000
0000
0110
,
0000
0000
1000
0100
1000
0100
1000
0100
,
1000
0100
0001
0100
0001
0100
0001
0100
,
0001
0100
1000
0100
1000
0100
0001
0100
,
0001
0100
1000
0000
0100
0000
0001
0000
,
0010
1000
0010
1000
0010
1000
0010
1000
,
0010
1000
0010
0001
0010
0001
0010
0001
,
0010
0001
0010
1000
0010
1000
0010
0001
,
0010
0001
0100
0000
1000
0000
0010
0001
,
0100
0000
0000
0000
1001
0000
0010
0000
1000
0100
0000
0100
1000
0000
0010
0000
,
0001
0100
0000
0100
0001
0000
0010
0000
1000
0100
0000
0100
1000
0000
0010
0000
,
0100
0000
0010
0000
1000
0000
0100
0000
0001
0100
0000
0100
0001
0000
0100
0000
,
1000
0010
0000
0010
1000
0000
0100
0000
0001
0010
0000
0010
0001
0000
0100
0000
,
0010
0000
1000
0000
0100
0000
0010
0000
1000
0001
0000
0001
1000
0000
0010
0000
,
0100
0010
0000
0010
1000
0000
0100
0000
0001
0010
0000
0010
0001
0000
0100
0000
,
0010
1000
0002
0000
1003
0000
0010
0100
,
0001
1000
0000
1000
0001
0000
0010
0000
0100
0000
0000
0000
1000
0000
0001
0000
,
1000
0000
0001
0000
1001
0000
1000
0001
0000
0000
0100
0000
0100
0000
0010
0100
,
0000
0000
0001
0000
0001
0000
1000
0001
0000
0000
0010
0000
0010
0000
0100
0010
,
0000
0000
1000
0000
1000
0000
0100
1000
0000
0000
0010
0000
0010
0000
0100
0010
,
0000
0000
0100
0000
0100
0000
0010
0100
0000
0000
0001
0000
0001
0000
1000
0001
,
0000
1000
0001
0000
1000
0000
0100
1000
0000
0100
1000
0000
0001
0000
0100
0001
,
0000
0100
0001
0000
1000
0000
0100
1000
0000
0100
1000
0000
0001
0000
0100
0001
,
0000
0100
0001
0000
1000
0000
0010
1000
0000
0010
1000
0000
0001
0000
0010
0001
,
0000
0010
0001
0000
1000
0000
0010
1000
0000
0010
1000
0000
0001
0100
0000
0001
,
0000
0100
0001
0000
1000
0000
0100
1000
0000
0000
0010
0000
0100
0000
0001
0100
,
0000
0000
0010
0000
1000
0000
0010
1000
0000
0000
0100
0000
0001
0000
0100
0001
,
0000
0000
0010
0000
1000
0000
0100
1000
0000
0000
0010
0000
0001
0000
0100
0001
,
0000
0000
0010
0000
1000
0000
0001
1000
0000
0000
0001
0000
1000
0001
0000
1000
,
0000
0001
1000
0000
0010
0000
0000
0110
0000
0000
1000
0000
0100
0000
0000
1100
,
0000
0000
0001
0000
0100
0000
0000
0101
0000
0000
0010
0000
0100
0000
0000
0110
,
0000
0000
1000
0000
0100
0000
0000
1001
0000
0000
0001
0000
0100
0000
0000
1001
,
0000
0000
0010
0000
1000
0000
0000
1010
0000
0000
0010
0000
0001
0000
0000
0011
,
0000
1000
0100
1000
0100
2000
0000
3000
1000
0020
0000
0030
0010
0200
0000
0300
,
0100
0002
0000
0003
2002
0000
0000
0000
0000
0000
0000
0000
0000
0000
0000
0000
,
3003
2002
0000
0000
,
3003
0020
0000
0200
,
0030
0002
0000
0000
,
0000
0000
0000
0000
0000
0000
0000
0000
0000
0000
0003
0000
0301
0000
0000
1001
,
0000
0110
2002
0000
0000
0000
0000
0000
,
3000
0200
0300
0020
,
0003
0100
0200
0000
0330
0000
2002
0000
,
3003
0000
0000
0000
0100
0000
0010
0100
0000
0010
0100
0000
0001
1000
0000
0001
,
1000
0001
0100
0000
0100
0000
0100
0000
,
0100
0001
0010
0000
0010
1000
0100
0000
,
1000
0010
0001
0000
0001
0000
0001
0000
,
0010
1000
0100
0000
0100
0001
0010
0000
,
0010
0100
1000
0010
1000
0010
1000
0010
,
0100
0010
0001
0100
0010
0100
0010
0100
,
0010
0100
1000
0001
1000
0001
0100
0010
,
0100
0010
1000
0100
0010
0001
0010
1000
,
0100
0000
0000
0000
1000
0000
0001
0000
1000
0001
0000
1000
0001
0000
1000
0001
,
0000
1000
0001
0000
1000
0100
0000
1000
0100
0000
1000
0100
0000
1000
0100
0000
,
1000
0010
0000
0000
0010
0000
0100
0000
0001
1000
0000
0001
1000
0000
0010
1000
,
0000
0001
1000
0000
0010
0000
0100
0000
0001
0010
0000
0001
0100
0000
0001
0010
,
0000
0001
0100
0000
0010
0000
0001
0000
0010
0001
0000
0010
0001
0000
0010
0001
,
0000
1000
0001
0000
1000
0100
0000
1000
0100
0000
1000
0010
0000
1000
0010
0000
,
1000
0010
0000
0000
0010
0000
0100
0000
0001
0100
0000
0001
0100
0000
0001
1000
,
0000
0001
0010
0000
0001
0000
0010
0000
0001
0100
0000
0001
0100
0000
0001
1000
,
0000
0001
1000
0000
0010
0000
0100
0000
1000
0000
0001
0000
0100
0000
0001
1000
,
0000
0001
1000
0000
0100
0000
0010
0000
1000
0000
0100
0000
0010
0000
0001
0100
,
0000
0001
0100
0000
0010
0000
1000
0000
0100
0000
0010
0000
0100
0000
0010
1000
,
0000
0010
1000
0000
0001
0000
0100
0000
0001
0000
1000
0000
0001
0000
0100
0001
,
0000
0100
0001
0000
0100
0000
0100
0000
0100
0000
0100
0000
0010
0000
0010
0000
,
0010
0000
1000
0001
1000
0000
0100
0000
0100
0000
0010
0000
0010
0000
0001
0000
,
0001
0000
1000
0100
1000
0000
0010
0000
0001
0000
1000
0100
1000
0000
0100
0000
,
0001
0000
0010
0100
0010
0100
0010
0100
0001
1000
0001
1000
0001
0100
0010
0100
,
0010
1000
0001
2000
0002
0000
0000
0000
0000
0000
0000
0000
0000
0000
0000
0000
,
0000
0000
0000
0000
0000
0000
0000
3003
;

//---------------dance-single - ----------------
#NOTES:
     dance-single:
     :
     Medium:
     10:
     0.455641,0.566340,0.052003,0.104005,0.143007,368.000000,362.000000,6.000000,12.000000,0.000000,0.000000,0.455641,0.566340,0.052003,0.104005,0.143007,368.000000,362.000000,6.000000,12.000000,0.000000,0.000000:
0000
0000
0000
0000
,
0000
0010
0010
0010
,
0010
0010
0010
0010
,
0010
0100
0100
0100
,
0100
0100
0100
0100
,
0100
0001
0001
1000
,
1000
0001
0001
1000
,
1000
0010
0010
0100
,
0100
0010
0010
0010
,
2002
0000
3003
0000
0100
0000
0010
0010
,
0010
0000
1000
0000
0100
0000
0001
0001
,
0001
0000
0001
0000
0100
0000
1000
1000
,
1000
0000
0010
0000
0100
0000
0001
1000
,
0001
0000
0100
0000
0010
0000
1000
0001
,
1000
0010
1000
0100
,
0001
0010
1000
0100
,
0010
0001
0100
1001
,
0110
0000
1000
0100
1000
0000
0001
0100
,
0001
0000
1000
0010
1000
0000
0001
0010
,
0001
0000
1000
0100
0100
0000
0001
0100
,
0100
0000
0001
0010
0010
0000
1000
0010
,
0010
0000
1000
0100
1000
0100
1000
0100
,
1000
0100
0010
0001
0010
0001
0010
0001
,
0010
0001
0100
0000
0010
0000
0100
0000
,
0010
0000
1000
0001
1000
0001
1000
0001
,
1000
0000
0000
0000
0010
0000
0000
0010
0000
0000
0010
0000
1000
0000
0000
1000
,
0000
0000
1000
0000
0100
0000
0000
0100
0000
0000
0100
0000
0001
0000
0000
0001
,
0000
0000
0001
0000
0010
0000
0000
0010
0000
0000
0010
0000
0001
0000
0000
0001
,
0000
0000
0001
0000
0100
0000
0000
0100
0000
0000
0100
0000
1000
0000
0000
1000
,
0000
0000
1000
0000
0010
0000
0000
0010
0000
0000
0100
0000
0100
0000
0000
0100
,
0000
0000
0001
0000
0001
0000
0000
0001
0000
0000
1000
0000
1000
0000
0000
1000
,
0000
0000
0010
0000
0010
0000
0000
0010
0000
0000
0100
0000
0100
0000
0000
0100
,
0000
0000
0001
0000
0001
0000
0000
0001
0000
0000
1000
0000
1000
0000
0000
1000
,
0000
0000
1000
0000
0001
0000
0000
0001
0000
0000
0001
0000
0100
0000
0000
0100
,
0000
0000
0100
0000
0001
0000
0000
0001
0000
0000
0001
0000
1000
0000
0000
1000
,
0000
0000
1000
0000
0010
0000
0000
0010
0000
0000
0010
0000
1000
0000
0000
1000
,
0000
0000
1000
0000
0001
0000
0000
0001
0000
0000
0001
0000
0100
0000
0000
0100
,
0000
0000
0100
0000
0010
0000
0000
0100
0000
0000
0010
0000
0010
0000
0000
0100
,
0000
0000
0010
0000
0010
0000
0000
0100
0000
0000
0010
0000
0010
0000
0000
0100
,
0000
0000
0001
0000
0001
0000
0000
1000
0000
0000
0001
0000
0001
0000
0000
1000
,
0000
0000
0001
0000
1000
0000
0000
1000
0000
0000
1000
0000
0010
0000
0000
0010
,
0000
0100
2002
0000
0000
0000
0000
0000
,
0000
0000
0000
0000
,
3003
0110
0000
0000
,
0000
1000
0000
0001
,
0000
0100
0000
0000
,
0000
0000
0000
0000
0000
0000
0000
0000
0000
0000
0000
0000
0010
0000
0000
0010
,
0000
0020
0200
0000
0000
0000
0000
0000
,
0030
0000
0002
0000
0000
0300
2000
0000
,
0003
0020
0000
0000
,
3030
0000
0100
0000
0001
0000
1000
0100
,
0010
0001
1000
0000
0010
0000
0001
0000
,
0100
1000
0100
0001
,
0010
1000
0100
0010
,
0001
1000
0100
0010
,
0001
0001
0100
0000
1000
0000
0100
0000
,
1000
0001
0100
0001
,
0100
0000
0010
0010
0010
0010
0010
0010
,
0010
0010
0020
0000
0000
0000
0130
0000
,
0001
0000
1000
0100
1000
0000
0001
0000
,
0100
0000
0001
0100
0001
0000
1000
0000
,
0100
1000
0010
0001
,
1000
0100
0001
0000
0010
0000
1000
0000
,
0001
0100
1000
0010
1000
0000
0001
0000
,
0001
0000
0001
0010
0001
0000
1000
0000
,
1000
0000
0001
0100
0001
0100
0001
0000
,
1000
0000
1000
0010
1000
0010
1000
0000
,
0100
0000
0010
0100
0010
0000
1000
0100
,
1000
0000
0100
0010
0100
0000
0001
0010
,
0001
0000
1000
0010
1000
0010
1000
0010
,
1000
0000
0001
0100
0001
0100
0001
0100
,
0001
0010
1000
0100
,
0001
0010
1000
0000
0100
0000
0001
0000
,
0010
0000
0100
0100
0100
0100
0010
0010
,
0010
0010
1000
1000
1000
1000
0001
0001
,
0001
2002
0000
0000
,
0000
0000
0000
0000
0000
0000
0000
3003
;

//---------------dance-double - ----------------
#NOTES:
     dance-double:
     :
     Hard:
     14:
     0.646317,0.898750,0.208010,0.138673,0.472356,522.000000,498.000000,24.000000,16.000000,0.000000,0.000000,0.646317,0.898750,0.208010,0.138673,0.472356,522.000000,498.000000,24.000000,16.000000,0.000000,0.000000:
00000000
00000000
00000000
00000000
,
00000000
00100000
00100000
00100000
,
00100000
00100000
00100000
00100000
,
00100000
01000000
01000000
01000000
,
01000000
01000000
01000000
01000000
,
01000000
10010000
00100000
10010000
,
00100000
10010000
01000000
10010000
,
01000000
00110000
00001000
00110000
,
00001000
00011000
00000100
00011000
,
00000100
00000000
00000010
00001000
00000100
00000000
00000010
00000001
,
00000100
00000010
00000100
00000000
00001000
00000000
00010000
00100000
,
01000000
00000000
10000000
01000000
01000000
00000000
00100000
00010000
,
00010000
00000000
00001000
00000100
00000100
00000000
00000010
00000001
,
00000001
00000000
00000001
00000010
00000100
00000000
00000100
00001000
,
00010000
00000000
00010000
00001000
00010000
00000000
00010000
00100000
,
01000000
00000000
10000000
01000000
10000000
00000000
00010000
01000000
,
00010000
00000000
00010000
00001000
00010000
00000000
00001000
00000100
,
00001000
00000000
00000000
00000000
00000010
00000000
00000100
00000000
00000010
00000100
00000000
00000100
00000001
00000000
00000001
00000000
,
00000000
00000001
00000000
00000001
00001000
00000000
00001000
00000000
00000000
00001000
00000000
00001000
00000010
00000000
00000100
00000000
,
00001000
00000000
00000000
00000000
00010000
00000000
00010000
00000000
00000000
00100000
00000000
00100000
01000000
00000000
01000000
00000000
,
00000000
10000000
00000000
10000000
01000000
00000000
01000000
00000000
00000000
01000000
00000000
01000000
00100000
00000000
00010000
00000000
,
00001000
00000000
00000000
00000000
00000100
00000000
00000010
00000000
00000010
00001000
00000000
00001000
00000100
00000000
00000000
00000000
,
00000100
00000000
00000000
00000000
00010000
00000000
00001000
00000000
00010000
00001000
00000000
00001000
00100000
00000000
00000000
00000000
,
00010000
00000000
00000000
00000000
10000000
00000000
01000000
00000000
00100000
00001000
00000000
00001000
00010000
00000000
00010000
00000000
,
00010000
00000100
00000000
00000100
00001000
00000000
00001000
00000000
00000010
00000100
00000010
00000100
00000010
00000000
00000000
00001000
,
00000001
00001000
00000001
00001000
00000001
00000000
00000000
00001001
00000000
00000000
00001000
00000000
00001000
00000000
00000000
00000100
,
00000000
00000000
00001000
00000000
00010000
00000000
00000000
00110000
00000000
00000000
00010000
00000000
00010000
00000000
00000000
01000000
,
00000000
00000000
00100000
00000000
10000000
00000000
00000000
10100000
00000000
00000000
10000000
00000000
10000000
00000000
00000000
00100000
,
00000000
00000000
00010000
00000000
00001000
00000000
00000000
00011000
00000000
00000000
00010000
00000000
00001000
00000000
00000000
00010000
,
00000000
00000000
00000100
00000000
00000010
00000000
00000000
00000110
00000000
00000000
00000010
00000000
00000010
00000000
00000000
00000001
,
00000000
00000000
00000100
00000000
00000100
00000000
00000000
00001010
00000000
00000000
00000010
00000000
00000010
00000000
00000000
00000100
,
00000000
00000000
00001000
00000000
00010000
00000000
00000000
00011000
00000000
00000000
00001000
00000000
00001000
00000000
00000000
00010000
,
00000000
00000000
00100000
00000000
01000000
00000000
00000000
01100000
00000000
00000000
10000000
00000000
10000000
00000000
00000000
01000000
,
00000000
00000000
00100000
00000000
00010000
00000000
00010000
00001000
00000000
00001000
00010000
00000000
00010000
00000000
00010000
00000100
,
00000000
00000100
00010000
00000000
00010000
00000000
00010000
00001000
00000000
00001000
00010000
00000000
00010000
00000000
00000000
00001000
,
00000000
00000000
00100000
00000000
00010000
00000000
00100000
00010000
00000000
00100000
00010000
00000000
01000000
00000000
01000000
00100000
,
00000000
01000000
00100000
00000000
10000000
00000000
10000000
01000000
00000000
10000000
01000000
00000000
01000000
00000000
01000000
00010000
,
00000000
01000000
00010000
00000000
00001000
00000000
00100000
00001000
00000000
00010000
00001000
00000000
00010000
00000000
00010000
00000100
,
00000000
00000000
00001000
00000000
00000100
00000000
00000100
00000010
00000000
00000010
00000100
00000000
00000001
00000000
00000001
00000100
,
00000000
00000100
00000010
00000000
00000010
00000000
00001000
00000100
00001000
00000000
00000100
00000000
00010000
00000000
00001000
00010000
,
00001000
00000000
00100000
00000000
00010000
00000000
01000000
00010000
01000000
00000000
10000000
00000000
01000000
00100000
00000000
00010000
,
00000000
00100000
01000000
00100000
01000000
00000000
00100000
00000000
00010000
00000000
00001000
00000000
00000100
00000000
00000010
00000000
,
00000001
00000010
00000100
00010000
00100000
01000000
10000000
00010000
,
00001000
01000000
00020000
00000000
00000000
00000000
00000000
00000000
,
00000000
00000200
00030000
00020000
,
00000300
00000200
00000000
00000000
,
00030300
00000000
00000000
00000000
00000000
00000000
00000000
00000000
00000000
00000000
00000000
00000000
00000101
00000000
00000000
00000101
,
00000000
00000100
00000220
00000000
00000000
00000000
00000000
00000000
,
00000330
00002020
00003030
00022000
,
00033000
00001000
00202000
00000000
00000000
00000000
00000000
00000000
,
00303000
00000000
00000000
00000000
00010000
00000000
00000000
00100000
00000000
00000000
01000000
00000000
10000000
00000000
01000000
00000000
,
00010000
00100000
00001000
00000000
00001000
00000000
00001000
00000000
,
00001000
00010000
00010000
00000100
,
00000100
00000010
00000010
00000010
,
00000010
00000000
00000100
00000000
00000100
00000000
00000100
00001000
,
00010000
00100000
01000000
00000000
01000000
00000000
01000000
00000000
,
01000000
00100000
00010000
00000000
00010000
00000000
00010000
00000000
,
00001000
00000100
00000010
00000010
00000100
00000100
00001000
00001000
,
00010000
00000000
00010000
00000000
00022000
00000000
00000000
00000000
00000000
00000000
00000000
00033000
00000000
00000000
00000000
00000000
,
00010000
00000000
00000000
00000000
00010000
00000000
00001000
00000000
00000100
00001000
00000000
00000100
00001000
00000000
00000100
00001000
,
00000000
00000100
00001000
00000000
00000100
00000000
00001000
00000000
00000100
00000000
00010000
00000000
00001000
00000000
00100000
00000000
,
00010000
00000000
00100000
00000000
00010000
00000000
01000000
00000000
00010000
01000000
00000000
00010000
01000000
00000000
00010000
01000000
,
00000000
00010000
01000000
00000000
00100000
00000000
10000000
00000000
01000000
00000000
00100000
00000000
00010000
00000000
00001000
00000000
,
00000100
00000000
00000010
00000000
00000100
00000000
00000001
00000000
00000100
00000001
00000000
00000100
00000001
00000000
00000100
00000001
,
00000000
00000100
00000001
00000000
00000010
00000000
00000100
00000000
00001000
00000000
00010000
00000000
00100000
00000000
01000000
00000000
,
00100000
00000000
01000000
00000000
00010000
00000000
10000000
00000000
00010000
10000000
00000000
00010000
10000000
00000000
00010000
10000000
,
00000000
00010000
10000000
00000000
01000000
00000000
00100000
00000000
00010000
00000000
00001000
00000000
00000100
00000000
00000010
00000000
,
00010000
00000000
00000100
00000000
00010000
00000000
00001000
00000000
00010000
00001000
00000000
00010000
00001000
00000000
00010000
00001000
,
00000000
00010000
00001000
00000000
00100000
00000000
00010000
00000000
01000000
00010000
00000000
01000000
00100000
00000000
01000000
00000000
,
10000000
00000000
01000000
00000000
00100000
00000000
00010000
00000000
00001000
00010000
00000000
00001000
00010000
00000000
00000100
00010000
,
00000000
00000100
00001000
00000000
00000100
00000000
00001000
00000000
00000010
00001000
00000000
00000010
00001000
00000000
00000001
00000000
,
00000100
00000010
00001000
00001000
00001000
00001000
00010000
00010000
,
00010000
00010000
01000000
01000000
01000000
01000000
10000000
10000000
,
10000000
00000000
10000000
00000000
00100000
10000000
00100000
00000000
00100000
00010000
00100000
00000000
00001000
00010000
00001000
00000000
,
00010000
00000100
00010000
00000000
00000010
00001000
00000010
00001000
00000010
00001000
00000010
00000000
00000100
00000010
00000100
00000000
,
00000100
00000010
00000100
00000000
00002002
00000000
00000000
00000000
00000000
00000000
00000000
00000000
00000000
00000000
00000000
00000000
,
00000000
00000000
00000000
00000000
00000000
00000000
00000000
00000000
00000000
00000000
00000000
00000000
00000000
00003003
00000000
00000000
;

//---------------dance-double - ----------------
#NOTES:
     dance-double:
     :
     Medium:
     10:
     0.466785,0.599654,0.156008,0.104005,0.004334,377.000000,359.000000,18.000000,12.000000,0.000000,0.000000,0.466785,0.599654,0.156008,0.104005,0.004334,377.000000,359.000000,18.000000,12.000000,0.000000,0.000000:
00000000
00000000
00000000
00000000
,
00000000
00100000
00100000
00100000
,
00100000
00100000
00100000
00100000
,
00100000
01000000
01000000
01000000
,
01000000
01000000
01000000
01000000
,
01000000
10000000
10000000
00010000
,
00010000
00001000
00001000
00000001
,
00000001
00001000
00001000
00010000
,
00010000
10000000
10000000
20020000
,
30030000
00000000
10000000
01000000
10000000
00000000
00010000
00000000
,
00100000
00000000
00001000
00000100
00001000
00000000
00000010
00000000
,
00000001
00000000
00000100
00000100
00000000
00000010
00001000
00001000
,
00000000
00000100
00010000
00010000
00000000
00001000
00010000
00010000
,
00000000
00100000
00010000
01000000
00000000
00100000
10000000
01000000
,
00000000
00100000
00010000
00001000
00000000
00001000
00000100
00000010
,
00000000
00000010
00001000
00000100
00000000
00000100
00001000
00000010
,
00000000
00000010
00000001
00000000
00000100
00000000
00001000
00000000
,
00000100
00000000
00010000
00001000
00010000
00001000
00010000
00001000
,
00010000
00000000
00100000
00010000
00100000
00010000
10000000
01000000
,
10000000
00000000
00100000
10000000
00100000
10000000
00010000
00100000
,
00010000
00000000
00010000
00000100
00010000
00000100
00001000
00000100
,
00001000
00000000
00000010
00000000
00000100
00000000
00000001
00001000
,
00000001
00000000
00000100
00000000
00000010
00000000
00001000
00000001
,
00001000
00000101
00001100
00011000
,
00110000
00000000
00000000
00000000
10010000
00000000
00000000
00000000
01100000
00000000
00000000
00000000
10010000
00000000
00000000
10010000
,
00000000
01000000
00100000
00000000
10000000
01000000
10000000
00000000
,
00100000
01000000
00100000
00000000
01000000
00010000
01000000
00000000
,
00010000
00000000
00001000
00000000
00000010
00000100
00000010
00000000
,
00000001
00000100
00000001
00000000
00000100
00000010
00000100
00000000
,
00001000
00000000
00010000
00000000
00100000
00010000
00100000
00000000
,
10000000
00100000
10000000
00000000
00010000
00100000
00010000
00000000
,
00001000
00000000
00000100
00000000
00000001
00000100
00000001
00000000
,
00001000
00000100
00001000
00000000
00000010
00000100
00001000
00000000
,
00010000
00000000
00100000
00000000
00010000
01000000
00010000
01000000
,
00010000
00000000
10000000
00000000
00100000
01000000
00100000
01000000
,
00100000
00000000
10000000
00000000
00100000
00010000
00100000
00010000
,
00100000
00000000
00001000
00000000
00000100
00001000
00000100
00001000
,
00000100
00000001
00000010
00000100
,
00001000
00001000
00001000
00000000
00010000
00000000
00100000
00000000
,
01000000
01000000
01000000
00000000
10000000
00000000
00100000
00000000
,
00010000
00000000
00001000
00000100
00001000
00000100
00010000
00001000
,
00010000
00001000
00020000
00000000
00000000
00000000
00000000
00000000
,
00000000
00002000
00000000
00000000
,
00033000
00011000
00000000
00000000
,
00000000
00020000
00000000
02030000
,
00000000
00200000
00000000
00000000
,
00000000
00000000
03300000
10010000
,
00000000
10010000
00000000
00000000
,
00000000
00200000
00000000
00302000
,
00000000
00003020
00000000
00000000
,
00000000
00000000
00000130
00000000
00000001
00000000
00001000
00000100
,
00001000
00000100
00001000
00000000
00001000
00000000
00000010
00000000
,
00000001
00000100
00000100
00001000
,
00010000
00100000
00100000
00010000
,
01000000
10000000
10000000
01000000
,
00010000
00001000
00001000
00001000
,
00001000
00010000
00010000
00010000
,
00010000
00000000
00001000
00010000
00001000
00010000
00001000
00010000
,
00001000
00010000
00001000
00000000
00000000
00000000
00010000
00000000
,
00011000
00100000
00100000
01000000
,
10000000
01000000
10000000
00000000
10000000
00000000
00010000
00000000
,
00010000
00001000
00001000
00001000
,
00000010
00000100
00000010
00000000
00000010
00000000
00000001
00000000
,
00000001
00000100
00001000
00000100
,
00001000
00001000
00001000
00000000
00010000
00000000
00100000
00000000
,
01000000
01000000
01000000
00000000
10000000
00000000
00100000
00000000
,
10000000
01010000
11000000
01010000
,
11000000
00000000
00100000
01000000
00100000
01000000
00100000
01000000
,
00100000
00000000
10000000
01000000
00100000
00000000
00100000
00010000
,
00001000
00000000
00001000
00000100
00001000
00000100
00001000
00000100
,
00001000
00000000
00000001
00000010
00000100
00000000
00000100
00001000
,
00001000
00000000
00010000
00001000
00010000
00001000
00010000
00001000
,
00001000
00001000
00010000
00000100
00010000
00000100
00010000
00010000
,
00010000
00010000
00001000
01000000
00001000
01000000
00001000
00001000
,
00001000
00001000
00010000
00010000
00010000
00010000
00001000
00001000
,
00001000
00001000
00022000
00000000
00000000
00000000
00000000
00000000
,
00000000
00000000
00000000
00000000
00000000
00000000
00000000
00033000
;

//---------------dance-double - ----------------
#NOTES:
     dance-double:
     :
     Easy:
     6:
     0.376399,0.599654,0.338016,0.173342,0.000000,304.000000,265.000000,39.000000,20.000000,0.000000,0.000000,0.376399,0.599654,0.338016,0.173342,0.000000,304.000000,265.000000,39.000000,20.000000,0.000000,0.000000:
00000000
00000000
00000000
00000000
,
00000000
00100000
00100000
00100000
,
00100000
00100000
00100000
00100000
,
00100000
01000000
01000000
01000000
,
01000000
01000000
01000000
01000000
,
01000000
10000000
10000000
00010000
,
00010000
10000000
10000000
00010000
,
00010000
00001000
00001000
00000001
,
00000001
00001000
00001000
00000002
,
00000003
00000010
00000010
00000100
,
00000100
00000010
00000100
00000010
,
00000100
00010000
00010000
00001000
,
00001000
00010000
00001000
00010000
,
00001000
01000000
01000000
00100000
,
00100000
01000000
00100000
01000000
,
00100000
00001000
00001000
00010000
,
00010000
00001000
00010000
00022000
,
00033000
00001000
00100000
00001000
,
00100000
00001000
00010000
00001000
,
00010000
00000010
00010000
00000010
,
00010000
00001000
00010000
00001000
,
00010000
00100000
01000000
10000000
,
10010000
01000000
00100000
00010000
,
00011000
00001000
00000100
00000010
,
00001001
00000010
00000100
00001000
,
00011000
00010000
00010000
00100000
,
00010000
10000000
10000000
10000000
,
01000000
00100000
00100000
00001000
,
00001000
00010000
00010000
00000010
,
00000010
00000100
00000100
00000100
,
00000001
00000010
00000010
00000010
,
00001000
00010000
00010000
10000000
,
10000000
01000000
01000000
00100000
,
00100000
11000000
01000000
01000000
,
01010000
00110000
00100000
00100000
,
00011000
00011000
00010000
00010000
,
00001100
00000100
00000100
00000100
,
00000110
00000001
00001001
00001000
,
00001000
00000010
00000110
00000100
,
00000100
00011000
00011000
00110000
,
00110000
00011000
00011000
00010010
,
00010010
00022000
00000000
00000000
,
00000000
00000000
00000000
00000000
,
00033000
00202000
00000000
00000000
,
00003000
00020000
00030000
02000000
,
03000000
20000000
00000000
00000000
,
00000000
00000000
30300000
01010000
,
00011000
00000200
00000000
00000000
,
00000000
00000020
00000030
00000002
,
00000003
00002000
00000000
00000000
,
00003300
00000200
00000300
00020000
,
00030000
00001000
00001000
00001000
,
00001000
01000000
01000000
10000000
,
10000000
00100000
00100000
00100000
,
00100000
00100000
00100000
00001000
,
00000100
00000010
00000010
00000010
,
00000010
00000001
00000001
00000100
,
00000100
00001000
00010000
00001000
,
00010000
00022000
00000000
00000000
,
00033000
00001000
00010000
00001000
,
00001000
00100000
00010000
01000000
,
10000000
00100000
00010000
00100000
,
00100000
00001000
00000100
00000001
,
00000010
00000100
00000100
00001000
,
00000100
00001000
00010000
00100000
,
01000000
10000000
10000000
00100000
,
10000000
00010000
00001000
00000100
,
00000010
00001001
00000110
00001001
,
00000010
00000100
00001000
00100000
,
00010000
10010000
01100000
10010000
,
01000000
00100000
00001000
00010000
,
00000100
00000010
00000010
00000010
,
00001001
00000100
00000100
00000100
,
00011000
00100000
00100000
00100000
,
00011000
00000010
00011000
01000000
,
00011000
00022000
00000000
00000000
,
00000000
00000000
00000000
00000000
00000000
00000000
00000000
00033000
;

//---------------dance-single - ----------------
#NOTES:
     dance-single:
     :
     Easy:
     6:
     0.393733,0.599654,0.459356,0.182009,0.000000,318.000000,265.000000,53.000000,21.000000,0.000000,0.000000,0.393733,0.599654,0.459356,0.182009,0.000000,318.000000,265.000000,53.000000,21.000000,0.000000,0.000000:
0000
0000
0000
0000
,
0000
0010
0010
0010
,
0010
0010
0010
0010
,
0010
0100
0100
0100
,
0100
0100
0100
0100
,
0100
1000
1000
0001
,
0001
1000
1000
0001
,
0001
1000
1000
0001
,
0001
1000
1000
2002
,
3003
0010
0010
0100
,
0100
0010
0100
0010
,
0100
0001
0001
1000
,
1000
0001
1000
0001
,
1000
0100
0100
0010
,
0010
0100
0010
0100
,
0010
1000
1000
0001
,
0001
1000
0001
0002
,
0003
1000
0010
1000
,
0010
0001
0010
0001
,
0010
1000
0010
0001
,
0010
1000
0010
0001
,
0010
1000
0100
1000
,
0100
0001
0100
0001
,
0100
1000
0100
0001
,
0100
1000
0100
0001
,
0100
0001
0001
1001
,
0001
1000
1000
1001
,
1000
0010
0010
0110
,
0100
0010
0010
1001
,
0100
0001
0001
0100
,
1001
1000
1000
0100
,
1001
0001
0001
1000
,
1000
0100
0100
0010
,
0010
1100
0100
0100
,
0101
0011
0010
0010
,
0011
1001
1000
1000
,
1100
0100
0100
0100
,
0110
0001
1001
1000
,
1000
0010
0110
0100
,
0100
1001
1001
0011
,
0011
1001
1001
1010
,
1010
2002
0000
0000
,
0000
0000
0000
0000
,
3003
0020
0000
0000
,
0000
0002
0003
0200
,
0300
2000
0000
0000
,
0000
0000
3030
0110
,
1001
0220
0000
0000
,
0030
2000
3000
0002
,
0003
0020
0000
0000
,
0330
0020
0030
2002
,
3003
0010
0010
0010
,
0010
0100
0100
1000
,
1000
0001
0001
0001
,
0001
0001
0001
0110
,
1001
0100
0100
0100
,
0100
0001
0001
0010
,
0010
1000
0001
1000
,
0001
2002
0000
0000
,
3003
1000
0100
0010
,
0001
0010
0001
0100
,
1000
0001
0010
0100
,
1000
0010
1000
0100
,
0001
0010
0010
1000
,
1001
0010
0010
0001
,
1001
0100
0100
0010
,
1001
0010
0010
0100
,
1001
0110
0110
1001
,
1001
0010
0100
0010
,
0100
1001
1001
0110
,
0110
1000
1000
0001
,
0001
0010
0010
0010
,
1001
0100
0100
0100
,
1001
0010
1001
0010
,
1001
0110
0110
1001
,
1001
2002
0000
0000
,
0000
0000
0000
0000
0000
0000
0000
3003
;

//---------------dance-single - ----------------
#NOTES:
     dance-single:
     :
     Beginner:
     3:
     0.188200,0.326099,0.069337,0.026001,0.000000,152.000000,144.000000,8.000000,3.000000,0.000000,0.000000,0.188200,0.326099,0.069337,0.026001,0.000000,152.000000,144.000000,8.000000,3.000000,0.000000,0.000000:
// measure 0
0000
0000
0000
0000
,  // measure 1
0000
0000
0000
0000
,  // measure 2
0000
0000
0000
0000
,  // measure 3
0000
0000
0000
0000
,  // measure 4
0000
0000
0000
0000
,  // measure 5
0000
1000
0000
0001
,  // measure 6
0000
1000
0000
0001
,  // measure 7
0000
1000
0000
0001
,  // measure 8
0000
1000
0000
0001
,  // measure 9
0000
0010
0000
0100
,  // measure 10
0000
0010
0000
0010
,  // measure 11
0000
0001
0000
1000
,  // measure 12
0000
0001
0000
0001
,  // measure 13
0000
0100
0000
0010
,  // measure 14
0000
0100
0000
0100
,  // measure 15
0000
1000
0000
0001
,  // measure 16
0000
1000
0000
0001
,  // measure 17
0000
1000
0000
1000
,  // measure 18
0000
0001
0000
0001
,  // measure 19
0000
1000
0000
0001
,  // measure 20
0000
1000
0000
0001
,  // measure 21
0000
0100
0000
0100
,  // measure 22
0000
0010
0000
0010
,  // measure 23
0000
0100
0000
0010
,  // measure 24
0000
0100
0000
0010
,  // measure 25
0000
0001
0001
0001
,  // measure 26
0000
1000
1000
1000
,  // measure 27
0000
0010
0010
0010
,  // measure 28
0000
0100
0100
0100
,  // measure 29
0000
0001
0001
0001
,  // measure 30
0000
1000
1000
1000
,  // measure 31
0000
0010
0010
0010
,  // measure 32
0000
0100
0100
0100
,  // measure 33
0000
0100
0000
0100
,  // measure 34
0000
0010
0000
0010
,  // measure 35
0000
1000
0000
1000
,  // measure 36
0000
0001
0000
0001
,  // measure 37
0000
1001
0000
0000
,  // measure 38
0000
1001
0000
0000
,  // measure 39
0000
1001
0000
1001
,  // measure 40
0000
1001
0000
1001
,  // measure 41
0000
2002
0000
0000
,  // measure 42
0000
3003
0000
0000
,  // measure 43
0000
0010
0000
0000
,  // measure 44
0000
0001
0000
0100
,  // measure 45
0000
1000
0000
0000
,  // measure 46
0000
0000
0000
0100
,  // measure 47
0100
0100
0000
0000
,  // measure 48
0000
1000
0000
0001
,  // measure 49
0000
0010
0000
0000
,  // measure 50
0000
0100
0000
1001
,  // measure 51
0000
0010
0000
0010
,  // measure 52
0000
0100
0000
0100
,  // measure 53
0000
0001
0000
0001
,  // measure 54
0000
1000
0000
1000
,  // measure 55
1000
1000
0000
0100
,  // measure 56
0000
0010
0000
0001
,  // measure 57
0000
0010
0010
0010
,  // measure 58
0010
0020
0000
0030
,  // measure 59
0000
1000
0000
0100
,  // measure 60
0000
0010
0000
0001
,  // measure 61
0000
1000
0000
0100
,  // measure 62
0000
0010
0000
0001
,  // measure 63
0000
0010
0000
0100
,  // measure 64
0000
1000
0000
0001
,  // measure 65
0000
0010
0000
0100
,  // measure 66
0000
1000
0000
0001
,  // measure 67
0000
0010
0010
0000
,  // measure 68
0000
0100
0100
0000
,  // measure 69
0000
1000
0000
0001
,  // measure 70
0000
1000
0000
0001
,  // measure 71
0000
0010
0010
0000
,  // measure 72
0100
0100
0000
1000
,  // measure 73
0000
0001
0000
1000
,  // measure 74
0000
0001
0000
0010
,  // measure 75
0010
0010
0000
0000
;
