#VERSION:0.83;
#TITLE:Egret and Willow;
#SUBTITLE:;
#ARTIST:Dirty Androids;
#TITLETRANSLIT:;
#SUBTITLETRANSLIT:;
#ARTISTTRANSLIT:;
#GENRE:;
#ORIGIN:;
#CREDIT:;
#BANNER:Egret and Willow.png;
#BACKGROUND:Egret and Willow-bg.png;
#PREVIEWVID:;
#JACKET:Egret and Willow-jacket.png;
#CDIMAGE:;
#DISCIMAGE:;
#LYRICSPATH:;
#CDTITLE:;
#MUSIC:Egret and Willow.ogg;
#OFFSET:-3.780001;
#SAMPLESTART:81.544830;
#SAMPLELENGTH:12.551018;
#SELECTABLE:YES;
#DISPLAYBPM:98.000000:196.000000;
#BPMS:0.000=98.000,
26.000=49.000,
26.500=196.000,
92.500=298.000,
95.000=288.000,
96.500=140.000,
98.000=120.000,
100.000=98.000,
160.000=49.000,
161.000=98.000,
162.000=196.000;
#STOPS:243.750=0.306;
#DELAYS:;
#WARPS:;
#TIMESIGNATURES:0.000=4=4;
#TICKCOUNTS:0.000=4;
#COMBOS:0.000=1;
#SPEEDS:0.000=1.000=0.000=0;
#SCROLLS:0.000=1.000;
#FAKES:;
#LABELS:0.000=Song Start;
#BGCHANGES:-8.000=Egret and Willow.avi=1.000=0=0=0=StretchNoLoop====,
99999=-nosongbg-=1.000=0=0=0 // don't automatically add -songbackground-
;
#KEYSOUNDS:;
#ATTACKS:
;

//---------------dance-single - ----------------
#NOTEDATA:;
#CHARTNAME:;
#STEPSTYPE:dance-single;
#DESCRIPTION:;
#CHARTSTYLE:;
#DIFFICULTY:Hard;
#METER:13;
#RADARVALUES:0.551509,0.812675,0.258384,0.303981,0.224186,508.000000,474.000000,34.000000,40.000000,0.000000,0.000000,0.000000,0.000000,0.000000,0.551509,0.812675,0.258384,0.303981,0.224186,508.000000,474.000000,34.000000,40.000000,0.000000,0.000000,0.000000,0.000000,0.000000;
#CREDIT:;
#DISPLAYBPM:98.000000:196.000000;
#NOTES:
0000
0000
0000
0000
,
0000
0000
0000
0000
,
0000
0000
0000
0000
,
0010
0000
0000
1000
0100
0000
0001
0000
1000
0000
0100
0000
0001
0000
0000
0000
,
0010
0000
0000
0001
0100
0000
1000
0000
0001
0000
0100
0000
1000
0000
0000
0000
,
0100
0000
0000
0001
1000
0000
0010
0000
0100
0000
0010
0000
1000
0000
0000
0000
,
0010
0000
0000
1000
0001
0000
0100
0000
0020
0000
1000
0000
0130
0000
1000
0000
,
0000
0001
0010
0001
1000
0100
1000
0001
,
1000
0000
0001
1000
0001
1000
0001
0000
0100
0000
0010
0000
0000
0000
1001
0000
,
0000
0001
0100
0001
1000
0010
1000
0001
,
0100
0001
1000
0000
0010
0001
0000
1001
,
0000
0010
1000
0010
0100
0001
0100
0010
,
1000
0000
0010
0100
0010
0100
0010
0000
0100
0000
0010
0000
1000
0000
0100
0000
,
0000
0002
0000
0103
2000
0000
3100
0002
,
0000
0103
2000
0000
3100
0010
0000
1001
,
0000
0001
0100
0010
0100
0001
0100
0010
,
0000
0000
1000
0001
1000
0001
1000
0000
0010
0000
0100
0000
0000
0000
1001
0000
,
0000
0010
1000
0010
0100
0010
1000
0010
,
0000
0001
1000
0010
0100
0010
0000
1001
,
0000
0000
1000
0000
0100
1000
0100
0000
1000
0000
0001
0000
0100
0000
0001
0000
,
0100
0000
0010
1000
0100
0000
0001
1000
,
0100
0010
0000
0001
0100
0000
0010
0000
,
2000
0000
0000
0001
0000
0100
0000
3010
,
0000
0002
0000
0000
0000
0000
0000
0000
,
0000
0000
0000
0000
0000
0000
0000
0000
0000
0000
0000
0000
0000
0000
0000
0000
0003
0000
0200
0000
0000
0000
0000
0000
0300
2000
0000
0000
0000
0000
0000
0000
,
3010
0000
0000
1000
0001
0000
0100
0000
0000
0000
1000
0000
1001
0000
0000
0000
,
0010
0000
0000
0001
1000
0000
0100
0000
1000
0000
0001
0000
0100
0000
0010
0000
,
0100
0000
0000
0001
0100
0000
0010
0000
1000
0100
1000
0001
1000
0100
1000
0010
,
0100
0000
0000
0001
0100
0000
0010
0000
1000
0001
0100
0000
0001
1000
0100
0000
,
1000
0000
0000
0010
0100
0000
0001
0000
1000
0010
0100
0000
0001
0000
0100
0000
,
0001
0000
0000
0100
0010
0000
1000
0000
0001
1000
0001
0000
0100
0010
1000
0000
,
0001
0000
0000
0000
0000
0000
0010
0000
0000
0000
0000
0100
0000
0000
0000
0000
0000
0000
0000
0000
0000
0000
0000
0000
1001
0000
0000
0000
0000
0000
0000
0000
0000
0000
0000
0000
0000
0000
0000
0000
1000
0000
0000
0000
0000
0000
0000
0000
1100
0000
0000
0000
0000
0000
0000
0000
0001
0000
0000
0000
0000
0000
0000
0000
,
0101
0000
0001
1000
0001
1000
0001
1000
0100
1000
0010
1000
0010
0000
0100
0000
,
0110
0000
0001
1000
0100
0000
1001
0000
0001
0010
0100
0000
1001
0000
0100
0000
,
0010
0000
1000
0100
0001
0000
0010
0000
1000
0100
1000
0000
0001
0000
0101
0000
,
1001
0000
0010
1000
0100
0000
0010
0000
0001
0100
0001
0000
1000
0000
1100
0000
,
0101
0000
0001
0100
1000
0000
0010
0000
0100
0010
1000
0000
0100
0000
0001
0000
,
1001
0000
0010
1000
0100
0000
0010
0000
0100
0001
0010
0000
1000
0000
0010
0000
,
1000
0000
0100
0001
1000
0000
0100
0000
1000
0010
0100
0000
0010
0000
0001
1000
,
0001
0000
0000
0000
0000
0000
0000
0000
0000
0000
0000
0000
0001
0000
0000
0000
0000
0000
0010
0000
0000
0100
0000
0000
1000
0000
0000
0000
0000
0000
0100
0000
0000
0010
0000
0000
0001
0000
0000
0000
1000
0000
0000
0000
0010
0000
0000
0000
,
0200
0000
0000
0300
1000
0100
0002
0000
,
1003
0010
1000
0001
0010
0001
1000
0001
,
1000
0001
1000
0001
1000
0000
0010
0000
0100
0000
0000
0000
1001
0000
0000
0000
,
1000
0010
1000
0001
0100
0001
1000
0010
,
1000
0001
0000
0100
1000
0000
1001
0000
,
0100
0001
0100
0010
1000
0010
0100
0001
,
0100
0010
0100
0010
0100
0000
0010
0000
0100
0000
0001
0000
0010
0000
0000
0000
,
2000
0000
3010
0002
0000
0013
2000
0000
,
3010
0002
0000
0013
0100
0000
1001
0000
,
1000
0010
0100
0010
1000
0010
0100
0000
,
0001
1000
0001
1000
0001
0000
0100
0000
0010
0000
0000
0000
1001
0000
0000
0000
,
0100
0001
0100
0010
0100
0001
0100
0000
,
1000
0001
0100
0010
0100
0000
1001
0000
,
0001
0000
0010
0001
0010
0000
0001
0000
1000
0000
0010
0000
1000
0000
0010
0000
,
0000
0100
0001
0010
0000
1000
0001
0010
,
0100
0000
1000
0010
0000
0100
0000
0002
,
0000
1000
0010
0103
,
1200
0000
0301
2000
0000
3010
0100
0001
,
1000
0010
0000
0100
1001
0000
1100
0000
,
0002
0000
0103
2000
0000
3100
0020
0000
,
1030
0100
0001
0100
1000
0000
1001
0000
,
1002
0000
0203
0000
2300
0000
0000
3010
,
0020
0000
0130
0010
1000
0001
0200
0000
,
0310
2000
0000
3001
0200
0000
0310
2000
,
0000
3001
0100
0010
1000
0001
0100
0000
,
1200
0000
0302
0000
0203
0300
1200
0000
,
0300
0201
0000
0300
0120
0000
2030
0000
,
3001
0200
0000
0310
2000
0000
0000
0100
,
3100
0101
1100
0010
,
1000
0001
0100
0010
1000
0001
0000
0010
,
1000
0010
0100
0010
1000
0001
0100
0000
,
0010
1000
0000
0001
0000
2002
0000
0000
,
0000
0000
0000
0000
,
0000
0000
0000
3003
;

//---------------dance-solo - ----------------
#NOTEDATA:;
#CHARTNAME:;
#STEPSTYPE:dance-solo;
#DESCRIPTION:;
#CHARTSTYLE:;
#DIFFICULTY:Challenge;
#METER:1;
#RADARVALUES:0.006514,0.182389,0.007600,0.000000,0.000000,6.000000,1.000000,1.000000,0.000000,0.000000,1.000000,0.000000,0.000000,0.000000,0.006514,0.182389,0.007600,0.000000,0.000000,6.000000,1.000000,1.000000,0.000000,0.000000,1.000000,0.000000,0.000000,0.000000;
#CREDIT:;
#DISPLAYBPM:98.000000:196.000000;
#NOTES:
000000
000000
000000
000000
,
000000
000000
000000
000000
,
000000
000000
000000
000000
,
000000
000000
000000
000000
,
000000
000000
000000
000000
,
000000
000000
000000
000000
,
000000
000000
000000
000000
,
000000
000000
000000
000000
,
000000
000000
000000
000000
,
000000
000000
000000
000000
,
000000
000000
000000
000000
,
000000
000000
000000
000000
,
000000
000000
000000
000000
,
000000
000000
000000
000000
,
000000
000000
000000
000000
,
000000
000000
000000
000000
,
000000
000000
000000
000000
,
000000
000000
000000
000000
,
000000
000000
000000
000000
,
000000
000000
000000
000000
,
000000
000000
000000
000000
,
000000
000000
000000
000000
,
000000
000000
000000
000000
,
000000
000000
000000
000000
,
000000
000000
000000
000000
,
000000
000000
000000
000000
,
000000
000000
000000
000000
,
000000
000000
000000
000000
,
000000
000000
000000
000000
,
000000
000000
000000
000000
,
000000
000000
000000
000000
,
000000
000000
000000
000000
,
000000
000000
000000
000000
,
000000
000000
000000
000000
,
000000
000000
000000
000000
,
000000
000000
000000
000000
,
000000
000000
000000
000000
,
000000
000000
000000
000000
,
000000
000000
000000
000000
,
000000
000000
000000
000000
,
000000
000000
000000
000000
,
000000
000000
000000
000000
,
000000
000000
000000
000000
,
000000
000000
000000
000000
,
000000
000000
000000
000000
,
000000
000000
000000
000000
,
000000
000000
000000
000000
,
000000
000000
000000
000000
,
000000
000000
000000
000000
,
000000
000000
000000
000000
,
000000
000000
000000
000000
,
000000
000000
000000
000000
,
000000
000000
000000
000000
,
000000
000000
000000
000000
,
000000
000000
000000
000000
,
000000
000000
000000
000000
,
000000
000000
000000
000000
,
000000
000000
000000
000000
,
000000
000000
000000
000000
,
000000
000000
000000
000000
,
000000
000000
000000
000000
,
000000
000000
000000
000000
,
000000
000000
000000
000000
,
000000
000000
000000
000000
,
000000
000000
000000
000000
,
000000
000000
000000
000000
,
000000
000000
000000
000000
,
000000
000000
000000
000000
,
000000
000000
000000
000000
,
000000
000000
000000
000000
,
000000
000000
000000
000000
,
000000
000000
000000
000000
,
000000
000000
000000
000000
,
000000
000000
000000
000000
,
000000
000000
000000
000000
,
000000
000000
000000
000000
,
000000
000000
000000
000000
,
000000
000000
000000
000000
,
000000
000000
000000
000000
,
000000
000000
000000
000000
,
111111
000000
000000
000000
;

//---------------dance-double - ----------------
#NOTEDATA:;
#CHARTNAME:;
#STEPSTYPE:dance-double;
#DESCRIPTION:;
#CHARTSTYLE:;
#DIFFICULTY:Hard;
#METER:13;
#RADARVALUES:0.506998,0.588489,0.250785,0.357178,0.132992,467.000000,434.000000,33.000000,47.000000,0.000000,0.000000,0.000000,0.000000,0.000000,0.506998,0.588489,0.250785,0.357178,0.132992,467.000000,434.000000,33.000000,47.000000,0.000000,0.000000,0.000000,0.000000,0.000000;
#CREDIT:;
#DISPLAYBPM:98.000000:196.000000;
#NOTES:
00000000
00000000
00000000
00000000
,
00000000
00000000
00000000
00000000
,
00000000
00000000
00000000
00000000
,
00100000
10000000
01000000
00000000
00100000
00010000
00001000
00000000
,
00000100
00000010
00000001
00000000
00000010
00001000
00000100
00000000
,
00000100
00010000
00001000
00000000
00010000
00100000
01000000
00000000
,
10000000
00100000
01000000
00000000
20000000
00000000
00000000
30000000
,
00000000
00010000
00100000
00010000
10000000
01000000
10000000
00010000
,
10000000
00000000
00010000
10000000
00010000
10000000
00010000
00000000
01000000
00000000
00100000
00000000
00000000
00000000
00110000
00000000
,
00000000
00100000
00001000
00010000
00001000
00010000
00000010
00000100
,
00000010
00001000
00000001
00000000
00000100
00001000
00000000
00001001
,
00000000
00000100
00000001
00000100
00000010
00001000
00000010
00000100
,
00000001
00000000
00000100
00000010
00000100
00000010
00000100
00000000
00000010
00000000
00000100
00000000
00000001
00000000
00000010
00000000
,
00000000
00000002
00000000
00000013
00000200
00000000
00001300
00020000
,
00000000
00130000
02000000
00000000
13000000
01000000
00000000
10010000
,
00000000
00010000
01000000
00100000
01000000
00010000
01000000
00100000
,
00000000
00000000
10000000
00010000
10000000
00010000
10000000
00000000
00100000
00000000
01000000
00000000
00000000
00000000
10010000
00000000
,
00000000
10000000
00100000
01000000
00010000
00100000
00001000
00010000
,
00000010
00000100
00000001
00000100
00000010
00000100
00000000
00001001
,
00000000
00001100
00000000
00000100
00010000
00000000
00010000
00001000
,
00000000
00001000
01000000
00000000
00100000
10000000
01000000
00100000
,
00010000
01000000
00000000
00001000
00010000
00000000
00000100
00000000
,
00002000
00000000
00000000
00000010
00000000
00003100
00000000
00020000
,
00000000
00002000
00000000
00000000
00000000
00000000
00000000
00000000
,
00000000
00000000
00000000
00000000
00000000
00000000
00000000
00000000
00003000
00000000
00000000
00000000
00000000
00000000
00000000
00000000
00030000
00000000
02000000
00000000
00000000
00000000
00000000
00000000
03000000
20000000
00000000
00000000
00000000
00000000
00000000
00000000
,
30100000
00000000
00000000
10000000
00010000
00000000
01000000
00000000
00000000
00000000
10000000
00000000
01010000
00000000
00000000
00000000
,
00100000
00000000
00000000
01000000
00001000
00000000
00100000
00000000
00001000
00000000
00010000
00000000
00000100
00000000
00001000
00000000
,
00000010
00000000
00000000
00001000
00000010
00000000
00000100
00000000
00000001
00000010
00000001
00001000
00000001
00000010
00000001
00000100
,
00000010
00000000
00000000
00001000
00000010
00000000
00000100
00000000
00001000
00000000
00000100
00000000
00010000
00000000
00001000
00000000
,
01000000
00000000
00000000
00100000
01000000
00000000
00010000
00000000
10000000
00100000
01000000
00000000
00010000
00000000
01000000
00000000
,
00010000
00000000
00000000
01000000
00001000
00000000
00010000
00000000
00000100
00001000
00000100
00000000
00001000
00000000
00000010
00000000
,
00000001
00000000
00000000
00000000
00000000
00000000
00000010
00000000
00000000
00000000
00000000
00000100
00000000
00000000
00000000
00000000
00000000
00000000
00000000
00000000
00000000
00000000
00000000
00000000
00001001
00000000
00000000
00000000
00000000
00000000
00000000
00000000
00000000
00000000
00000000
00000000
00000000
00000000
00000000
00000000
00000100
00000000
00000000
00000000
00000000
00000000
00000000
00000000
00010000
00000000
00000000
00000000
00000000
00000000
00000000
00000000
00001000
00000000
00000000
00000000
00000000
00000000
00000000
00000000
,
00100000
01000000
00010000
00100000
01000000
10000000
00100000
01000000
,
01100000
00000000
00000000
10000000
00100000
00000000
01000000
00000000
00001000
00000000
00010000
00000000
00000100
00000000
00001000
00000000
,
00000010
00000000
00000000
00000100
00000001
00000000
00001000
00000000
00000100
00000000
00010000
00000000
00001000
00000000
01000000
00000000
,
00100000
00000000
00000000
10000000
01000000
00000000
00100000
00000000
00001000
00000000
00010000
00000000
00000100
00000000
00001000
00000000
,
00000010
00000000
00000000
00000001
00000100
00000000
00000010
00000000
00001000
00000000
00000100
00010000
00001000
00000000
00010000
00000000
,
00001000
00000000
00000000
00100000
00010000
00000000
01000000
00000000
10100000
00000000
01000000
00000000
00010000
00000000
00100000
00000000
,
00011000
00000000
00000000
00010000
00000100
00000000
00001000
00000000
00000010
00000000
00000100
00000000
00000001
00001000
00000100
00001000
,
00000002
00000000
00002000
00000003
00000200
00003000
00020000
00000300
,
00002000
00000000
00000000
00033000
00001000
01000000
00020000
00000000
,
10030000
00100000
10000000
00010000
00100000
00010000
10000000
00010000
,
10000000
00010000
10000000
00010000
10000000
00000000
00100000
00000000
01000000
00000000
00000000
00000000
10010000
00000000
00000000
00000000
,
10000000
00100000
01000000
00010000
00100000
00001000
00010000
00000010
,
00000100
00000001
00000010
00000100
00001000
00000000
00001001
00000000
,
00000100
00010000
00001000
00010000
00001000
01000000
00010000
01000000
,
00100000
10000000
01000000
00100000
00010000
00000000
10010000
00000000
,
10000000
00100000
10000000
00100000
01000000
00100000
01000000
00010000
,
00100000
00010000
00100000
00001000
00010000
00000000
00001100
00000000
,
00000020
00000000
00001030
00000200
00000000
00010300
00002000
00000000
,
01003000
00000000
00100000
01000000
00100000
01000000
00100000
00000000
01000000
00000000
00000000
00000000
10010000
00000000
00000000
00000000
,
20000000
00000000
31000000
00200000
00000000
00310000
00002000
00000000
,
00003100
00000010
00000001
00000100
00001000
00000000
00001010
00000000
,
00000010
00000000
00001000
00000100
00000000
00010100
00000000
00011000
,
00000000
00001000
00100000
00010000
10000000
00100000
01000000
00010000
,
00100000
00000000
00001000
00010000
00000000
00001100
00000000
00000102
,
00000000
00001000
00002003
00003100
,
00002000
00000000
00013000
00200000
00000000
01300000
10000000
00010000
,
10000000
00100000
00000000
01000000
10010000
00000000
11000000
00000000
,
00020000
00000000
01030000
20000000
00000000
31000000
00200000
00000000
,
10300000
00000000
00100000
00000000
00001000
00010000
00000100
00000010
,
00001002
00000000
00000203
00000000
00002300
00000000
00000000
00013000
,
00020000
00000000
01030000
00100000
10000000
00010000
02000000
00000000
,
03100000
00020000
00000000
00031000
00000200
00000000
00000301
00000200
,
00000000
00010300
01000000
00000000
10010000
00000000
01000000
00000000
,
12000000
00000000
03020000
00000000
02030000
03000000
12000000
00000000
,
03000000
02010000
00000000
03000000
00011000
00000000
00001200
00000000
,
00000301
00000200
00000000
00001300
00000200
00000000
00000000
00010300
,
00001000
00011000
00110000
00100000
,
10000000
00010000
01000000
00100000
10000000
00010000
00000000
00100000
,
10000000
00100000
01000000
00010000
00100000
00001000
00010000
00000000
,
00000100
00010000
00000000
00000100
00000000
00022000
00000000
00000000
,
00000000
00000000
00000000
00000000
,
00000000
00000000
00000000
00033000
;

//---------------dance-double - ----------------
#NOTEDATA:;
#CHARTNAME:;
#STEPSTYPE:dance-double;
#DESCRIPTION:;
#CHARTSTYLE:;
#DIFFICULTY:Medium;
#METER:10;
#RADARVALUES:0.338722,0.420349,0.243185,0.083595,0.053197,312.000000,280.000000,32.000000,11.000000,0.000000,0.000000,0.000000,0.000000,0.000000,0.338722,0.420349,0.243185,0.083595,0.053197,312.000000,280.000000,32.000000,11.000000,0.000000,0.000000,0.000000,0.000000,0.000000;
#CREDIT:;
#DISPLAYBPM:98.000000:196.000000;
#NOTES:
00000000
00000000
00000000
00000000
,
00000000
00000000
00000000
00000000
,
00000000
00000000
00000000
00000000
,
01000000
00000000
00010000
00000000
10000000
01000000
10000000
00000000
,
00010000
00000000
00001000
00000000
00000100
00001000
00000100
00000000
,
00000001
00000000
00000100
00000000
00001000
00000100
00001000
00000000
,
00010000
00100000
01000000
00000000
,
00000000
10000000
00000000
00000000
00010000
00000000
00000000
00100000
,
00000000
01000000
00000000
00010000
00000000
00001000
00000000
00000100
,
00000000
00000001
00000000
00000000
00000100
00000000
00000000
00001000
,
00000000
00000100
00000000
00001000
00000000
00010000
00000000
00100000
,
00000000
10000000
00000000
00000000
01000000
00000000
00000000
00010000
,
00000000
10000000
00000000
00100000
00000000
01000000
00000000
00010000
,
00000000
00000100
00000000
00000000
00001000
00000000
00000000
00000010
,
00000000
00000000
00000001
00000000
00000000
00001001
00000000
00000110
,
00000000
00000001
00000000
00000000
00001000
00000000
00000000
00000100
,
00000000
00010000
00000000
00001000
00000000
00100000
00000000
00010000
,
00000000
01000000
00000000
00000000
10010000
00000000
00000000
00100000
,
00000000
01000000
00000000
00001000
00000000
00010000
00000000
00000010
,
00000000
00000100
00000000
00000001
00001000
00000000
00001000
00000000
,
00001000
00000001
00000000
00000100
00000000
00001000
00000000
00000100
,
00000000
00010000
00000000
00000000
00001000
00000000
00100000
00000000
,
00020000
00000000
00000000
01000000
00000000
01000000
00000000
01030000
,
00000000
20020000
00000000
00000000
00000000
00000000
00000000
00000000
,
00000000
00000000
30030000
00000000
,
00100000
00000000
00000000
10000000
01000000
00000000
00000000
00000000
00000000
00000000
00010000
00000000
01000000
00000000
00000000
00000000
,
00001000
00000000
00000000
00010000
00001000
00000000
00000000
00000000
00000000
00000000
00001000
00000000
00000010
00000000
00000000
00000000
,
00000100
00000000
00000000
00000001
00001000
00000000
00000000
00000000
00000000
00000000
00000100
00000000
00001000
00000000
00000000
00000000
,
00000100
00000000
00000000
00010000
00001000
00000000
00000000
00000000
00010000
00000000
00001000
00000000
00100000
00000000
00010000
00000000
,
01000000
00000000
00000000
00100000
10000000
00000000
00000000
00000000
00000000
00000000
01000000
00000000
00100000
00000000
00000000
00000000
,
01000000
00000000
00000000
00010000
00100000
00000000
00000000
00000000
00000000
00000000
00001000
00000000
00010000
00000000
00000100
00000000
,
00001000
00000000
00000000
00000010
00001000
00000000
00000000
00000000
00000000
00000000
00000001
00000000
00000100
00000000
00000010
00000000
,
00001000
00000000
00000000
00000100
00001000
00000000
00000000
00000000
00000100
00000000
00010000
00000000
00001000
00000000
01000000
00000000
,
00100000
00000000
00000000
00100000
00000000
00000000
10000000
00000000
00010000
00000000
00000000
00000000
01000000
00000000
00100000
00000000
,
00010000
00000000
00000000
00010000
00000000
00000000
00010000
00000000
00001000
00000000
00000000
00000000
00000100
00000000
00000001
00000000
,
00001000
00000000
00000000
00001000
00000000
00000000
00000010
00000000
00000100
00000000
00000000
00000000
00000010
00000000
00001000
00000000
,
00000100
00000000
00000000
00000100
00000000
00000000
00010000
00000000
00001000
00000000
00100000
00000000
00010000
00000000
01000000
00000000
,
00100000
00000000
00000000
00100000
00000000
00000000
10000000
00000000
00010000
00000000
00000000
00000000
10000000
00000000
01000000
00000000
,
00010000
00000000
00000000
00010000
00000000
00000000
00100000
00000000
00001000
00000000
00000000
00000000
00010000
00000000
00001000
00000000
,
00000200
00000302
00000023
00002030
,
00003200
00000000
00000300
00000000
,
00011000
00000000
00000000
00101000
00000000
00000000
01001000
00000000
,
00000000
01000000
00100000
01000000
,
10010000
00000000
00000000
01010000
00000000
00000000
00110000
00000000
,
00000000
00100000
00001000
00100000
,
00101000
00000000
00000000
00011000
00000000
00000000
00010100
00000000
,
00000000
00001000
00000010
00001000
,
00000001
00000000
00000100
00000001
00000000
00001000
00000001
00000000
,
00000100
00000001
00000000
00000000
00001000
00000000
00000100
00000000
,
00001100
00000000
00000000
00010100
00000000
00000000
00011000
00000000
,
00000000
00001000
01000000
00100000
,
10010000
00000000
00000000
11000000
00000000
00000000
01010000
00000000
,
00000000
00100000
00001000
00010000
,
00000100
00000000
00001000
00000010
00000000
00000100
00000000
00000001
,
00000000
00001000
00000001
00000000
00000100
00000000
00000010
00000000
,
00001000
00000000
00000100
00010000
00000000
00001000
00000000
00020000
,
00000000
00001000
00001000
00031000
,
00001000
00000000
00010000
00000100
00000000
00001000
00000000
00000010
,
00000000
00000100
00000001
00000000
00001000
00000000
00000100
00000000
,
00001000
00000000
00000100
00010000
00000000
00001000
00000000
00100000
,
00000000
00010000
01000000
10000000
,
11000000
00000000
01100000
00000000
00110000
00000000
00000000
01000000
,
00001000
00010000
00000100
00001000
,
00000010
00000100
00000000
00000001
00001000
00000000
00000010
00000100
,
00000000
00000001
00001000
00000000
00000100
00000000
00010000
00000000
,
00011000
00101000
01001000
01010000
,
00000000
01100000
00000000
00000000
10100000
00000000
01100000
00000000
,
00000000
01001000
00000000
00000000
00011000
00000000
00010000
00000000
,
00000010
00000100
00000001
00001000
,
00000100
00001000
00000000
00000010
00000000
00000100
00000000
00000000
,
00000001
00000010
00000100
00001000
,
00000000
00010000
00000000
00100000
00000000
20020000
00000000
00000000
,
00000000
00000000
00000000
00000000
,
00000000
00000000
00000000
30030000
;

//---------------dance-single - ----------------
#NOTEDATA:;
#CHARTNAME:;
#STEPSTYPE:dance-single;
#DESCRIPTION:;
#CHARTSTYLE:;
#DIFFICULTY:Medium;
#METER:10;
#RADARVALUES:0.338722,0.420349,0.243185,0.083595,0.053197,312.000000,280.000000,32.000000,11.000000,0.000000,0.000000,0.000000,0.000000,0.000000,0.338722,0.420349,0.243185,0.083595,0.053197,312.000000,280.000000,32.000000,11.000000,0.000000,0.000000,0.000000,0.000000,0.000000;
#CREDIT:;
#DISPLAYBPM:98.000000:196.000000;
#NOTES:
0000
0000
0000
0000
,
0000
0000
0000
0000
,
0000
0000
0000
0000
,
0100
0000
0001
0000
1000
0100
1000
0000
,
0001
0000
1000
0000
0100
1000
0100
0000
,
0001
0000
0100
0000
1000
0100
1000
0000
,
0001
0010
0100
0000
,
0000
1000
0000
0000
0001
0000
0000
0010
,
0000
0100
0000
0001
0000
1000
0000
0100
,
0000
0001
0000
0000
0100
0000
0000
1000
,
0000
0100
0000
1000
0000
0001
0000
0010
,
0000
1000
0000
0000
0100
0000
0000
0001
,
0000
1000
0000
0010
0000
0100
0000
0001
,
0000
0100
0000
0000
1000
0000
0000
0010
,
0000
0000
0001
0000
0000
1001
0000
0110
,
0000
0001
0000
0000
1000
0000
0000
0100
,
0000
0001
0000
1000
0000
0010
0000
0001
,
0000
0100
0000
0000
1001
0000
0000
0010
,
0000
0100
0000
1000
0000
0001
0000
0010
,
0000
0100
0000
0001
1000
0000
1000
0000
,
1000
0001
0000
0100
0000
1000
0000
0100
,
0000
0001
0000
0000
1000
0000
0010
0000
,
0002
0000
0000
0100
0000
0100
0000
0103
,
0000
2002
0000
0000
0000
0000
0000
0000
,
0000
0000
3003
0000
,
0010
0000
0000
1000
0100
0000
0000
0000
0000
0000
0001
0000
0100
0000
0000
0000
,
1000
0000
0000
0001
1000
0000
0000
0000
0000
0000
1000
0000
0010
0000
0000
0000
,
0100
0000
0000
0001
1000
0000
0000
0000
0000
0000
0100
0000
1000
0000
0000
0000
,
0100
0000
0000
0001
0000
0000
0000
0000
0001
0000
1000
0000
0010
0000
0001
0000
,
0100
0000
0000
0010
1000
0000
0000
0000
0000
0000
0100
0000
0010
0000
0000
0000
,
0100
0000
0000
0001
0010
0000
0000
0000
0000
0000
1000
0000
0001
0000
0100
0000
,
1000
0000
0000
0010
1000
0000
0000
0000
0000
0000
0001
0000
0100
0000
0010
0000
,
1000
0000
0000
0100
1000
0000
0000
0000
0100
0000
0001
0000
1000
0000
0100
0000
,
0010
0000
0000
0010
0000
0000
1000
0000
0001
0000
0000
0000
0100
0000
0010
0000
,
0001
0000
0000
0001
0000
0000
0001
0000
0010
0000
0000
0000
0100
0000
1000
0000
,
0010
0000
0000
0010
0000
0000
0100
0000
0001
0000
0000
0000
1000
0000
0010
0000
,
0100
0000
0000
0100
0000
0000
0001
0000
1000
0000
0010
0000
0001
0000
0100
0000
,
0010
0000
0000
0010
0000
0000
1000
0000
0001
0000
0000
0000
1000
0000
0100
0000
,
0001
0000
0000
0001
0000
0000
0010
0000
0100
0000
0000
0000
1000
0000
0001
0000
,
0020
2030
3200
0302
,
0023
0000
0030
0000
,
0011
0000
0000
0101
0000
0000
1001
0000
,
0000
0100
0010
0100
,
1001
0000
0000
0101
0000
0000
0011
0000
,
0000
0010
1000
0100
,
1100
0000
0000
1010
0000
0000
1001
0000
,
0000
0001
0100
0001
,
1000
0000
0010
0100
0000
0010
0100
0000
,
0010
0100
0000
0001
1000
0000
0100
0000
,
1100
0000
0000
0101
0000
0000
1001
0000
,
0000
1000
0100
0010
,
1001
0000
0000
1100
0000
0000
0101
0000
,
0000
0010
0001
0010
,
0100
0000
1000
0010
0000
0100
0000
0001
,
0000
1000
0010
0000
0100
0000
0001
0000
,
0010
0000
1000
0001
0000
1000
0000
0002
,
0000
0100
0100
0103
,
0100
0000
0001
0010
0000
0100
0000
1000
,
0000
0100
0010
0000
0001
0000
0100
0000
,
1000
0000
0100
0001
0000
0010
0000
1000
,
0000
0001
0100
1000
,
1100
0000
0110
0000
0011
0000
0000
0100
,
0100
0001
0010
0100
,
1000
0100
0000
1000
0010
0000
1000
0001
,
0000
1000
0010
0000
1000
0000
0100
0000
,
1001
1010
1100
0011
,
0000
0101
0000
0000
1001
0000
0110
0000
,
0000
1001
0000
0000
0110
0000
0001
0000
,
0010
0100
1000
0001
,
0100
0010
0000
1000
0000
0001
0000
0000
,
1000
0100
0010
0001
,
0000
0001
0000
0010
0000
2002
0000
0000
,
0000
0000
0000
0000
,
0000
0000
0000
3003
;

//---------------dance-single - ----------------
#NOTEDATA:;
#CHARTNAME:;
#STEPSTYPE:dance-single;
#DESCRIPTION:;
#CHARTSTYLE:;
#DIFFICULTY:Beginner;
#METER:3;
#RADARVALUES:0.161762,0.196163,0.022799,0.015199,0.000000,149.000000,146.000000,3.000000,2.000000,0.000000,0.000000,0.000000,0.000000,0.000000,0.161762,0.196163,0.022799,0.015199,0.000000,149.000000,146.000000,3.000000,2.000000,0.000000,0.000000,0.000000,0.000000,0.000000;
#CREDIT:;
#DISPLAYBPM:98.000000:196.000000;
#NOTES:
// measure 0
0000
0000
0000
0000
,  // measure 1
0000
0000
0000
0000
,  // measure 2
0000
0000
0000
0000
,  // measure 3
0000
0010
0000
0010
,  // measure 4
0000
0100
0000
0100
,  // measure 5
0000
1000
0000
0001
,  // measure 6
0000
1000
0000
0000
,  // measure 7
0000
0010
0000
0000
0000
0000
0000
0000
,  // measure 8
0000
0000
0000
0100
0000
0000
0000
1000
,  // measure 9
0000
1000
0000
0000
0000
0000
0000
0000
,  // measure 10
0000
0000
0000
0100
0000
0000
0000
0001
,  // measure 11
0000
0001
0000
0000
0000
1000
0000
0000
,  // measure 12
0000
0000
0000
0010
0000
0000
0000
0010
,  // measure 13
0000
0010
0000
0000
0000
1000
0000
0000
,  // measure 14
0000
0000
0000
0001
0000
0001
0000
0000
,  // measure 15
0000
0100
0000
0000
0000
0010
0000
0000
,  // measure 16
0000
0000
0000
1000
0000
0000
0000
1000
,  // measure 17
0000
1000
0000
0000
0000
0001
0000
0000
,  // measure 18
0000
0000
0000
0100
0000
0000
0000
0100
,  // measure 19
0000
0100
0000
0000
0000
0100
0000
0000
,  // measure 20
0000
0010
0000
0000
0000
0010
0000
0000
,  // measure 21
0000
1000
0000
0000
0000
0000
0000
0000
,  // measure 22
2000
0000
0000
3000
,  // measure 23
0000
1000
0000
0000
0000
0000
0000
0000
,  // measure 24
0000
0000
0000
0000
,  // measure 25
0001
0001
0000
0100
,  // measure 26
0100
0100
0000
1000
,  // measure 27
1000
1000
0000
0100
,  // measure 28
0100
0100
0000
0010
,  // measure 29
0010
0010
0000
0001
,  // measure 30
0001
0001
0000
0100
,  // measure 31
0100
0100
0100
0000
,  // measure 32
0001
0000
0100
0100
,  // measure 33
0100
0000
0001
0001
,  // measure 34
0001
0000
1000
1000
,  // measure 35
1000
0000
0010
0010
,  // measure 36
0010
0000
0001
0001
,  // measure 37
0001
0000
0100
0100
,  // measure 38
0100
0000
0001
0000
,  // measure 39
1000
1000
1000
1000
,  // measure 40
1000
0000
0000
0000
,  // measure 41
0001
0000
0001
0000
,  // measure 42
0000
0100
0000
1000
,  // measure 43
1000
0000
1000
0000
,  // measure 44
0000
0100
0000
0001
,  // measure 45
0001
0000
0001
0000
,  // measure 46
0000
0010
0000
0100
,  // measure 47
0100
0000
0100
0000
,  // measure 48
0000
1000
0000
0001
,  // measure 49
0001
0000
0100
0000
,  // measure 50
1000
1000
0000
1000
,  // measure 51
1000
0000
0100
0000
,  // measure 52
0001
0001
0000
0001
,  // measure 53
0001
0000
0010
0000
,  // measure 54
0100
0000
1000
0000
,  // measure 55
0001
0000
0100
0000
,  // measure 56
0010
0000
1000
0000
,  // measure 57
0001
0000
0001
0000
,  // measure 58
1001
0000
0000
0000
,  // measure 59
1000
0000
1000
0000
,  // measure 60
1001
0000
0000
0000
,  // measure 61
0010
0010
0010
0000
,  // measure 62
0000
1001
0000
0100
,  // measure 63
0000
0100
0000
0100
,  // measure 64
0000
0100
0000
0000
,  // measure 65
0001
0001
0001
0001
,  // measure 66
0000
1000
0000
0010
,  // measure 67
0000
0000
0010
0000
,  // measure 68
1000
1000
1000
1000
,  // measure 69
0000
0001
0000
0100
,  // measure 70
0000
0010
0000
0100
,  // measure 71
0000
0000
0020
0000
,  // measure 72
0000
0000
0000
0000
,  // measure 73
0000
0000
0000
0030
;

//---------------dance-single - ----------------
#NOTEDATA:;
#CHARTNAME:;
#STEPSTYPE:dance-single;
#DESCRIPTION:;
#CHARTSTYLE:;
#DIFFICULTY:Easy;
#METER:6;
#RADARVALUES:0.237757,0.280233,0.197588,0.068396,0.000000,219.000000,193.000000,26.000000,9.000000,0.000000,0.000000,0.000000,0.000000,0.000000,0.237757,0.280233,0.197588,0.068396,0.000000,219.000000,193.000000,26.000000,9.000000,0.000000,0.000000,0.000000,0.000000,0.000000;
#CREDIT:;
#DISPLAYBPM:98.000000:196.000000;
#NOTES:
0000
0000
0000
0000
,
0000
0000
0000
0000
,
0000
0000
0000
0000
,
1000
0100
1000
0100
,
0001
0100
0001
0100
,
1000
0010
1000
0010
,
0001
0000
0000
0000
,
0000
1000
0000
0000
0100
0000
0000
0001
,
0000
0000
0000
0100
0000
0110
0000
0000
,
0000
0001
0000
0000
0100
0000
0000
1000
,
0000
0000
0000
0010
0000
0110
0000
0000
,
0000
0010
0000
0000
0001
0000
0000
0100
,
0000
0000
0000
1000
0000
1001
0000
0000
,
0000
0010
0000
0000
1000
0000
0000
0100
,
0000
0000
0000
0001
0000
1001
0000
0000
,
0000
0010
0000
0000
0100
0000
0000
1001
,
0000
0000
0000
0100
0000
0100
0000
0010
,
0000
0100
0000
0000
0010
0000
0000
1001
,
0000
0000
0000
0010
0000
0010
0000
0100
,
0000
0001
0000
0000
1000
0000
0001
0000
,
1000
0000
0000
0000
0000
0001
0000
0000
,
0000
1000
0000
0000
0100
0000
0000
0000
,
0002
0000
0000
0003
,
0000
2002
0000
0000
0000
0000
0000
0000
,
0000
0000
3003
0000
,
0010
1100
0000
0100
,
0010
0101
0000
0001
,
0100
1001
0000
1000
,
0100
1001
0000
0010
,
1000
0000
0001
0000
0000
0100
0010
0000
,
0001
0000
1000
0000
0000
0010
0100
0000
,
1000
0000
0100
0000
0000
0001
0010
0000
,
0001
0000
0100
0000
0000
1000
0010
0000
,
1000
0100
0001
0100
,
1000
0100
0001
0100
,
0001
0010
1000
0010
,
0001
0010
1000
0010
,
1000
0100
0010
0001
,
0001
0010
0100
1000
,
0010
0100
0010
0100
,
2002
3003
0000
0000
,
1000
0000
0000
0001
0000
0000
1001
0000
,
0000
0100
0110
0000
,
0001
0000
0000
1000
0000
0000
1001
0000
,
0000
0010
0110
0000
,
1000
0000
0000
0100
0000
0000
1100
0000
,
0000
0001
0010
0000
,
0010
0000
0000
0001
0000
0000
0011
0000
,
0000
1000
0100
0000
,
0010
0000
0000
0100
0000
0000
0001
0000
,
0000
1000
0000
0000
0010
0000
0100
0000
,
0010
0000
0000
1000
0000
0000
0001
0000
,
0000
0100
0000
0000
0010
0000
1000
0000
,
0010
0000
0000
0001
0000
0100
0000
1000
,
0000
0000
1000
0100
,
0001
0000
0000
0010
0000
0100
0000
1000
,
0000
0000
0001
0100
,
1001
0000
0000
0010
0000
0000
0100
0000
,
0000
0000
1001
0000
,
1001
0000
0000
0100
0000
0000
0010
0000
,
0000
0000
0100
0010
,
1001
0110
1001
0000
,
0000
0001
0100
1000
,
0000
0100
0000
0000
0001
0000
0000
0000
,
0010
0100
1000
0000
,
1000
0100
0010
0001
,
0000
0100
0000
0000
1000
0000
0001
0000
,
0000
0010
0000
0000
1000
0000
0000
0000
,
0001
1001
0000
2000
,
0000
3001
0000
0002
,
0000
1003
0000
0100
,
0000
0010
0000
0000
0000
2002
0000
0000
,
0000
0000
0000
0000
,
0000
0000
0000
3003
;

//---------------dance-double - ----------------
#NOTEDATA:;
#CHARTNAME:;
#STEPSTYPE:dance-double;
#DESCRIPTION:;
#CHARTSTYLE:;
#DIFFICULTY:Easy;
#METER:6;
#RADARVALUES:0.229072,0.308256,0.212787,0.030398,0.000000,211.000000,183.000000,28.000000,4.000000,0.000000,0.000000,0.000000,0.000000,0.000000,0.229072,0.308256,0.212787,0.030398,0.000000,211.000000,183.000000,28.000000,4.000000,0.000000,0.000000,0.000000,0.000000,0.000000;
#CREDIT:;
#DISPLAYBPM:98.000000:196.000000;
#NOTES:
00000000
00000000
00000000
00000000
,
00000000
00000000
00000000
00000000
,
00000000
00000000
00000000
00000000
,
00100000
00100000
00100000
00000000
,
00001000
00001000
00001000
00000000
,
00000100
00000100
00000100
00000000
,
00010000
00010000
00010000
00000000
,
00000000
00001000
00000000
00000000
00000000
00000010
00000000
00000000
,
00000000
00000001
00000000
00000100
00000000
00001000
00000000
00000000
,
00000000
00000001
00000000
00000000
00000000
00000100
00000000
00000000
,
00000000
00000010
00000000
00000100
00000000
00001000
00000000
00000000
,
00000000
00010000
00000000
00000000
00000000
01000000
00000000
00000000
,
00000000
00100000
00000000
01000000
00000000
10000000
00000000
00000000
,
00000000
10000000
00000000
00000000
00000000
00100000
00000000
00000000
,
00000000
01000000
00000000
00100000
00000000
00010000
00000000
00000000
,
00000000
00000100
00000000
00000000
00000000
00001000
00000000
00000000
,
00000000
00000010
00000000
00000100
00000000
00001001
00000000
00000000
,
00000000
00000100
00000000
00000000
00000000
00000010
00000000
00000000
,
00000000
00001000
00000000
00000100
00000000
00001001
00000000
00000000
,
00000000
00000100
00000000
00000000
00000000
00010000
00000000
00000000
,
00000000
00001000
00000000
00100000
00000000
01000000
00000000
00000000
,
00000000
10000000
00000000
00000000
00000000
00100000
00000000
00000000
,
00000000
00001000
00000000
00000100
00000000
00000010
00000000
00000000
,
00000000
00002002
00000000
00000000
00000000
00000000
00000000
00000000
,
00000000
00000000
00003003
00000000
,
00001000
00010000
00000000
01000000
,
00100000
10010000
00000000
00100000
,
00001000
00011000
00000000
00000100
,
00000010
00001001
00000000
00000100
,
00010000
00011000
00000000
00100000
,
01000000
10010000
00000000
01000000
,
00001000
00011000
00000000
00010000
,
00000100
00001000
00000010
00000001
,
00000100
00000010
00001000
00000000
,
00000100
00010000
00001000
00000000
,
00100000
00100000
10010000
00000000
,
01000000
01000000
10010000
00000000
,
00100000
00001000
00000100
00000000
,
00000010
00001000
01000000
00000000
,
10000000
00100000
00001000
00000010
,
00000100
00000000
00000000
00000000
,
00001000
00000000
00000000
00010000
00000000
00000000
01000000
00000000
,
00000000
10000000
10010000
00000000
,
10000000
00000000
00000000
00100000
00000000
00000000
00001000
00000000
,
00000000
00010000
00011000
00000000
,
00001000
00000000
00000000
00000100
00000000
00000000
00000001
00000000
,
00000000
00001000
00001001
00000000
,
00000010
00000000
00000000
00001000
00000000
00000000
00001100
00000000
,
00000000
00000100
00010000
00001000
,
01000000
00000000
00000000
00100000
00000000
00000000
00001000
00000000
,
00000000
00010000
00010100
00000000
,
00001000
00000000
00000000
00000010
00000000
00000000
00000001
00000000
,
00000000
00000010
00000110
00000000
,
00000001
00000000
00000000
00001000
00000000
00000100
00000000
00001000
,
00000000
00000000
00010100
00000000
,
00001000
00000000
00000000
00100000
00000000
00010000
00000000
00100000
,
00000000
00000000
10010000
00000000
,
10000000
00000000
00000000
01010000
00000000
00000000
10010000
00000000
,
00000000
00000000
01100000
00000000
,
00010000
00000000
00000000
00011000
00000000
00000000
00010100
00000000
,
00000000
00000000
00000110
00001001
,
00000010
00000100
00001100
00000000
,
00000100
00010000
00001000
01000000
,
00000000
00100000
00000000
00000000
10000000
00000000
00000000
00010000
,
00000000
10000000
01000000
00000000
,
00100000
00001000
00010000
00000100
,
00000000
00001000
00000000
00000000
00000001
00000000
00001000
00000000
,
00000000
00000100
00000000
00000000
00010000
00000000
00000000
00000000
,
00001000
01000000
10000000
00100000
,
00000000
00010000
00000000
00001000
,
00000000
00000100
00000000
00000010
,
00000000
00000001
00000000
00000100
00000000
00002002
00000000
00000000
,
00000000
00000000
00000000
00000000
,
00000000
00000000
00000000
00003003
;
