#TITLE:Don't Die;
#SUBTITLE:;
#ARTIST:Paul Bazooka;
#TITLETRANSLIT:;
#SUBTITLETRANSLIT:;
#ARTISTTRANSLIT:;
#GENRE:;
#CREDIT:;
#BANNER:Don't Die.png;
#BACKGROUND:Don't Die-bg.png;
#LYRICSPATH:;
#CDTITLE:;
#MUSIC:Don't Die.ogg;
#OFFSET:-0.049000;
#SAMPLESTART:76.848999;
#SAMPLELENGTH:16.457558;
#SELECTABLE:YES;
#BPMS:0.000000=175.000000
;
#STOPS:224.000000=0.171000,
224.500000=0.171000,
225.000000=0.343000,
256.000000=0.086000,
256.250000=0.086000,
256.500000=0.086000,
256.750000=0.086000,
287.000000=0.171000,
287.500000=0.171000
;
#BGCHANGES:0.000=Don't Die.avi=1.000=0=0=0=StretchNoLoop====,
99999=-nosongbg-=1.000=0=0=0 // don't automatically add -songbackground-
;
#KEYSOUNDS:;
#ATTACKS:;

//---------------dance-single - ----------------
#NOTES:
     dance-single:
     :
     Hard:
     13:
     0.668285,0.824182,0.320515,0.144995,0.156442,613.000000,571.000000,42.000000,19.000000,0.000000,0.000000,0.668285,0.824182,0.320515,0.144995,0.156442,613.000000,571.000000,42.000000,19.000000,0.000000,0.000000:
0000
0000
0000
0000
,
0000
0000
0000
0000
,
0000
0000
0000
0000
,
0000
0000
0000
0000
,
0000
0000
0000
0000
,
0110
0001
0100
1000
,
0100
0001
0010
1000
,
0100
0001
0010
0100
,
1000
0100
1000
0100
2000
0000
3000
0000
,
0010
0001
0010
0000
1000
0100
0000
0010
,
0001
0000
1000
0100
0001
0010
0000
0100
,
1000
0000
0100
1000
0000
0001
0010
0001
,
0000
0100
0010
0001
1000
0001
0100
0010
,
1000
1000
0000
0001
0001
0000
0100
0100
,
0000
0010
0100
0010
0100
0001
1000
0001
,
1000
0001
0001
1000
1000
0001
0001
1000
,
0001
0100
0010
2000
0002
0000
3003
0000
,
0110
0000
1001
0000
0001
0100
1000
0000
,
0010
0000
0100
0000
1000
0000
0000
0000
0100
0001
0100
0001
0100
0000
0001
0000
,
0100
0000
1010
0000
0100
0001
1000
0000
,
0100
0000
0000
0010
1000
0000
0000
0000
0001
0100
0001
0100
0001
0000
0000
0000
,
1000
0100
1000
0100
1000
0000
0101
0000
,
1000
0100
0010
0000
0001
0010
0100
0000
,
1000
0000
1000
0000
1000
0000
0001
0100
0001
0000
1000
0000
1000
0000
1000
0000
,
0010
0000
0100
0010
0000
0100
0010
0000
0100
0010
0000
0000
1001
0000
0000
0000
,
1000
0100
1000
0100
0001
0100
0001
0100
,
1000
0010
1000
0010
0001
0010
0001
0010
,
1000
0100
1000
0100
0010
0001
0010
0001
,
1000
0100
0001
0010
0100
0100
0100
0100
,
0100
0001
0100
0001
1000
0010
1000
0010
,
0100
0010
0100
0010
1000
0001
1000
0001
,
0100
0000
0010
0000
0000
1000
0001
0000
1000
0000
0000
0001
1000
0000
0001
0000
,
0100
0000
0010
0000
1000
0010
1000
0000
0100
0000
0001
0000
0100
0000
1000
0000
,
0010
0000
0100
0110
0000
0010
0110
0000
,
1000
1001
0000
0001
1001
0000
0110
0000
,
1001
0000
1000
1100
0000
0001
0101
0000
,
1000
1100
0000
0001
0101
0000
0110
0000
,
1000
0000
0100
0000
0001
0000
0100
0000
1000
0000
0100
0000
0001
0100
0000
0100
,
0001
0000
0010
0000
0001
0000
0010
0000
1000
0000
0010
0000
0001
1000
0001
1000
,
0001
0100
1000
0100
0010
0001
0010
0001
,
0100
0000
0010
0000
0100
0000
0010
0000
0100
0010
0100
0010
0100
0000
0000
0000
,
0200
0000
0000
0000
,
0000
0000
0000
0000
,
0000
0000
0000
0000
,
0000
0000
0300
0000
,
0001
0000
0100
0001
0000
1000
0100
0010
,
0001
0000
1000
0100
0000
0001
0100
0010
,
1000
1000
0001
1000
0100
1000
0010
1000
,
0100
0100
0100
0100
0020
0000
0000
0000
,
1030
0000
0100
0001
1000
0000
0100
0001
,
1000
0000
0100
0001
1000
0000
0010
1000
,
0001
0000
0010
1000
0001
0000
0010
1000
,
0001
0000
0010
1000
0001
0000
0010
1000
,
0200
0300
0020
0030
0200
0300
0020
0030
,
1000
1000
0001
0001
1000
1000
0001
0001
,
1000
0100
0010
0001
1000
0100
0010
0001
,
0100
0010
1000
0001
0010
0000
1000
0001
,
1000
0001
0100
0010
0100
0000
0001
1000
,
0001
0000
1000
0000
0010
0000
0100
0000
0010
0000
0100
0000
0010
0100
0010
0100
,
0010
0000
1000
0000
0001
0000
1000
0000
0010
0000
0100
0000
0001
1000
0001
1000
,
0001
0100
0010
1000
0001
0001
0100
1000
,
1000
0100
0001
0010
1000
0100
0010
0001
,
0001
0000
0010
0000
0100
0000
1000
0000
0001
0000
0100
0000
0010
1000
0010
1000
,
0010
0100
0010
0001
1000
0001
1000
0001
,
1000
0100
0010
0001
1000
0000
0000
0000
1001
0000
0000
0000
0100
0000
0010
0000
,
1000
0001
0100
0000
1001
0000
0010
0100
,
0001
1000
0000
0110
0000
0001
1000
0100
,
0010
0001
1000
0000
0110
0000
0001
0100
,
0001
0000
1100
0000
0101
0000
1000
0100
,
0010
0001
0101
0000
1100
0000
0001
0010
,
0100
1000
0010
0010
0010
0010
0100
0100
,
0100
0000
0100
0000
0001
0000
1000
0000
0010
0000
0100
0000
1001
0000
0220
0330
,
1001
0000
0000
0000
0100
0010
0100
0010
0100
0000
0001
0000
0100
0000
1000
0000
,
1001
0000
0000
0000
0010
0100
0010
0100
0010
0000
1000
0000
0100
0000
0001
0000
,
1001
0000
0000
0000
0100
0010
0100
0010
0100
0000
0001
0000
0100
0000
1000
0000
,
1001
1000
1001
0001
1001
1000
1001
0001
,
0101
0000
0110
0010
0010
1000
1000
1000
,
0100
0100
0100
0001
0001
0001
0010
0010
,
0010
0000
1000
0000
0010
0000
1000
0000
0010
1000
0010
0000
0010
0000
1000
0000
,
0001
0000
1000
0001
1000
0001
1000
0000
0010
0000
0100
0000
0010
0000
0100
0000
,
1001
0000
2200
3300
0001
0010
0100
1000
,
1001
0000
0202
0303
1000
0100
0010
0001
,
1001
0000
2200
3300
0001
0010
0100
1000
,
0001
0000
0010
0100
0010
0000
0100
0000
0001
0000
0001
1000
0001
0000
0100
0000
,
1000
0001
1000
0001
1000
0010
1000
0010
,
0100
0001
0100
0001
1000
0010
1000
0010
,
0100
1000
0001
0010
1000
0100
0010
0001
,
1000
0000
0001
0100
0001
0000
1000
0100
1000
0000
0001
0100
0001
0000
1000
0100
,
2000
0000
0000
0000
,
0002
0000
0000
0000
,
3003
0000
0000
0000
;

//---------------dance-single - ----------------
#NOTES:
     dance-single:
     :
     Medium:
     10:
     0.450248,0.618137,0.373934,0.160258,0.007631,413.000000,364.000000,49.000000,21.000000,0.000000,0.000000,0.450248,0.618137,0.373934,0.160258,0.007631,413.000000,364.000000,49.000000,21.000000,0.000000,0.000000:
0000
0000
0000
0000
,
0000
0000
0000
0000
,
0000
0000
0000
0000
,
0000
0000
0000
0000
,
0000
0000
0000
0000
,
0010
0000
0100
0010
,
1000
0001
1000
0001
1000
0000
0000
0000
,
0001
0100
1000
0100
,
0001
0001
0002
0003
,
1000
0000
0000
0000
0001
0000
0000
0100
,
0000
0000
1000
0000
0100
0000
0000
0001
,
0000
0000
0010
0000
0000
1000
0000
0000
,
0100
0010
0100
0010
,
1000
0001
0000
1000
0001
0000
1000
0001
,
0000
1000
0001
1000
0001
0000
1000
0001
,
0000
1000
0001
0000
1000
0001
0000
1000
,
0002
0003
0220
0330
,
1000
0100
0001
0100
,
1000
0000
0001
0100
0001
0100
0001
0000
,
1000
0010
0001
0010
,
1000
0000
0010
0000
0100
0001
0100
0000
,
0001
1000
0001
1000
0001
0000
0100
0000
,
0010
1000
0010
0000
0100
0001
0100
0000
,
0001
0100
0001
0000
1000
0100
1000
0000
,
0010
0000
0000
0100
0000
0000
0001
0000
0000
1000
0000
0000
0100
0000
0000
0000
,
0001
0100
1000
0100
,
0001
0010
1000
0010
,
1000
0100
0001
0100
,
1000
0000
0010
0000
0001
0100
0001
0100
,
0001
0000
0001
0000
0001
0001
0000
0001
,
1000
0000
1000
1000
0000
1000
0001
0000
,
0010
0000
0000
0000
0100
0000
0010
0100
,
0000
0010
0100
0000
0001
0000
1000
0000
,
1001
0000
0000
0100
0000
0010
0100
0000
,
0000
0001
0000
1000
0001
0000
0100
0000
,
0100
0000
0000
0001
0000
1000
0001
0000
,
0010
1000
0000
0100
1000
0000
0100
0000
,
0001
0001
0010
0010
,
1000
1000
0100
0100
,
0010
0100
0010
0000
1000
0001
1000
0000
,
0010
0100
1000
0001
,
0200
0000
0000
0000
,
0000
0000
0000
0000
,
0000
0000
0000
0000
,
0000
0000
0300
0000
,
0001
0001
0001
0001
,
1000
1000
1000
1000
,
0020
0030
0200
0300
,
0010
0010
0020
0030
,
1000
0100
1000
0100
,
0001
0100
0001
0100
,
1000
0100
1000
0100
,
0001
0100
0001
0100
,
1001
1001
1001
1001
,
0110
0110
0110
0110
,
1000
0001
1000
0001
1000
0001
1000
0001
,
2000
0000
3000
0000
0110
0000
0001
0100
,
0001
0100
1000
0100
,
0001
0000
0010
0000
1000
0100
2000
0000
,
3001
0100
0001
0000
0001
0100
0002
0000
,
1003
0100
1000
0000
0010
1000
0010
1000
,
0010
0100
1001
0110
,
1001
0000
0110
0000
0010
1000
0010
1000
,
0100
0000
0001
0000
0010
0001
0010
0001
,
0200
0000
0310
0000
1000
0000
0000
0001
,
0100
0001
0000
0000
1000
0000
0000
0010
,
0100
0010
0000
0100
0000
0000
0000
0001
,
1000
0001
1000
0000
0100
0000
0010
0000
,
0001
0000
0110
0000
0110
0000
1000
0100
,
0010
0001
0100
0000
0110
0000
0001
0010
,
0100
1000
1000
0000
0001
0000
1000
0000
,
0001
0000
1000
1000
1000
0000
0001
2000
,
3001
0000
0220
0000
0330
0000
1000
0100
,
0001
0000
0220
0000
0330
0000
1000
0100
,
0001
0220
0330
1001
,
0011
1100
0110
1001
,
0110
0000
1000
1000
0000
0001
0001
0000
,
0100
0100
0000
0010
0010
0000
0100
0000
,
1000
0000
0100
0000
0001
0100
1000
0100
,
0001
0100
1000
0000
1000
0100
0001
0000
,
1001
0000
0110
0000
1000
0100
0001
0000
,
1001
0000
0110
0000
0001
0010
1000
0000
,
1001
0000
0110
0000
1000
0010
0001
0000
,
0011
1100
0011
1100
,
0110
0110
0110
0110
,
1001
1001
1001
1001
,
0011
1100
0011
1100
,
0001
1000
0001
1000
0001
1000
0001
1000
,
0002
0000
0000
0000
,
2000
0000
0000
0000
,
3003
0000
0000
0000
;

//---------------dance-single - ----------------
#NOTES:
     dance-single:
     :
     Easy:
     7:
     0.369574,0.618137,0.496036,0.228939,0.007631,339.000000,274.000000,65.000000,30.000000,0.000000,0.000000,0.369574,0.618137,0.496036,0.228939,0.007631,339.000000,274.000000,65.000000,30.000000,0.000000,0.000000:
0000
0000
0000
0000
,
0000
0000
0000
0000
,
0000
0000
0000
0000
,
0000
0000
0000
0000
,
0000
0000
0000
0000
,
0010
0000
0010
0000
,
0100
0100
0100
0000
,
0001
1000
0001
1000
,
0010
0010
0020
0030
,
2000
0000
0000
0000
0000
0000
0000
3000
,
0002
0000
0000
0000
0000
0000
0000
0003
,
0200
0000
0000
0000
0000
0000
0000
0300
,
0020
0000
0000
0130
,
1000
0001
0000
1000
0001
0000
1000
0001
,
0000
1000
0001
1000
0001
0000
1000
0001
,
0000
1000
0001
0000
1000
0001
0000
1000
,
0001
0000
0220
0330
,
0001
1000
0001
1000
,
0010
0000
0100
0100
0100
0000
0100
0000
,
1000
0001
1000
0001
,
0100
0000
0010
0010
0010
0000
0010
0000
,
1000
0100
1000
0001
,
1000
0001
1000
0001
,
1000
0001
0000
0000
1000
0001
0000
0000
,
0100
0000
0000
0100
0000
0000
0100
0000
0000
0100
0000
0000
0100
0000
0000
0000
,
0010
1000
0100
0000
,
0010
0001
0100
0000
,
0010
1000
0001
0000
,
0010
0001
2000
0000
,
3001
0000
0000
0010
0000
0000
1000
0000
,
0000
0010
0000
0000
0001
0000
0100
0000
,
0001
0000
0000
1000
0000
0000
0001
0000
,
0000
1000
0000
0000
0010
0000
0010
0000
,
0100
0000
0000
0001
0000
0000
0100
0000
,
0000
1000
0000
0000
0010
0000
0110
0000
,
1001
0000
0000
0100
0000
0000
0001
0000
,
0000
0100
0000
0000
1000
0000
0010
0000
,
0001
0001
0001
0100
,
1000
1000
1000
0010
,
0001
0200
2300
3020
,
0031
0001
1000
1000
,
0200
0000
0000
0000
,
0000
0000
0000
0000
,
0000
0000
0000
0000
,
0000
0000
0300
0000
,
0001
0000
1000
0000
,
0010
0000
0100
0000
,
0001
0001
1000
1000
,
0010
0010
0200
0300
,
1001
0000
1001
0000
,
0110
0000
0110
0000
,
1001
0000
1001
0000
,
0110
0000
0110
0000
,
1000
0001
1000
0001
,
0100
0010
0100
0010
,
1000
0001
1000
0001
,
2000
3000
0010
0001
,
0100
0000
0010
1000
,
0100
0000
0001
2002
,
3003
1000
1000
2002
,
3003
0001
0010
0100
,
1000
1000
0100
0010
,
0001
0100
0010
2002
,
3003
0010
0110
0110
,
0110
0000
1001
0000
0000
0000
0000
0010
,
0010
0010
0000
0000
0000
0000
0000
0100
,
0100
0100
0000
0100
0000
0000
0000
0001
,
0001
0001
0000
0000
1000
0000
0000
0001
,
1000
0000
0001
0000
0001
0000
0001
1000
,
0001
1000
0001
0000
0001
0000
0001
1000
,
0001
1000
0001
0000
0001
0000
0001
0000
,
0010
2002
0000
3003
,
0100
2002
3003
0010
,
0100
0000
2002
0000
0000
3003
0010
0000
,
0100
2002
3003
0100
,
1001
1001
1001
1001
,
0010
0000
1001
0000
0000
0110
0000
0000
,
1001
0000
0000
0110
0000
0000
1001
0000
,
1100
1100
0101
0101
,
1100
0101
1100
0101
,
0110
1001
0010
0100
,
0110
1001
0010
0100
,
0110
1001
0100
0010
,
0110
0110
1001
1001
,
0101
0101
0101
0101
,
1100
1100
1100
1100
,
0101
0101
1100
1100
,
0011
0101
1001
0101
,
2000
0000
0000
0000
,
0002
0000
0000
0000
,
3003
0000
0000
0000
;

//---------------dance-single - ----------------
#NOTES:
     dance-single:
     :
     Beginner:
     4:
     0.184242,0.274727,0.045788,0.221308,0.000000,169.000000,163.000000,6.000000,29.000000,0.000000,0.000000,0.184242,0.274727,0.045788,0.221308,0.000000,169.000000,163.000000,6.000000,29.000000,0.000000,0.000000:
0000
0000
0000
0000
,
0000
0000
0000
0000
,
0000
0000
0000
0000
,
0000
0000
0000
0000
,
0000
0000
0000
0000
,
0010
0000
0001
0000
,
0100
0000
1000
0000
,
0010
0000
0001
0000
,
0200
0000
0300
0000
,
0010
0000
0010
0000
,
0010
0000
0010
0000
,
0100
0000
0100
0000
,
0100
0000
0100
0000
,
0020
0000
0000
0030
,
0000
0010
0000
0010
,
0000
0100
0000
0100
,
0100
0000
0200
0000
,
0300
0000
0001
0000
,
1000
0000
0001
0001
,
0001
0000
1000
0000
,
0001
0000
1000
1000
,
1000
1000
1000
0000
,
0001
0000
0100
0000
,
0010
0000
0010
0000
,
0010
0010
0010
0000
,
0100
0000
0100
0000
,
0001
0000
1000
0000
,
0010
0000
0010
0000
,
1000
0000
0002
0000
,
0003
0000
0100
0000
,
0100
0000
0100
0000
,
0010
0000
0000
0000
,
0000
0000
0100
0000
,
0200
0000
0300
0000
,
0020
0000
0030
0000
,
0200
0000
0300
0000
,
0020
0000
0030
0000
,
1000
0000
0001
0000
,
1000
0000
0001
0000
,
0100
0100
0100
0100
,
0200
0000
0300
0000
,
0200
0000
0000
0000
,
0000
0000
0000
0000
,
0000
0000
0000
0000
,
0000
0000
0300
0000
,
0100
0000
0100
0000
,
0100
0000
0100
0000
,
0010
0000
0010
0000
,
0010
0000
0010
0000
,
1000
0000
1000
0000
,
0001
0000
0001
0000
,
1000
0000
1000
0000
,
0001
0000
0001
0000
,
0100
0100
0100
0000
,
0100
0100
0100
0000
,
0100
0100
0100
0000
,
0200
0300
0000
0100
,
0100
0000
0000
0010
,
0010
0000
1000
2000
,
3000
0000
0001
0002
,
0003
0000
0100
0100
,
0100
0000
0010
0010
,
0010
0000
1000
2000
,
3000
0000
0001
0001
,
0001
0000
0100
0000
,
0010
0000
0100
0000
,
0010
0000
1000
0000
,
0001
0000
1000
0000
,
0001
0001
0000
0000
,
0100
0100
0000
0000
,
1000
1000
0000
0010
,
0000
0001
0001
0001
,
0000
2002
3003
0000
,
0000
2002
3003
0000
,
0000
2002
3003
0000
,
0001
0001
0001
0000
,
0000
0010
0000
0001
,
0000
0100
0000
1000
,
1000
1000
1000
1000
,
2000
0000
3000
0000
,
0000
2002
3003
0000
,
0000
2002
3003
0000
,
0000
2002
3003
0000
,
0001
0001
0001
0000
,
0100
0100
0100
0000
,
1000
1000
1000
0000
,
0010
0010
0010
0010
,
0020
0000
0030
0000
,
0200
0000
0000
0000
,
0000
0000
0000
0000
,
0300
0000
0000
0000
;

//---------------dance-double - ----------------
#NOTES:
     dance-double:
     :
     Easy:
     7:
     0.364123,0.618137,0.480773,0.206046,0.007631,334.000000,271.000000,63.000000,27.000000,0.000000,0.000000,0.364123,0.618137,0.480773,0.206046,0.007631,334.000000,271.000000,63.000000,27.000000,0.000000,0.000000:
00000000
00000000
00000000
00000000
,
00000000
00000000
00000000
00000000
,
00000000
00000000
00000000
00000000
,
00000000
00000000
00000000
00000000
,
00000000
00000000
00000000
00000000
,
00001000
00000000
00001000
00000000
,
00010000
00010000
00010000
00000000
,
00010000
00001000
00010000
00001000
,
00100000
00100000
00200000
00300000
,
20000000
00000000
00000000
00000000
00000000
00000000
00000000
30000000
,
00020000
00000000
00000000
00000000
00000000
00000000
00000000
00030000
,
00002000
00000000
00000000
00000000
,
00003002
00000000
00000000
00001003
,
00001000
00010000
00000000
00001000
00010000
00000000
00001000
00010000
,
00000000
00001000
00010000
00001000
00010000
00000000
00001000
00010000
,
00000000
00001000
00010000
00000000
00100000
01000000
00000000
10000000
,
00010000
00000000
02200000
03300000
,
00010000
10000000
00010000
10000000
,
00100000
00000000
01000000
01000000
01000000
00000000
00010000
00000000
,
00001000
00000100
00000010
00000100
,
00001000
00000000
00000010
00000010
00000010
00000000
00000001
00000000
,
00000100
00001000
00000100
00010000
,
00001000
00010000
00100000
00010000
,
10000000
00010000
00000000
00000000
10000000
00010000
00000000
00000000
,
01000000
00000000
00000000
01000000
00000000
00000000
01000000
00000000
00000000
01000000
00000000
00000000
01000000
00000000
00000000
00000000
,
00100000
00010000
00001000
00000000
,
00000010
00001000
00000100
00000000
,
00000001
00000100
00010000
00000000
,
00100000
01000000
20000000
00000000
,
30010000
00000000
00000000
00100000
00000000
00000000
10000000
00000000
,
00000000
00100000
00000000
00000000
00010000
00000000
00001000
00000000
,
00000010
00000000
00000000
00000001
00000000
00000000
00001000
00000000
,
00000000
00000001
00000000
00000000
00000100
00000000
00000100
00000000
,
00000010
00000000
00000000
00000100
00000000
00000000
00001000
00000000
,
00000000
00010000
00000000
00000000
00100000
00000000
01100000
00000000
,
10010000
00000000
00000000
01000000
00000000
00000000
00010000
00000000
,
00000000
00000100
00000000
00000000
00001000
00000000
00000010
00000000
,
00000001
00000001
00000100
00000100
,
00001000
00001000
00010000
00010000
,
01000000
10000000
00100000
00001000
,
00010000
00001000
00010000
00001000
,
00000200
00000000
00000000
00000000
,
00000000
00000000
00000000
00000000
,
00000000
00000000
00000000
00000000
,
00000000
00000000
00000300
00000000
,
00000001
00000000
00000010
00000000
,
00000100
00000000
00001000
00000000
,
00010000
00010000
00001000
00001000
,
00010000
00010000
00002000
00003000
,
00011000
00000000
00011000
00000000
,
01100000
00000000
01100000
00000000
,
00011000
00000000
00011000
00000000
,
00000110
00000000
00000110
00000000
,
00000010
00000010
00010000
00010000
,
00001000
00001000
00100000
00100000
,
10000000
01000000
00100000
00010000
,
00002000
00003000
00010000
00010000
,
00001000
00000000
00001000
00001000
,
00010000
00000000
10000000
20020000
,
30030000
00010000
00001000
00022000
,
00033000
00001000
00000100
00000010
,
00001000
00000001
00001000
00000010
,
00000100
00001000
00001000
00002002
,
00003003
00001000
00011000
00011000
,
00011000
00000000
10010000
00000000
00000000
00000000
00000000
00100000
,
00100000
00100000
00000000
00000000
00000000
00000000
00000000
01000000
,
01000000
01000000
00000000
01000000
00000000
00000000
00000000
00010000
,
00010000
00010000
00000000
00000000
00001000
00000000
00000000
00001000
,
00000001
00000000
00001000
00000000
00001000
00000000
00001000
00000001
,
00001000
00000001
00001000
00000000
00001000
00000000
00001000
00010000
,
00001000
00010000
00001000
00000000
00001000
00000000
00010000
00000000
,
00100000
20020000
00000000
30030000
,
01000000
00022000
00000000
00033000
,
00000100
00022000
00000000
00033000
,
00100000
00022000
00000000
00033000
,
00011000
00011000
00011000
00011000
,
00100000
00000000
10010000
00000000
00000000
01100000
00000000
00000000
,
10010000
00000000
00000000
01100000
00000000
00000000
10010000
00000000
,
11000000
11000000
01010000
01010000
,
00001100
00001100
00000101
00000101
,
00000110
00001001
00000100
00001000
,
00011000
00011000
00100000
01000000
,
01100000
10010000
01000000
00100000
,
00011000
00011000
00001000
00000100
,
00000101
00000101
00001100
00001100
,
01010000
01010000
11000000
11000000
,
01010000
01010000
00011000
00011000
,
00101000
01001000
00101000
00011000
,
00020000
00000000
00000000
00000000
,
00000020
00000000
00000000
00000000
,
00030030
00000000
00000000
00000000
;

//---------------dance-double - ----------------
#NOTES:
     dance-double:
     :
     Medium:
     10:
     0.440436,0.618137,0.335778,0.129732,0.007631,404.000000,360.000000,44.000000,17.000000,0.000000,0.000000,0.440436,0.618137,0.335778,0.129732,0.007631,404.000000,360.000000,44.000000,17.000000,0.000000,0.000000:
00000000
00000000
00000000
00000000
,
00000000
00000000
00000000
00000000
,
00000000
00000000
00000000
00000000
,
00000000
00000000
00000000
00000000
,
00000000
00000000
00000000
00000000
,
00010000
00000000
00001000
00010000
,
00001000
00010000
00001000
00010000
00001000
00000000
00000000
00000000
,
00001000
00000100
00000010
00000100
,
00010000
00010000
00020000
00030000
,
00001000
00000000
00000000
00000000
00010000
00000000
00000000
01000000
,
00000000
00000000
10000000
00000000
01000000
00000000
00000000
00010000
,
00000000
00000000
00000010
00000000
00000000
00001000
00000000
00000000
,
00000100
00000010
00000100
00000010
,
00000010
00010000
00000000
00000100
00010000
00000000
00001000
00010000
,
00000000
00001000
01000000
00000000
00010000
00000000
10000000
00010000
,
00000000
10000000
00010000
00000000
10000000
00010000
00000000
10000000
,
00020000
00030000
00022000
00033000
,
00001000
00000100
00000001
00000100
,
00001000
00000000
00010000
00001000
00010000
00001000
00010000
00000000
,
01000000
00010000
00100000
10000000
,
01000000
00000000
00001000
00010000
00001000
00010000
00001000
00000000
,
00000100
00001000
00000100
00001000
00000100
00000000
00000010
00000000
,
00000001
00000100
00000001
00000000
00000100
00000000
00010000
00000000
,
00001000
00010000
00001000
00000000
00010000
01000000
00010000
00000000
,
00100000
00000000
00000000
01000000
00000000
00000000
00010000
00000000
00000000
10000000
00000000
00000000
01000000
00000000
00000000
00000000
,
00010000
01000000
10000000
01000000
,
00010000
00000010
00000001
00000010
,
00001000
00000100
00000001
00000100
,
00001000
01000000
10000000
01000000
,
00100000
00010000
00001000
00000100
,
00000010
00001000
00010000
00100000
,
10000000
00000000
01000000
00000000
00010000
00000000
00001000
00010000
,
00000000
00001000
00010000
00000000
00000100
00000000
00000100
00000000
,
00000001
00000000
00000000
00000010
00000000
00000100
00001000
00000000
,
00010000
00100000
00000000
10000000
01000000
00000000
00100000
00000000
,
00010000
00000000
00001000
00000100
00000000
00000010
00000010
00000000
,
00000001
00000010
00000000
00000100
00000100
00000000
00001000
00000000
,
00010000
00000000
00100000
00000000
10000000
01000000
10000000
00000000
,
00100000
00000000
00010000
00000000
00001000
00000100
00001000
00000000
,
00000001
00000010
00000100
00000000
00001000
00001000
00010000
00000000
,
00100000
00010000
00000100
00010000
,
00000200
00000000
00000000
00000000
,
00000000
00000000
00000000
00000000
,
00000000
00000000
00000000
00000000
,
00000000
00000000
00000300
00000000
,
00000001
00000010
00000001
00000100
,
00001000
00000100
00001000
00010000
,
00100000
00010000
01000000
10000000
,
00100000
00100000
00200000
00300000
,
10000000
01000000
00010000
01000000
,
00010000
00001000
00000100
00000010
,
00000001
00000100
00001000
00000100
,
00001000
00010000
00100000
01000000
,
10010000
10010000
00010000
00010000
,
00011000
00011000
00001000
00001000
,
00000001
00001000
00000001
00001000
00000001
00001000
00000001
00001000
,
00000010
00000010
00000010
00000000
00001000
00000000
00010000
00000000
,
00100000
00000000
10000000
10000000
10000000
00000000
00100000
00000000
,
00010000
00000000
00001000
00000000
00000100
00000100
00000200
00000000
,
00000310
00000000
00000001
00000000
00001000
00001000
00002000
00000000
,
00003001
00000100
00001000
00010000
,
00100000
10000000
00010000
01000000
,
00100000
00000000
00010000
00000000
00001000
00000100
00000100
00000000
,
00000010
00000001
00001100
00110000
,
01100000
00000000
00000000
00000000
10000000
00000000
00000000
00010000
,
01000000
00010000
00000000
00010000
00001000
00000000
00000000
00000010
,
00001000
00000010
00000000
00000010
00000001
00000000
00000100
00000010
,
00000100
00000010
00000000
00001000
00000100
00000000
00010000
00001000
,
00010000
00001000
00010000
00000000
00100000
00000000
10000000
01000000
,
10000000
01000000
10000000
00000000
00100000
00000000
00010000
00001000
,
00010000
00001000
00000000
00000100
00000010
00000000
00000001
00000000
,
00000100
00000000
00001000
00000000
00010000
00000000
00200000
00300000
,
01000000
00000000
20020000
00000000
30030000
01000000
00100000
00010000
,
00000000
00000000
00022000
00000000
00033000
00001000
00000100
00000010
,
00000000
00000000
00002002
00000000
00003003
00000100
00000100
00000000
,
00011000
00011000
00110000
00010000
,
10000000
00000000
01000000
01000000
00000000
00100000
00100000
00000000
,
00001000
00001000
00000000
00000100
00000100
00000000
00000010
00000000
,
00001001
00001100
00000101
00000101
,
00001100
00110000
01100000
11000000
,
11000000
00000000
01010000
00000000
01000000
00001000
00010000
00000000
,
00011000
00000000
00001100
00000000
00000010
00000001
00000100
00000000
,
00001001
00000000
00000110
00000000
00000001
00000010
00000100
00000000
,
00000011
00001100
00000011
00001100
,
00001001
00001001
00001001
00001001
,
00010100
00011000
00001100
00011000
,
01010000
00010100
01010000
00010100
,
00010000
00001000
00010000
00001000
00010000
00001000
00010000
00001000
,
00020000
00000000
00000000
00000000
,
00002000
00000000
00000000
00000000
,
00033000
00000000
00000000
00000000
;

//---------------dance-double - ----------------
#NOTES:
     dance-double:
     :
     Hard:
     13:
     0.595243,0.721159,0.465510,0.114470,0.099207,546.000000,485.000000,61.000000,15.000000,0.000000,0.000000,0.595243,0.721159,0.465510,0.114470,0.099207,546.000000,485.000000,61.000000,15.000000,0.000000,0.000000:
// measure 0
00000000
00000000
00000000
00000000
,  // measure 1
00000000
00000000
00000000
00000000
,  // measure 2
00000000
00000000
00000000
00000000
,  // measure 3
00000000
00000000
00000000
00000000
,  // measure 4
00000000
00000000
00000000
00000000
,  // measure 5
01000000
00100000
10000000
00010000
,  // measure 6
01000000
00100000
01000000
00100000
01000000
00000000
10000000
00000000
,  // measure 7
01000000
00100000
00010000
00001000
,  // measure 8
00000100
00000100
00000200
00000300
,  // measure 9
00000010
00000000
00001000
00000010
00000000
00001000
00000100
00001000
,  // measure 10
00000100
00000000
00000001
00000100
00000000
00001000
00000100
00001000
,  // measure 11
00010000
00000000
00001000
00100000
00000000
00100000
00010000
01000000
,  // measure 12
00100000
00000000
10000000
01000000
00000000
00100000
00010000
00000000
,  // measure 13
00001000
00010000
00000000
00001000
00010000
00000000
00001000
00010000
,  // measure 14
00000000
00001000
00010000
00001000
00010000
00000000
00000100
00001000
,  // measure 15
00000000
00000010
00000100
00000000
00000001
00000010
00000000
00000100
,  // measure 16
00001000
00010000
00022000
00033000
,  // measure 17
00100000
01010000
00100000
11000000
,  // measure 18
00100000
00000000
00000000
00000000
00010000
00000000
00001000
00000000
00010000
00001000
00010000
00001000
00010000
00000000
00001000
00000000
,  // measure 19
00000100
00000110
00000001
00001010
,  // measure 20
00000010
00000000
00000000
00000100
00001000
00000000
00000100
00000000
00010000
00001000
00010000
00001000
00010000
00000000
00000000
00000000
,  // measure 21
00001000
00100000
00010000
01000000
10000000
00000000
10100000
00000000
,  // measure 22
00100000
00010000
00001000
00000000
00001000
00000100
00000010
00000000
,  // measure 23
00000001
00000000
00000100
00000000
00001000
00000000
00000100
00001000
00000100
00000000
00000010
00000000
00000100
00000000
00001000
00000000
,  // measure 24
00010000
00000000
00001000
00010000
00000000
00001000
00010000
00000000
00001000
00010000
00000000
00000000
00101000
00000000
00000000
00000000
,  // measure 25
00100000
00000000
00010000
01000000
10000000
00100000
00010000
00000000
,  // measure 26
00001000
00000100
00000001
00000010
,  // measure 27
00000100
00000000
00001000
00010000
00001000
00010000
00001000
00000000
,  // measure 28
00100000
00010000
01000000
00000000
00100000
00100000
00100000
00100000
,  // measure 29
00100000
10010000
01010000
00010000
,  // measure 30
00001000
00001100
00000110
00000001
,  // measure 31
00000100
00000000
00001000
00000000
00000000
00001000
00010000
00000000
00001000
00000000
00000000
00010000
00001000
00000000
00010000
00000000
,  // measure 32
00001000
00100000
00010000
01000000
00100000
10000000
01000000
00000000
,  // measure 33
10000000
00000000
00100000
00110000
00000000
00001000
00011000
00000000
,  // measure 34
00010000
00010100
00000000
00000100
00000110
00000000
00001001
00000000
,  // measure 35
00000110
00000000
00000001
00000101
00000000
00000100
00001100
00000000
,  // measure 36
00010000
00001000
00100000
00000000
00010000
01000000
00100000
00000000
,  // measure 37
10100000
00000000
01010000
00000000
10000000
00100000
00010000
00100000
,  // measure 38
00001000
00000000
00010000
00000000
00000100
00001000
00000010
00000000
,  // measure 39
00000100
00000001
00000010
00000000
00000100
00001000
00010000
00000000
,  // measure 40
00100000
00010000
01000000
10000000
00100000
00010000
00001000
00000000
,  // measure 41
00000200
00000000
00000000
00000000
,  // measure 42
00000000
00000000
00000000
00000000
,  // measure 43
00000000
00000000
00000000
00000000
,  // measure 44
00000000
00000000
00000000
00000000
00000000
00000000
00000000
00000300
00000000
00000000
00000000
00000000
00000000
00000000
00000000
00000000
,  // measure 45
00000001
00000001
00001000
00001000
,  // measure 46
00010000
00010000
10000000
10000000
,  // measure 47
10000000
01000000
00100000
00010000
00001000
00000100
00000010
00000001
,  // measure 48
00000010
00000010
00000010
00000010
00001000
00000000
00000010
00000000
,  // measure 49
00000010
00001000
00000100
00001000
,  // measure 50
00010000
01000000
00100000
01000000
,  // measure 51
00010000
00000000
00000100
00001000
00000010
00000000
00000001
00000010
,  // measure 52
00001000
00000000
00001000
00010000
00100000
00000000
01000000
00100000
,  // measure 53
10100000
10000000
01010000
00010000
,  // measure 54
00001000
00011000
00001100
00001000
,  // measure 55
00000010
00000010
00000010
00000010
00000010
00000010
00000010
00000000
,  // measure 56
00001001
00001001
00001001
00000100
00001000
00000000
00100000
00010000
,  // measure 57
01000000
00100000
10000000
01000000
00100000
00000000
00100000
00001000
,  // measure 58
00010000
00000000
00001000
00000000
00010000
00000000
00000010
00000000
00000100
00000000
00000001
00000000
00000100
00000001
00000100
00000001
,  // measure 59
00000100
00000010
00001000
00000100
00010000
00001000
00010000
00001000
,  // measure 60
01000000
00000000
00010000
00000000
01000000
00010000
01000000
00010000
01000000
00000000
00100000
00000000
00100000
00000000
10000000
00000000
,  // measure 61
01000000
00100000
00010000
00100000
00002000
00000000
00013000
00000100
,  // measure 62
00001000
00000000
00000010
00000000
00000100
00000000
00000001
00000000
00001000
00000000
00000100
00000000
00001000
00000001
00001000
00000001
,  // measure 63
00001000
00000010
00001000
00000100
00011000
00000000
00110000
00000000
,  // measure 64
00010000
00100000
01000000
10000000
01000000
00000000
00000000
00000000
01100000
00000000
00000000
00000000
10000000
00000000
01000000
00000000
,  // measure 65
00100000
00010000
00001000
00000000
00011000
00000000
00001000
00000100
,  // measure 66
00000010
00000001
00000010
00000100
00000000
00000001
00000100
00000010
,  // measure 67
00001000
00000100
00010000
00001000
01000000
00000000
00100000
10000000
,  // measure 68
01000000
00000000
10010000
00000000
01010000
00000000
00100000
00001000
,  // measure 69
00010000
00000100
00001000
00000000
00001010
00000000
00000100
00000001
,  // measure 70
00000010
00000100
00001000
00000000
00001100
00000000
00010100
00000000
,  // measure 71
00011000
00000000
00000000
00000000
00100000
00000000
00001000
00000000
00100000
00000000
00010000
00000000
01000000
00000000
20020000
30030000
,  // measure 72
01000000
00100000
20020000
30030000
01000000
00100000
00001000
00000000
,  // measure 73
00010000
00001000
00002020
00003030
00000010
00000100
00000001
00000000
,  // measure 74
00000010
00001000
00002200
00003300
00000100
00010000
00001000
00000000
,  // measure 75
00011000
00110000
00001100
00110000
,  // measure 76
00001000
00000000
01000000
00010000
00010000
10000000
01000000
01000000
,  // measure 77
00100000
00001000
00001000
00010000
00000100
00000100
00001000
00000010
,  // measure 78
00000001
00000000
00000100
00000000
00000001
00001000
00000001
00000000
00001000
00000001
00001000
00000000
00000001
00001000
00000001
00000000
,  // measure 79
00000010
00001000
00000100
00010000
00001000
01000000
00100000
10000000
,  // measure 80
01000000
00000000
10100000
00000000
01000000
00100000
00010000
00000000
,  // measure 81
00000100
00000000
00001010
00000000
00000100
00000010
00000001
00000000
,  // measure 82
00000010
00000000
00001100
00000000
00010000
00100000
01000000
00000000
,  // measure 83
11000000
01010000
00011000
00001100
,  // measure 84
00000101
00000101
00001100
00001100
,  // measure 85
01001000
01001000
11000000
11000000
,  // measure 86
10000000
01000000
00100000
00010000
00001000
00000100
00000010
00000001
,  // measure 87
00000010
00000000
00000100
00000001
00000100
00000000
00001000
00000100
00001000
00000000
00010000
00001000
00010000
00000000
00001000
00010000
,  // measure 88
00002000
00000000
00000000
00000000
,  // measure 89
00020000
00000000
00000000
00000000
,  // measure 90
00033000
00000000
00000000
00000000
;
