#TITLE:DIAMOND CROSSING;
#SUBTITLE:;
#ARTIST:S-C-U VS. L.E.D.;
#TITLETRANSLIT:;
#SUBTITLETRANSLIT:;
#ARTISTTRANSLIT:;
#GENRE:;
#CREDIT:;
#MENUCOLOR:;
#METERTYPE:DDR X;
#BANNER:DIAMOND CROSSING.png;
#BACKGROUND:DIAMOND CROSSING-bg.png;
#LYRICSPATH:;
#CDTITLE:;
#MUSIC:DIAMOND CROSSING.OGG;
#OFFSET:-0.288;
#SAMPLESTART:2.960;
#SAMPLELENGTH:12.000;
#SELECTABLE:YES;
#LISTSORT:;
#BPMS:0.000=180.000;
#STOPS:;
#BGCHANGES:;
#ATTACKS:;

//---------------dance-single - ----------------
#NOTES:
     dance-single:
     :
     Hard:
     12:
     0.659,0.777,0.342,0.219,0.338:
0000
0000
0000
0000
,
0000
0000
0000
0000
,
1000
0000
0001
0000
1000
0100
0001
0000
,
0001
0000
1000
0000
0001
0100
1000
0000
,
0010
0000
0100
0000
1000
0100
0001
0000
,
0001
0100
1000
0000
1000
0100
0001
0000
,
0010
0000
0100
0000
0001
0100
1000
0000
,
0100
0000
0010
0000
1000
0100
0001
0000
,
0100
0000
0010
0000
0001
0100
1000
0000
,
1000
0010
0001
0000
0001
0010
1000
0000
,
0100
0000
0010
0000
0100
0010
1000
0000
,
0100
0000
0010
0000
0100
0001
0010
0000
,
0100
0000
0010
0000
0100
0010
1000
0000
,
0100
0001
0010
0000
0100
1000
0010
0000
,
0100
0000
1000
0000
0100
0001
0010
0000
,
0100
0000
0001
0000
0100
1000
0010
0000
,
0100
1000
0100
0000
0001
0100
0001
0000
,
0100
1000
0100
0001
0100
0000
1001
0000
,
0010
0000
1000
0001
0000
1000
0000
0010
0000
0000
0100
0000
0000
0000
0010
0000
,
1000
0000
0100
0001
0000
0100
0000
0010
0000
0000
0000
0000
0010
0000
0000
0000
,
1000
0000
0100
1000
0000
0010
0000
0100
0000
0000
0001
0000
0000
0000
0100
0000
,
0010
0000
1000
0100
0000
0000
0010
0000
0000
0000
1000
0000
0000
0001
0000
0000
,
0100
0000
0010
0100
0000
0010
0000
1000
0000
0000
0010
0000
0000
0000
0100
0000
,
0010
0000
1000
0001
0000
1000
0000
0010
0000
0000
0001
0000
0100
0000
0010
0000
,
1000
0000
0000
0001
0000
0000
0200
0000
0000
0000
0000
0000
0300
0000
0000
0000
,
1000
0001
1000
1001
,
0100
0000
1000
0010
0000
1000
0000
0010
0000
0000
0100
0000
0001
0000
0100
0000
,
0010
0000
0100
0010
0000
0100
0000
0100
0000
0000
0000
0000
1001
0000
0000
0000
,
0010
0000
1000
0010
0000
0100
0000
0010
0000
0000
0100
0000
0001
0000
0100
0000
,
0010
0000
1000
0001
0000
0000
0100
0000
0000
0000
1000
0000
0000
0100
0000
0000
,
0010
0000
0100
0010
0000
0100
0000
0100
0000
0000
0001
0000
0000
0000
1000
0000
,
0010
0000
0100
0010
0000
0010
0000
1000
0000
0000
0010
0000
0001
0000
0010
0000
,
0100
0000
0000
1001
0000
0000
1001
0000
0000
0000
0100
0000
0010
0000
0100
0000
,
0002
2003
3020
0230
,
0301
0000
0000
0010
0000
0000
0100
0000
0010
0000
0000
0100
0000
0000
1000
0000
,
0100
0000
0000
1000
0000
0000
0010
0000
1000
0000
0000
0010
0000
0000
0001
0000
,
0010
0000
0000
0100
0000
0000
0010
0000
0100
0000
0000
1000
0000
0000
0100
0000
,
1000
0000
0000
0100
0000
0000
1000
0000
0100
0000
0001
0000
0100
0000
0001
0000
,
0100
0010
0100
0000
0010
0001
0010
0000
,
0001
0100
0001
0000
0100
1000
0100
0000
,
1000
0010
1000
0010
0100
0001
0100
0001
,
0200
0000
0000
0010
0000
0000
0010
0000
0020
0000
0000
0000
0330
0000
0000
0000
,
1000
0001
1000
0001
1000
0001
1000
0000
,
1001
0000
0000
0000
0110
0000
0000
0000
1000
0000
0000
0100
0000
0000
0001
0000
,
0000
0000
0001
0000
0100
0000
1000
0000
0100
0000
0000
0010
0000
0000
0001
0000
,
2000
0000
0000
3001
0010
0001
0000
0100
,
0000
0010
1000
0100
0010
0001
0100
0010
,
1000
0000
0000
0000
1001
0000
0000
0000
0010
0000
0000
0100
0000
0000
0001
0000
,
0000
0100
0010
0100
1000
0100
0010
0100
,
0001
0000
0100
0010
0100
0000
0000
0000
0010
0100
0010
0000
0000
0000
0100
0010
,
0100
0000
0000
0000
0100
0000
0000
0000
0001
0100
0001
0000
1000
0100
1000
0000
,
0020
0000
0000
0100
0200
0000
0330
0000
,
0001
1000
0100
0000
0110
0000
1001
0000
,
2000
0000
0000
0100
0000
0000
3100
0000
0200
0000
0000
0010
0000
0000
0310
0000
,
0020
0000
0000
0001
0000
0000
0031
0000
0010
0000
0000
0100
0000
0000
0010
0000
,
0210
0010
0010
0310
,
0120
0100
0100
0130
,
1100
2020
3030
1100
,
1001
0220
0330
1001
,
1100
0100
1100
1000
,
1100
0000
0100
0010
0001
0000
0110
0000
,
0001
0010
0100
0000
1001
0000
0000
0000
,
1001
0000
0000
0000
0011
0000
0000
0000
0100
0000
0000
1000
0000
0000
1000
0000
,
0000
0000
1000
0000
0100
0000
0010
0000
0001
0000
0000
0001
0000
0000
0010
0000
,
0100
0000
1001
0000
1000
0001
1000
0010
,
0100
0000
0000
0000
1100
0000
0000
0000
1010
0000
0000
1001
0000
0000
0010
0000
,
1000
0000
0000
0000
1100
0000
0000
0000
1000
0000
0000
1000
0000
0000
1000
0000
,
0000
0001
1000
0001
1000
0001
1000
0010
,
0100
0000
0000
0000
1000
0000
0100
1000
0100
0000
1000
0000
0100
1000
0100
0000
,
0010
0000
0001
0000
0110
0000
0000
0000
1000
0001
1000
0000
0001
1000
0001
0000
,
0110
0000
2000
0001
0002
0000
0000
0000
,
3003
0110
0110
0110
,
1000
0000
0000
0100
0000
0000
0001
0000
0001
0000
0000
0100
0000
0000
1000
0000
,
1000
0000
0000
0100
0000
0000
0001
0000
0001
0000
0000
0100
0000
0000
1000
0000
,
1000
0000
0000
0010
0000
0000
0001
0000
0001
0000
0000
0010
0000
0000
1000
0000
,
1000
0000
0000
0100
0000
0000
0001
0000
1000
0000
0100
0000
0010
0000
0001
0000
,
2002
0000
0000
0000
,
0000
0000
0000
3003
;

//---------------dance-double - Copied from----------------
#NOTES:
     dance-double:
     Copied from:
     Hard:
     13:
     0.639,0.703,0.770,0.114,0.190:
00000000
00000000
00000000
00000000
,
00000000
00000000
00000000
00000000
,
00010000
00001000
00000100
00000010
,
00001000
00000000
00000100
00000000
00001000
00000010
00000001
00000000
,
00000100
00000000
00000010
00000000
00000001
00000010
00001000
00000000
,
00010000
00000000
00001000
00000000
00010000
00100000
10000000
00000000
,
01000000
00000000
00100000
00000000
10000000
00100000
00010000
00000000
,
00100000
00000000
01000000
00000000
00010000
00100000
10000000
00000000
,
00100000
00000000
00001000
00000000
00010000
00000100
00001000
00000000
,
00000100
00010000
00000010
00000000
00001000
00000100
00000010
00000000
,
00000010
00000000
00000100
00000000
00000010
00000100
00000001
00000000
,
00000010
00000000
00000100
00000000
00000010
00001000
00000100
00000000
,
00000010
00000000
00001000
00000000
00000100
00001000
00000010
00000000
,
00000100
00010000
00001000
00000000
00001000
00010000
00100000
00000000
,
00100000
00000000
00010000
00000000
00100000
10000000
01000000
00000000
,
00100000
00000000
10000000
00000000
00100000
00010000
01000000
00000000
,
00100000
00010000
00100000
00000000
10000000
00100000
10000000
00000000
,
00100000
00001000
00010000
00010010
,
00001100
00000000
00000000
00001000
00000000
00000001
00000000
00000100
00000000
00000000
00000010
00000000
00000000
00000000
00000100
00000000
,
00001000
00000000
00000000
00010000
00000000
00100000
00000000
01000000
00000000
00000000
00000000
00000000
01000000
00000000
00000000
00000000
,
00010000
00000000
00000000
00010000
00000000
00000100
00000000
00000010
00000000
00000000
00001000
00000000
00000000
00000000
00100000
00000000
,
01000000
00000000
00000000
00100000
00000000
00000000
01000000
00000000
00000000
00000000
00010000
00000000
00000000
00001000
00000000
00000000
,
00000010
00000000
00000000
00000010
00000000
00000100
00000000
00000001
00000000
00000000
00000100
00000000
00000000
00000000
00000010
00000000
,
00000100
00000000
00000000
00001000
00000000
00010000
00000000
01000000
00000000
00000000
10000000
00000000
00100000
00000000
01000000
00000000
,
00001000
00000000
00000000
00010000
00000000
00000000
00000200
00000000
00000000
00000000
00000000
00000000
00000300
00000000
00000000
00000000
,
00000001
00001000
00000001
00001001
,
00001100
00000000
00110000
00000000
00010000
00001000
00010000
00000000
,
00001000
00010000
00001000
00000000
00110000
00000000
00001100
00000000
,
00110000
00000000
00001100
00000000
00001000
00010000
00001000
00000000
,
00010000
00001000
00010000
00000000
00001100
00000000
00110000
00000000
,
11000000
10100000
10010000
10100000
,
11000000
00101000
00010000
00101000
,
00110000
00010000
00110000
00100000
,
00110000
00000000
00011000
00000100
00000100
00011000
00000100
00000100
,
00011000
00000000
00000000
00001000
00000000
00000000
00100000
00000000
00100000
00000000
00000000
01000000
00000000
00000000
10000000
00000000
,
01000000
00000000
00000000
10000000
00000000
00000000
00100000
00000000
10000000
00000000
00000000
00100000
00000000
00000000
00010000
00000000
,
00000100
00000000
00000000
00000010
00000000
00000000
00000100
00000000
00000010
00000000
00000000
00000100
00000000
00000000
00010000
00000000
,
00001000
00000000
00000000
00100000
00000000
00000000
00001000
00000000
00010000
00000000
00000100
00000000
00001000
00000000
00000000
00000000
,
00000110
00000110
00000110
00000000
,
00000110
00000110
00000110
00000000
,
00011000
00010100
00011000
00000000
,
00010100
00001000
00010100
00000000
,
00001000
00010000
00000100
00001000
00000010
00000100
00000001
00000000
,
00001001
00000000
00000000
00000000
00000110
00000000
00000000
00000000
00000001
00000000
00000000
00000010
00000000
00000000
00001000
00000000
,
00000000
00000000
00001000
00000000
00000010
00000000
00000001
00000000
00000010
00000000
00000000
00000100
00000000
00000000
00001000
00000000
,
00020000
00000000
00000000
10030000
01000000
10000000
00000000
00100000
,
00000000
00100000
10000000
01000000
00100000
00010000
01000000
00100000
,
10000000
00000000
00000000
00000000
10010000
00000000
00000000
00000000
00100000
00000000
00000000
01000000
00000000
00000000
00010000
00000000
,
00000000
00000100
00000010
00000100
00001000
00000100
00000010
00000100
,
00000001
00000000
00000100
00000010
00000100
00000000
00000000
00000000
00000010
00000100
00000010
00000000
00000000
00000000
00000100
00000010
,
00000100
00000000
00000100
00000000
00010000
00001000
00100000
00000000
,
00200000
00000000
00000000
01000000
02000000
00000000
03300000
00000000
,
00010000
10000000
01000000
00000000
01100000
00000000
10010000
00000000
,
10000000
10000000
10010000
01100000
,
00110000
01001000
01001000
00110000
,
00011000
00010100
00011000
00010000
,
00001010
00001010
00001010
00000100
,
00001000
00002000
00000000
00003110
,
00000110
00000000
00002002
00000000
00000000
00003003
00000110
00000000
,
00001001
00000000
00001001
00000000
00000010
00000100
00001000
00000000
,
00000100
00010000
00001000
00000000
00010000
00001000
00100000
00000000
,
00010000
01000000
00010000
01000000
00010000
00100000
00001000
00100000
,
00002000
00000000
00000000
00000000
00013000
00000000
00000000
00000000
00110000
00000000
00000000
00101000
00000000
00000000
00101000
00000000
,
00000000
00110000
00000000
00011000
00000100
00010000
00000100
00010000
,
00011000
00001100
00001010
00001100
,
00001010
00000000
00000000
00000000
00001010
00000000
00000000
00000000
00010000
00000000
00000000
00001000
00000000
00000000
00010000
00000000
,
00100000
00000000
01100000
00000000
00100000
00100000
00000000
01100000
,
00000000
10010000
00000000
00010000
00100000
01000000
10000000
01100000
,
10010000
01100000
00010000
01100000
,
00010000
00000000
01100000
00000000
01000000
00100000
00010000
00001000
,
00000200
00000000
00000000
00010300
00020000
00000000
00000000
00000000
,
00031000
00011000
00110000
01100000
,
10000000
00000000
00000000
01000000
00000000
00000000
00010000
00000000
00010000
00000000
00000000
01000000
00000000
00000000
10000000
00000000
,
10000000
00000000
00000000
01000000
00000000
00000000
00010000
00000000
00010000
00000000
00000000
00100000
00000000
00000000
00001000
00000000
,
00001000
00000000
00000000
00000010
00000000
00000000
00000001
00000000
00000001
00000000
00000000
00000010
00000000
00000000
00001000
00000000
,
00001000
00000000
00000000
00000100
00000000
00000000
00000001
00000000
00001000
00000000
00010000
00000000
00000100
00000000
00010000
00000000
,
00022000
00000000
00000000
00000000
,
00000000
00000000
00000000
00033000
;

//---------------dance-single - ----------------
#NOTES:
     dance-single:
     :
     Beginner:
     5:
     0.204,0.296,0.238,0.114,0.000:
0000
0000
0000
0000
,
0000
0000
0000
0000
,
0010
0000
0000
0000
,
0010
0000
0000
0000
,
0100
0000
0000
0000
,
0100
0000
0000
0000
,
1000
0000
0001
0000
,
1000
0000
0001
0000
,
0010
0000
0010
0000
,
0100
0000
0100
0000
,
0001
0000
0000
0000
,
1000
0000
0000
0000
,
0001
0000
0000
0000
,
1000
0000
0000
0000
,
0010
0000
0010
0000
,
0100
0000
0100
0000
,
0001
0000
0001
0000
,
1000
0000
1000
0000
,
0002
0000
0003
0000
,
2000
0000
3000
0000
,
0020
0000
0030
0000
,
0200
0000
0300
0000
,
0100
0000
0100
0000
,
0010
0000
0010
0000
,
1000
0000
1000
0000
,
0001
0000
0001
0000
,
0001
0000
0100
0000
,
1000
0000
0100
0000
,
0001
0000
0010
0000
,
1000
0000
0010
0000
,
1000
0000
0100
0000
,
0001
0000
0100
0000
,
1000
0000
0010
0000
,
0001
0000
0010
0000
,
0200
0000
0300
0000
,
0010
0000
0100
0000
,
0002
0000
0003
0000
,
1000
0000
0001
0000
,
0100
0000
0100
0000
,
0010
0000
0010
0000
,
1000
0000
1000
0000
,
0001
0000
0001
0000
,
0020
0000
0030
0000
,
1001
0000
1001
0000
,
1001
0000
0000
0000
,
0110
0000
0000
0000
,
0010
0000
0000
0000
,
1001
0000
1001
0000
,
1001
0000
0000
0000
,
0110
0000
0000
0000
,
0100
0000
0000
0000
,
0020
0000
0000
0030
,
0000
0000
0000
0000
,
0110
0000
1001
0000
,
1000
0000
1001
0000
,
0110
0000
0000
0000
,
0110
0000
1001
0000
,
0110
0000
0000
0000
,
1001
0000
0000
0000
,
0100
0000
0100
0000
,
0010
0010
0010
0010
,
0020
0000
0030
0000
,
0110
0000
0110
0000
,
0110
0000
0000
0000
,
1001
0000
0000
0000
,
0000
0000
0000
0000
,
0110
0000
0110
0000
,
0110
0000
0000
0000
,
1001
0000
0000
0000
,
0010
0000
0000
0000
,
0200
0000
0000
0000
,
0300
0000
0000
0000
,
0001
0000
0001
0000
,
0001
0000
0001
0000
,
1000
0000
1000
0000
,
1000
0000
1000
0000
,
2002
0000
0000
0000
,
0000
0000
0000
3003
;

//---------------dance-double - ----------------
#NOTES:
     dance-double:
     :
     Easy:
     6:
     0.355,0.444,0.295,0.181,0.000:
00000000
00000000
00000000
00000000
,
00000000
00000000
00000000
00000000
,
00100000
00010000
00001000
00000000
,
00001000
00010000
00100000
00000000
,
00010000
00001000
00000100
00000000
,
00000100
00001000
00010000
00000000
,
00100000
00001000
00010000
00000000
,
00010000
00001000
00100000
00000000
,
00010000
00000100
00001000
00000000
,
00001000
00000100
00010000
00000000
,
00000100
00001000
00000100
00001000
,
00000100
00010000
00000100
00010000
,
00001000
00010000
00001000
00100000
,
00010000
00100000
00010000
00000000
,
00010000
00100000
00010000
00000000
,
00100000
00001000
00100000
00000000
,
00010000
00000100
00001000
00000010
,
00001000
00000001
00002002
00003003
,
00000002
00000000
00000013
00000000
,
00000200
00000000
00010300
00000000
,
00002000
00000000
00103000
00000000
,
00020000
00000000
01030000
00000000
,
00200000
00000000
00301000
00000000
,
00000200
00000000
00010300
00000000
,
00100000
00000000
00001000
00000000
,
00000100
00000000
00001000
00000000
,
00100000
00010000
00010000
00000000
,
00100000
10000000
10000000
00000000
,
01000000
00010000
00010000
00000000
,
01000000
10000000
10000000
00000000
,
01000000
00100000
00010000
00000000
,
00001000
00100000
00010000
00000000
,
10000000
00000000
00100000
00000000
,
00010000
00100000
01000000
10000000
,
10010000
00000000
00000000
00000000
,
02200000
00000000
03300000
00000000
,
02200000
00000000
03300000
00000000
,
01000000
00100000
01000000
00000000
,
00010000
00100000
00010000
00000000
,
00001000
00100000
00001000
00100000
,
00001000
00010000
00001000
00010000
,
00001000
00010000
00001000
00000100
,
00002000
00000000
00003010
00000000
,
00000110
00000000
00001001
00000000
,
00001000
00000100
00000010
00000001
,
00001001
00000000
00000010
00000100
,
00000110
00000000
00001000
00000100
,
00001100
00000000
00011000
00000000
,
00110000
00000000
00010000
00001000
,
00001100
00000000
00000100
00000010
,
00000110
00000000
00000001
00000100
,
00000220
00000000
00000000
00000330
,
00000000
00000000
00000000
00000000
,
00001000
00000100
00010000
00001000
,
00100000
00010000
01000000
00100000
,
10000000
01000000
10000000
00100000
,
01000000
00010000
00100000
00001000
,
00011000
00000000
00000000
00100000
,
00011000
00000000
00000000
00000100
,
00011000
00000000
00011000
00000000
,
00010000
00000100
00001000
00000010
,
00002002
00000000
00003003
00000000
,
00110000
00000000
00001100
00000000
,
00110000
00010000
00110000
00100000
,
00110000
00000000
00000000
00000000
,
00011000
00000100
00011000
00000100
,
00011000
00000000
01100000
00000000
,
00011000
00000000
00001100
00000000
,
00101000
00000000
00000000
00000000
,
00010000
00001000
00010000
00001000
,
00010000
00000100
00001000
00000010
,
00000100
00000001
00000010
00000100
,
00001000
00000100
00010000
00000100
,
00001000
00000100
00010000
00000100
,
00001000
00010000
00000100
00010000
,
00001000
00100000
00010000
00002000
,
00020000
00000000
00000000
00000000
,
00000000
00000000
00000000
00033000
;

//---------------dance-single - ----------------
#NOTES:
     dance-single:
     :
     Easy:
     6:
     0.371,0.444,0.323,0.105,0.000:
0000
0000
0000
0000
,
0000
0000
0000
0000
,
1000
0010
0100
0000
,
0001
0010
1000
0000
,
0010
0100
0001
0000
,
0001
0100
0010
0000
,
1000
0100
0010
0000
,
0010
0100
1000
0000
,
0010
0001
0100
0000
,
0100
0001
0010
0000
,
0001
0100
0001
0100
,
0001
0010
0001
0010
,
0100
0010
0100
1000
,
0010
1000
0010
0000
,
0010
1000
0010
0000
,
1000
0100
1000
0000
,
0010
0001
0100
1000
,
0100
0010
0100
0010
,
0100
0001
1000
0001
,
0010
1000
0001
1000
,
0100
0001
1000
0001
,
0010
1000
0001
1000
,
0001
0010
0100
1000
,
1000
0100
0010
0001
,
1000
0010
0100
0001
,
0001
0100
0010
1000
,
1000
0010
0110
0000
,
0001
0100
0110
0000
,
0001
0010
1001
0000
,
1000
0100
1001
0000
,
0001
1000
0010
0000
,
0100
1000
0010
0000
,
0100
0000
1000
0000
,
0010
1000
0001
0100
,
0110
0000
0000
0000
,
2002
0000
3003
0000
,
2002
0000
3003
0000
,
0001
1000
0001
0000
,
1000
0001
1000
0000
,
0100
1000
0100
1000
,
0100
0010
0100
0010
,
0100
0001
0100
0001
,
0200
0000
1300
0000
,
1001
0000
0110
0000
,
0100
0001
1000
0010
,
0110
0000
1000
0001
,
1001
0000
0100
0001
,
1001
0000
0110
0000
,
1001
0000
0010
0100
,
1001
0000
0100
0010
,
1001
0000
0100
0010
,
2002
0000
0000
3003
,
0000
0000
0000
0000
,
0100
0001
0010
0100
,
1000
0010
0001
1000
,
0100
0001
0100
1000
,
0001
0010
1000
0100
,
0110
0000
0000
1000
,
0110
0000
0000
0001
,
0110
0000
0110
0000
,
0010
0001
0100
1000
,
0220
0000
0330
0000
,
1010
0000
0101
0000
,
1010
0010
1010
1000
,
1010
0000
0000
0000
,
0110
0001
0110
0001
,
0110
0000
1001
0000
,
0110
0000
0101
0000
,
1100
0000
0000
0000
,
0010
0100
0010
0100
,
0010
0001
0100
1000
,
0001
0010
1000
0001
,
0100
0001
0010
0001
,
0100
0001
0010
0001
,
0100
0010
0001
0010
,
0100
1000
0010
0200
,
0020
0000
0000
0000
,
0000
0000
0000
0330
;

//---------------dance-double - ----------------
#NOTES:
     dance-double:
     :
     Medium:
     10:
     0.560,0.629,0.476,0.152,0.052:
00000000
00000000
00000000
00000000
,
00000000
00000000
00000000
00000000
,
00100000
00010000
00000100
00001000
,
00000010
00000000
00000100
00000000
00000001
00000010
00001000
00000000
,
00000010
00001000
00000100
00010000
,
00001000
00000000
00100000
00000000
00010000
01000000
10000000
00000000
,
10000000
00000000
11000000
00000000
00100000
00010000
00001000
00000000
,
00010000
00000000
00000100
00000000
00001000
00000100
00000010
00000000
,
00001001
00000110
00000110
00001001
,
00000010
00000100
00000010
00001000
00000010
00000100
00000011
00000000
,
00000010
00000000
00001001
00000000
00000100
00000010
00001000
00000000
,
00000100
00000000
00010000
00000000
00001000
00100000
00010000
00000000
,
01000000
00000000
00100000
00000000
10000000
01000000
00010000
00000000
,
01000000
00000000
00100000
00000000
00010000
01000000
10000000
00000000
,
10000000
00100000
01000000
00001000
,
00100000
00001000
00010000
00000100
,
00001000
00000100
00001000
00000000
00000010
00000100
00000010
00000000
,
00000001
00000100
00001000
00000100
00000001
00000000
00001001
00000000
,
00000010
00000000
00001000
00000000
00000100
00010000
00000100
00000000
,
00001000
00010000
00200000
00300000
,
01000000
00000000
00010000
00000000
00100000
00001000
00100000
00000000
,
00010000
00000100
00002000
00003000
,
00010000
00000000
00001000
00000000
00100000
00001000
00010000
00000000
,
00100000
00010000
02000000
03000000
,
10000000
00000000
01000000
00000000
00010000
01000000
10000000
00000000
,
00100000
00010000
00000100
00001100
,
00001000
00000010
00001000
00000000
00000010
00000000
00001001
00000000
,
00000001
00000100
00000001
00000000
00000010
00000000
00001001
00000000
,
00000100
00010000
00000100
00000000
00001000
00000000
00011000
00000000
,
00100000
00001000
00100000
00000000
00100000
00000000
00110000
00000000
,
01000000
00100000
01000000
00000000
10000000
00000000
10010000
00000000
,
01000000
00010000
01000000
00000000
00100000
00000000
00101000
00000000
,
00010000
00000100
00001000
00000000
00001000
00000100
00000010
00000000
,
00000100
00001001
00000010
00001001
,
00000100
00000000
00000000
00001000
00000000
00000000
00000000
00000000
00010000
00000000
00000000
00001000
00000000
00000000
00000000
00000000
,
00100000
00000000
00000000
00010000
00000000
00000000
00000000
00000000
01000000
00000000
00000000
00001000
00000000
00000000
00000000
00000000
,
00010000
00000000
00000000
00000100
00000000
00000000
00000000
00000000
00000010
00000000
00000000
00000000
00010000
00000000
00001000
00000000
,
00010000
00100000
00010000
10000000
,
10000000
01000000
10000000
00000000
01000000
00000000
00100000
00000000
,
00001000
00100000
00001000
00000000
00010000
00000000
00000100
00000000
,
00001000
00000010
00001000
00000000
00000100
00000000
00010000
00000000
,
00001000
01000000
00001000
00000000
00100000
00000000
10010000
00000000
,
01000000
00010000
01000000
00010000
01000000
00000000
00011000
00000000
,
00001100
00000000
00000000
00000000
00000110
00000000
00000000
00000000
00000001
00000000
00000000
00000100
00000000
00000000
00001000
00000000
,
00000000
00000100
00000000
00010000
00001000
00000000
00100000
00000000
,
00010000
00000000
00000000
01000000
00000000
00000000
00010000
00000000
00000000
00000000
00000000
00000000
10000000
00000000
00000000
00000000
,
00010000
01000000
00100000
00001000
,
00010000
00000000
00000000
00000000
00000100
00000000
00000000
00000000
00001000
00000000
00000000
00000100
00000000
00000000
00001000
00000000
,
00000000
00000100
00000000
00010000
00001000
00000000
01000000
00000000
,
00010000
10000000
01000000
00010000
,
00100000
00001000
00010000
00000100
,
00002000
00000000
00000000
00000010
00000020
00000000
00003030
00000000
,
00000101
00001001
00001010
00001100
,
00010000
00100000
01000000
00100000
,
00010000
01100000
10010000
10010000
,
01100000
00110000
00101000
00110000
,
00100000
00010100
00010100
00010100
,
00001000
00002000
00000000
00003100
,
00000110
00002002
00003003
00000110
,
00002002
00003003
00002002
00003003
,
00000010
00001000
00000100
00000000
00000100
00010000
00001000
00000000
,
00010000
00100000
00010000
01000000
00100000
10000000
01000000
00100000
,
00010000
00000000
00000000
00000000
00000100
00000000
00000000
00000000
00010000
00000000
00000000
00000100
00000000
00000000
00001000
00000000
,
00000000
00010000
00000000
00001000
00010000
00000000
00000100
00000000
,
00001000
00000010
00001000
00000010
,
00000100
00000000
00000000
00000000
00001000
00000000
00000000
00000000
00011000
00000000
00000000
00011000
00000000
00000000
00101000
00000000
,
01001000
00000000
00000000
00000000
01100000
00000000
00000000
00000000
10000000
00000000
00000000
01000000
00000000
00000000
00001000
00000000
,
00000000
00010000
00000000
00000100
00000001
00000000
00000010
00000000
,
00000001
00000100
00000000
00000010
00010000
00000000
00001000
00100000
,
00000000
00010000
10000000
00000000
01000000
00100000
01000000
00100000
,
02000000
00000000
00000000
00010000
00020000
00000000
03030000
00000000
,
00110000
00101000
01001000
01010000
,
10000000
01000000
00010000
00000000
00100000
00001000
00010000
00000000
,
00000100
00010000
00001000
00000000
00000010
00010000
00001000
00000000
,
00001000
01000000
00010000
00000000
00010000
10000000
00100000
00000000
,
01000000
00001000
00010000
00001000
00010000
00001000
00010000
00000000
,
00022000
00000000
00000000
00000000
,
00000000
00000000
00000000
00033000
;

//---------------dance-single - ----------------
#NOTES:
     dance-single:
     :
     Medium:
     10:
     0.565,0.629,0.552,0.162,0.048:
0000
0000
0000
0000
,
0000
0000
0000
0000
,
0010
0001
0100
1000
,
0010
0000
0100
0000
0001
0010
1000
0000
,
0010
1000
0100
0001
,
1000
0000
0010
0000
0001
0100
1000
0000
,
1000
0000
1100
0000
0010
0001
1000
0000
,
0001
0000
0100
0000
1000
0100
0010
0000
,
1001
0110
0110
1001
,
0010
0100
0010
1000
0010
0100
0011
0000
,
0010
0000
1100
0000
0010
0001
0100
0000
,
0010
0000
1000
0000
0100
0001
1000
0000
,
0010
0000
0001
0000
0100
0010
1000
0000
,
0010
0000
0001
0000
1000
0010
0100
0000
,
0100
0001
0010
0100
,
0001
0100
1000
0010
,
0100
0010
0100
0000
0001
0010
0001
0000
,
1000
0010
0100
0010
1000
0000
1100
0000
,
0001
0000
0100
0000
0010
1000
0010
0000
,
0100
1000
0002
0003
,
0010
0000
1000
0000
0001
0100
0001
0000
,
1000
0010
0200
0300
,
1000
0000
0100
0000
0001
0100
1000
0000
,
0001
1000
0020
0030
,
0100
0000
0010
0000
1000
0010
0100
0000
,
0001
1000
0010
0110
,
0100
0001
0100
0000
0001
0000
1100
0000
,
1000
0010
1000
0000
0001
0000
1100
0000
,
0010
1000
0010
0000
0100
0000
1100
0000
,
1000
0010
1000
0000
1000
0000
1100
0000
,
0001
1000
0001
0000
0010
0000
0110
0000
,
0001
0100
0001
0000
1000
0000
1010
0000
,
0100
0001
0010
0000
0010
0001
1000
0000
,
0001
0110
1000
0110
,
0001
0000
0000
0010
0000
0000
0000
0000
0100
0000
0000
0010
0000
0000
0000
0000
,
1000
0000
0000
0100
0000
0000
0000
0000
0001
0000
0000
0010
0000
0000
0000
0000
,
0100
0000
0000
0001
0000
0000
0000
0000
1000
0000
0000
0000
0100
0000
0010
0000
,
0100
1000
0100
0010
,
0010
0001
0010
0000
0001
0000
1000
0000
,
0010
1000
0010
0000
0100
0000
0001
0000
,
0010
1000
0010
0000
0001
0000
0100
0000
,
0010
0001
0010
0000
1000
0000
0110
0000
,
0001
0100
0001
0100
0001
0000
0110
0000
,
0011
0000
0000
0000
1001
0000
0000
0000
0100
0000
0000
0001
0000
0000
0010
0000
,
0000
0001
0000
0100
0010
0000
1000
0000
,
0100
0000
0000
0001
0000
0000
0100
0000
0000
0000
0000
0000
0010
0000
0000
0000
,
0100
0001
1000
0010
,
0100
0000
0000
0000
0001
0000
0000
0000
0010
0000
0000
0001
0000
0000
0010
0000
,
0000
0001
0000
0100
0010
0000
0001
0000
,
0100
0001
0000
0010
0001
0000
0100
0001
,
0000
0010
0001
0000
0100
0000
0001
0000
,
0002
0000
0000
1000
2000
0000
3003
0000
,
0110
1000
1000
0110
,
0110
1001
1001
0110
,
1100
1010
1100
1000
,
0101
0101
0010
1000
,
1000
1100
0110
1001
,
2002
0000
3003
0110
,
2002
0000
3003
1001
,
0220
0330
0220
0330
,
0100
0010
0001
0100
0001
0100
0010
0000
,
1001
0110
0110
1001
,
1001
0000
0000
0000
0110
0000
0000
1001
,
0000
0100
0000
0010
0100
0000
0001
0000
,
0010
1000
0010
1000
,
0001
0000
0000
0000
0010
0000
0000
0000
0110
0000
0000
0110
0000
0000
1010
0000
,
0011
0000
0000
0000
1001
0000
0000
0000
0010
0000
0000
0001
0000
0000
0010
0000
,
0000
0100
0000
0001
0100
0000
1000
0000
,
0100
0001
0000
1000
0100
0000
0010
1000
,
0000
0100
0010
0000
0001
1000
0001
1000
,
0002
0000
0000
0100
0200
0000
0303
0000
,
1001
1001
0110
0110
,
0010
0001
0100
0000
1000
0010
0100
0000
,
0001
0100
0010
0000
1000
0100
0010
0000
,
0010
0001
0100
0000
0100
0010
1000
0000
,
0001
0010
0100
0010
0100
0010
0100
0000
,
2002
0000
0000
0000
,
0000
0000
0000
3003
;

//---------------dance-single - ----------------
#NOTES:
     dance-single:
     :
     Challenge:
     14:
     0.817,0.903,0.590,0.837,0.595: // measure 1
0000
0000
0000
0000
,  // measure 2
0000
0000
0000
0000
,  // measure 3
0021
0000
0000
0001
0000
0000
0000
0000
0001
0000
0000
0001
0000
0000
0000
0000
,  // measure 4
0001
0000
0000
0001
0000
0000
0000
0000
0001
0000
0000
0001
0000
0000
0000
0000
,  // measure 5
0100
0000
0000
0100
0000
0000
1000
0000
2030
0000
0000
0010
0000
0000
0010
0000
,  // measure 6
3020
0000
0000
0100
0000
0000
0100
0000
0230
0000
0000
0000
0302
0000
0000
0000
,  // measure 7
0023
0000
0000
0230
0000
0000
0302
0000
,  // measure 8
1000
0000
0000
1000
0000
0000
0000
0000
1000
0000
0000
1000
0000
0000
0000
0000
,  // measure 9
0100
0000
0000
0100
0000
0000
0000
0000
0023
0000
0000
1000
0000
0000
0000
0000
,  // measure 10
0230
0000
0000
0001
0000
0000
0000
0000
0320
0000
0000
0000
0230
0000
0000
0000
,  // measure 11
0302
0000
0000
0010
0000
0000
0000
0000
0010
0000
0000
0100
0000
0000
0000
0000
,  // measure 12
0100
0000
0000
0010
0000
0000
0000
0000
0010
0000
0000
0100
0000
0000
0000
0000
,  // measure 13
0100
0000
0000
0100
0000
0000
0000
0000
0023
0000
0000
1000
0000
0000
0000
0000
,  // measure 14
0230
0000
0000
0001
0000
0000
0320
0000
1000
0000
0000
0000
0230
0000
0000
0000
,  // measure 15
0302
0000
0000
0010
0000
0000
0010
0000
0023
0000
0000
0000
2030
0000
0000
0000
,  // measure 16
3002
0000
0000
0100
0000
0000
0100
0000
0023
0000
0000
0000
2030
0000
0000
0000
,  // measure 17
3200
0000
0000
0001
0000
0000
0010
0000
0320
0000
0000
0000
2030
0000
0000
0000
,  // measure 18
3200
0000
0000
0010
0000
0000
1000
0000
2300
0000
0000
0000
3020
0000
0000
0000
,  // measure 19
0130
0000
0100
0010
0000
1000
0000
0001
0000
0000
0010
0000
0100
0000
1000
0000
,  // measure 20
0001
0000
0100
0010
0000
1000
0000
1000
0000
0000
0000
0000
0101
0000
0000
0000
,  // measure 21
1000
0100
1000
0100
0000
0001
0000
0100
0000
0000
0010
0000
1000
0000
0100
0000
,  // measure 22
0001
0000
1000
0100
0000
0000
0101
0000
0000
0000
1100
0000
0000
0101
0000
0000
,  // measure 23
1000
0100
1000
0100
0000
0010
0000
0110
0000
0000
0001
0000
0100
0000
1000
0000
,  // measure 24
0100
0000
0001
0100
0000
0000
1100
0000
0000
0000
0110
0000
0001
0000
1000
0000
,  // measure 25
0110
0000
0000
1100
0000
0000
0101
0000
0000
0000
0010
0000
0000
0000
0100
0000
,  // measure 26
1001
0000
0010
0100
0010
0000
1000
0100
1000
0100
1000
0000
0001
0100
0001
0000
,  // measure 27
0010
0001
0010
0002
0000
0100
0000
0100
0000
0000
0010
0000
0010
0000
0000
0000
,  // measure 28
1000
0000
0000
0100
0000
0100
0000
0100
0000
0000
0000
0000
2003
0000
0000
0000
,  // measure 29
3020
0000
0000
0001
0000
0001
0000
0001
0000
0000
0100
0000
0100
0000
0001
0000
,  // measure 30
0100
0000
0000
1000
0000
0000
0100
0000
0000
0000
0031
0000
2000
0010
0000
0000
,  // measure 31
3200
0000
0000
0001
0000
0010
0000
0001
0000
0000
0010
0000
0010
0000
0001
0000
,  // measure 32
0001
0000
0000
0010
0000
0000
0302
0000
0000
0000
2003
0000
0010
0000
0100
0000
,  // measure 33
3020
0000
0000
0100
0000
0000
0200
0000
0000
0000
0330
0000
0000
0000
1000
0100
,  // measure 34
0020
2030
3200
0302
,  // measure 35
0023
0000
0000
0001
0000
0000
0001
0000
0032
0000
0000
0100
0000
0000
0100
0000
,  // measure 36
0203
0000
0000
1000
0000
0000
1000
0000
2300
0000
0000
0001
0000
0000
0001
0000
,  // measure 37
3002
0000
0000
0010
0000
0000
0023
0000
0100
0000
0000
0000
0230
0000
0000
0000
,  // measure 38
0302
0010
0010
0013
0000
0000
0200
0000
,  // measure 39
0301
0000
1000
0010
1000
0000
0100
0001
0200
0000
0000
0000
0320
0000
0000
0000
,  // measure 40
1030
0000
0001
0010
0001
0000
0100
0010
0200
0000
0000
0000
0302
0000
0000
0000
,  // measure 41
1003
0000
0010
0100
0010
0000
1000
0100
2000
0000
0100
0000
3020
0000
0100
0000
,  // measure 42
0032
0000
0000
1000
0000
0000
0100
0000
0203
0000
0000
0000
0000
0000
0000
0000
,  // measure 43
0320
2030
3200
0302
,  // measure 44
0013
0000
0000
0000
0011
0000
0000
0000
0110
0000
0000
1100
0000
0000
1100
0000
,  // measure 45
0000
0000
0100
0000
0010
0000
0001
0000
0110
0000
0000
1001
0000
0000
1001
0000
,  // measure 46
0110
0000
0000
0000
0000
0000
1100
0000
0010
0000
1001
0000
0001
1000
0001
0000
,  // measure 47
1010
0000
0100
1000
0100
0000
1000
0000
1000
0000
0000
1000
0000
0000
1001
0000
,  // measure 48
1001
0000
0000
0000
1001
0000
0000
0000
1001
0000
0000
1001
0000
0000
0110
0000
,  // measure 49
0000
0000
1000
0000
1000
0000
1000
0000
1000
0000
0000
1000
0000
0000
1001
0000
,  // measure 50
0000
0000
0010
0100
0010
0000
1000
0000
0001
1000
0001
0000
0110
0000
0001
1000
,  // measure 51
0001
0000
1001
0000
1001
0000
0000
0000
1000
0100
1000
0100
0001
0100
0001
0100
,  // measure 52
0002
0000
0000
0100
0203
0000
0000
0000
,  // measure 53
0320
2030
3200
0302
,  // measure 54
0023
1000
0230
0001
,  // measure 55
0320
1000
0230
1000
,  // measure 56
0302
0000
0000
0023
0000
0000
2030
0000
,  // measure 57
3200
0010
0010
0310
,  // measure 58
2001
0000
0100
0010
,  // measure 59
3002
0000
0010
0203
,  // measure 60
1300
0000
0010
1000
0010
0000
0100
0001
0100
0000
0010
1000
0010
0000
0100
0000
,  // measure 61
1010
0000
0000
0101
0000
0000
0110
0000
2001
0000
0000
0000
0000
0000
0000
0000
,  // measure 62
3020
0230
2300
3002
,  // measure 63
0103
0000
0000
0000
0011
0000
0000
0000
0110
0000
0000
1100
0000
0000
1100
0000
,  // measure 64
0000
0000
0100
0000
0010
0000
0001
0000
0110
0000
0000
1001
0000
0000
1001
0000
,  // measure 65
0110
0000
0000
0000
0000
0000
1100
0000
0010
0000
1001
0000
0001
1000
0001
0000
,  // measure 66
1010
0000
0100
1000
0100
0000
1000
0000
1000
0000
0000
1000
0000
0000
1001
0000
,  // measure 67
1001
0000
0000
0000
1001
0000
0000
0000
1001
0000
0000
1001
0000
0000
0110
0000
,  // measure 68
0000
0000
1000
0000
1000
0000
1000
0000
1000
0000
0000
1000
0000
0000
1001
0000
,  // measure 69
0000
0000
0010
0100
0010
0000
1000
0000
0001
1000
0001
0000
0110
0000
0001
1000
,  // measure 70
0001
0000
1001
0000
1001
0000
0000
0000
1000
0100
1000
0100
0001
0100
0001
0100
,  // measure 71
0002
0000
0000
0100
0203
0000
0000
0000
,  // measure 72
0320
0030
0000
0000
0000
0000
0000
0000
0000
0000
0000
0000
0000
0000
0000
0000
0000
0000
0000
0000
0000
0000
0000
0000
0000
0000
0000
0000
0000
0000
0000
0000
0000
0000
0000
0000
0000
0000
0000
0000
0000
0000
0000
0000
0000
0000
0000
0000
0110
0000
0000
0000
0000
0000
0000
0000
0000
0000
0000
0000
0000
0000
0000
0000
0000
0000
0000
0000
0000
0000
0000
0000
0000
0000
0000
0000
0000
0000
0000
0000
0000
0000
0000
0000
0000
0000
0000
0000
0000
0000
0000
0000
0000
0000
0000
0000
0110
0000
0000
0000
0000
0000
0000
0000
0000
0000
0000
0000
0000
0000
0000
0000
0000
0000
0000
0000
0000
0000
0000
0000
0000
0000
0000
0000
0000
0000
0000
0000
0000
0000
0000
0000
0000
0000
0000
0000
0000
0000
0000
0000
0000
0000
0000
0000
0110
0000
0000
0000
0000
0000
0000
0000
0000
0000
0000
0000
0000
0000
0000
0000
0000
0000
0000
0000
0000
0000
0000
0000
0000
0000
0000
0000
0000
0000
0000
0000
0000
0000
0000
0000
0000
0000
0000
0000
0000
0000
0000
0000
0000
0000
0000
0000
,  // measure 73
0001
0000
0100
0001
0000
0100
0010
0000
1000
0000
0010
1000
0000
0001
1000
0000
,  // measure 74
0100
0000
0001
0100
0000
0001
0100
0000
0010
0000
1000
0100
0000
1000
0010
0000
,  // measure 75
0100
0000
0001
0100
0000
0010
0100
0000
1000
0000
0001
0100
0000
0010
0100
0000
,  // measure 76
1000
0100
1000
0000
0001
0100
0001
0000
1000
0100
0010
0001
1000
0100
0010
0001
;

//---------------dance-double - ----------------
#NOTES:
     dance-double:
     :
     Challenge:
     14:
     0.686,0.758,0.675,0.732,0.190:
00000000
00000000
00000000
00000000
,
00000000
00000000
00000000
00000000
,
00200000
00001000
00010000
00001000
,
00010000
00001000
00010000
00001000
,
00010000
00001000
00320000
00000100
,
00032000
00000000
00000000
00003020
00000000
00000000
00000130
00000001
,
00000020
00000000
00000000
00020030
00000000
00000000
00032000
00000000
,
01000000
00100000
01000000
00100000
,
01000000
00100000
02003000
00010000
,
03200000
10000000
02300000
03002000
,
00023000
00000010
00000100
00000010
,
00000100
00000010
00000100
00000010
,
00000100
00000010
00030200
00001000
,
00020300
00001000
02030000
03200000
,
20300000
00000000
30200000
00302000
,
00023000
00000000
00030020
00000230
,
00002300
00000000
00003002
00000023
,
00002030
00000000
00000100
00013000
,
00020000
00001000
00001000
00000000
00001000
00001000
00001000
00000000
,
00001000
00001000
00001000
00001000
00031000
00000000
00110000
00000000
,
02100000
00000000
00100000
00100000
00100000
00000000
00100000
00100000
,
00100000
00000000
00000000
00000000
00010000
00000000
00001000
00000000
00000000
00000000
03010000
00000000
00000000
00002000
00000000
00000000
,
00010000
00000000
00100000
00100000
00100000
00000000
00010000
00010000
,
00023000
00000000
00000100
00000100
00000000
00000100
00001000
00000000
,
00031000
00000000
00000000
00011000
00000000
00000000
00011000
00000000
00000000
00000000
00000000
00000000
00000000
00000000
00000000
00000000
,
00110000
00000000
00001000
00000100
00001000
00000000
00110000
00000000
10000000
01000000
10000000
00000000
01100000
00000000
10000000
00000000
,
00200000
00001000
00010000
00001000
,
00010000
00001000
00320000
00030020
,
00000230
00001000
00000010
00001000
,
00000010
00001000
00000320
00020030
,
00032000
00100000
00010000
00100000
,
00023000
00000000
01000000
00000000
00100000
00000000
01000000
01000000
,
20030000
00100000
01000000
00010000
,
30100000
01010000
00101000
00001100
,
00000020
00000000
00000000
00000001
00000000
00000000
00000001
00000000
00000032
00000000
00000000
00000100
00000000
00000000
00000100
00000000
,
00002003
00000000
00000000
00000010
00000000
00000000
00000010
00000000
00003020
00000000
00000000
00000100
00000000
00000000
00000100
00000000
,
00000230
00000000
00000001
00000302
00000000
00001000
00002003
00000000
,
00000100
00000000
00010000
00000000
00000100
00000000
00003200
00010000
,
00200300
01000000
20300000
30020000
,
00230000
00010000
00302000
00023000
,
00030200
00001000
00020300
00032000
,
02003000
00000000
00000000
00010000
00000000
00000000
00010000
00000000
03200000
00000000
00000000
00000000
00000000
00000000
00000000
00000000
,
20300000
00100000
30010000
00011000
,
00100000
00000000
00000000
00000000
00100000
00000000
00000000
00000000
00100000
00000000
00000000
00100000
00000000
00000000
00011000
00000000
,
00000000
00000000
00110000
00000000
00000000
00000000
01001000
00000000
01001000
00000000
00000000
00110000
00000000
00000000
10000000
00000000
,
11000000
00100000
10000000
00010000
10010000
00100000
10000000
11000000
,
10000000
00000000
10000000
00000000
10000000
00000000
00000000
00000000
00101000
00000000
00000000
00101000
00000000
00000000
00101000
00000000
,
00010000
00000000
00000000
00000000
00001000
00000000
00000000
00000000
00001000
00000000
00000000
00001000
00000000
00000000
00001100
00000000
,
00000000
00000000
00000100
00000000
00001010
00000000
00001010
00000000
00000100
00000000
00000000
00001010
00000000
00000000
00001010
00000000
,
00000000
00000000
00000001
00000100
00000001
00000000
00000010
00000000
00001000
00000100
00001000
00000000
00010000
00000000
00001000
00100000
,
00001000
00000000
00100000
00000000
01000000
00000000
00010000
00000000
10000000
01000000
10000000
00000000
00100000
01000000
00100000
00000000
,
00020000
00000000
00000000
00001000
00002000
00000000
00033000
00000000
,
00110000
00011000
00001100
00011000
,
00200000
00000000
20300000
00000000
,
30020000
00000000
00230000
00000000
,
00302000
00000000
00000000
00023000
00000000
00000000
00030200
00000000
,
00001000
00000001
00001000
00000010
,
00002300
00000000
01003000
00110000
,
20100000
00000000
30010000
00110000
,
00021000
00000000
00030100
00001100
,
00000110
00000000
00000000
00001000
00000000
00000000
00010000
00000000
02200000
00000000
00000000
00000000
03300000
00000000
00000000
00000000
,
20000000
30200000
01300000
00011000
,
00100000
00000000
00000000
00000000
00100000
00000000
00000000
00000000
00100000
00000000
00000000
00100000
00000000
00000000
00011000
00000000
,
00000000
00000000
00110000
00000000
00000000
00000000
01001000
00000000
01001000
00000000
00000000
00110000
00000000
00000000
10000000
00000000
,
11000000
00100000
10000000
00010000
10010000
00100000
10000000
11000000
,
10000000
00000000
10000000
00000000
10000000
00000000
00000000
00000000
00101000
00000000
00000000
00101000
00000000
00000000
00101000
00000000
,
00010000
00000000
00000000
00000000
00001000
00000000
00000000
00000000
00001000
00000000
00000000
00001000
00000000
00000000
00001100
00000000
,
00000000
00000000
00000100
00000000
00001010
00000000
00001010
00000000
00000100
00000000
00000000
00001010
00000000
00000000
00001010
00000000
,
00000000
00000000
00000001
00000100
00000001
00000000
00000010
00000000
00001000
00000100
00001000
00000000
00010000
00000000
00001000
00100000
,
00001000
00000000
00100000
00000000
01000000
00000000
00010000
00000000
10000000
01000000
10000000
00000000
00100000
01000000
00100000
00000000
,
00020000
00000000
00000000
00001000
00002000
00000000
00033000
00000000
,
00110000
00011000
00001100
00011000
,
00110000
00000000
00000000
00110000
00000000
00000000
00000000
00000000
00001100
00000000
00000000
00001100
00000000
00000000
00000000
00000000
,
01001000
00000000
00000000
01001000
00000000
00000000
00000000
00000000
00010010
00000000
00000000
00010010
00000000
00000000
00000000
00000000
,
00011000
00000000
00000000
00011000
00000000
00000000
00000000
00000000
01100000
00000000
00000000
01100000
00000000
00000000
00000000
00000000
,
00010000
00000000
00001000
00000000
00000100
00000000
00000010
00000000
00000001
00000010
00000100
00001000
00000010
00001000
00000100
00010000
;
