#TITLE:DIAMOND CROSSING (tpz ANTI-Overcute Remix);
#SUBTITLE:;
#ARTIST:t+pazolite;
#TITLETRANSLIT:;
#SUBTITLETRANSLIT:;
#ARTISTTRANSLIT:;
#GENRE:;
#CREDIT:;
#MENUCOLOR:;
#METERTYPE:DDR;
#BANNER:DIAMOND CROSSING (tpz ANTI-Overcute Remix).png;
#BACKGROUND:DIAMOND CROSSING (tpz ANTI-Overcute Remix)-bg.png;
#LYRICSPATH:;
#CDTITLE:;
#MUSIC:DIAMOND CROSSING (tpz ANTI-Overcute Remix).ogg;
#OFFSET:-0.045;
#SAMPLESTART:104.055;
#SAMPLELENGTH:15.000;
#SELECTABLE:YES;
#LISTSORT:;
#BPMS:0.000=240.000,96.000=120.000,126.000=240.000,128.000=120.000,158.000=240.000;
#STOPS:126.000=0.250
,127.000=0.250
,158.000=0.500
;
#BGCHANGES:;
#ATTACKS:;

//---------------dance-single - ----------------
#NOTES:
     dance-single:
     :
     Hard:
     13:
     0.705,0.969,0.288,0.395,0.182: // measure 1
0000
0000
0000
0000
,  // measure 2
0000
0000
0000
0000
,  // measure 3
0000
0000
0000
0000
,  // measure 4
0000
0000
0000
0000
,  // measure 5
0000
0000
0000
0000
,  // measure 6
0000
0000
0000
0000
,  // measure 7
0000
0000
0000
0000
,  // measure 8
0000
0000
0000
0000
,  // measure 9
0000
0000
0000
0000
,  // measure 10
0000
0000
0000
0000
,  // measure 11
0000
0000
0000
0000
,  // measure 12
0000
0000
0000
0000
,  // measure 13
1001
0000
1000
0000
0001
0100
0000
0001
,  // measure 14
0000
0100
0001
1000
0001
0100
0000
1000
,  // measure 15
0010
0000
1000
0100
1000
0000
0001
0100
,  // measure 16
0001
0000
0000
0000
1000
0000
0100
0000
1000
0000
0000
0001
0000
0000
1000
0000
,  // measure 17
0001
0000
0100
0000
0001
0100
0000
0001
,  // measure 18
0000
1000
0001
1000
0001
1000
0000
0010
,  // measure 19
1000
0100
1000
0001
0100
0001
1000
0010
,  // measure 20
1000
0001
0010
0001
1000
0100
0010
0001
,  // measure 21
0200
0000
0300
0010
0020
0000
0030
0000
,  // measure 22
0002
2003
3002
0203
,  // measure 23
0320
0000
0000
0030
,  // measure 24
2002
0000
3003
0110
,  // measure 25
2000
0000
3000
0001
0100
0000
0010
0000
1000
0000
0100
0000
1000
0000
0001
0000
,  // measure 26
2000
0000
3000
0010
0100
0000
0001
0000
0100
0000
1000
0010
0100
0010
1000
0000
,  // measure 27
0200
0000
0300
0001
0100
0000
0010
0000
1000
0000
0001
0000
1000
0000
0010
0000
,  // measure 28
0100
0000
0000
0001
0100
0000
0001
0000
1000
0000
0001
1000
0001
1000
0001
0000
,  // measure 29
2000
0000
3000
0010
0100
0000
0010
0000
1000
0000
0001
0000
1000
0001
1000
0000
,  // measure 30
0002
0000
0003
1000
0001
0000
0100
0000
0010
0000
1000
0100
1000
0100
1000
0000
,  // measure 31
0002
0000
0003
0100
0010
0000
1001
0000
1000
0000
0010
0100
0010
0000
1001
0000
,  // measure 32
0001
0100
0001
0000
1000
0100
1000
0000
1001
0000
0000
0000
0110
0000
0000
0000
,  // measure 33
1000
0010
1000
0010
0000
0100
0000
0001
0000
0001
0100
0000
0010
0000
1000
0000
,  // measure 34
0100
0000
1000
0001
0000
0001
0000
1000
0000
0000
0010
0000
0100
0000
0000
0000
,  // measure 35
0001
0100
0001
0100
0000
0010
0000
1000
0000
1000
0010
0000
0100
0000
0010
0000
,  // measure 36
0100
0000
0001
0100
0000
0000
1001
0000
0000
0000
0001
0000
0100
0000
0010
0000
,  // measure 37
1000
0100
1000
0100
0000
0001
0000
1000
0000
1000
0001
0000
1000
0000
0100
0000
,  // measure 38
1000
0000
0010
1000
0000
1000
0000
0010
0000
0000
0100
0000
0001
0000
0000
0000
,  // measure 39
0100
0010
0100
0010
0000
1000
0000
0001
0000
1000
0010
0000
1000
0000
0100
0000
,  // measure 40
1000
0000
0010
1000
0000
0000
0001
0000
2002
0000
0000
0000
3003
0000
0000
0000
,  // measure 41
1010
0000
1000
0100
1000
0000
0001
0100
,  // measure 42
0001
0000
0010
0001
0010
0000
1000
0010
,  // measure 43
1000
0000
0001
0100
0001
0000
1000
0100
,  // measure 44
1000
0000
0001
0010
0001
0000
1000
0100
,  // measure 45
1100
0101
1100
0101
,  // measure 46
0011
1010
0011
1010
,  // measure 47
0110
1001
0110
1001
,  // measure 48
1000
0002
2003
3001
,  // measure 49
1001
0000
2000
0000
3001
0200
0000
0320
,  // measure 50
0000
1030
0010
1000
0010
2000
0000
3001
,  // measure 51
0100
0000
0000
0100
0001
0000
0000
0001
,  // measure 52
1000
0010
1000
0010
,  // measure 53
0100
0000
0001
0000
1000
0001
0000
0001
,  // measure 54
0000
1000
0001
1000
0001
1000
0000
0010
,  // measure 55
0100
0000
0000
0100
0001
0000
0100
0001
,  // measure 56
0200
0000
0000
0310
0200
0000
0310
0000
,  // measure 57
1001
0000
0100
0000
0010
1000
0000
1000
,  // measure 58
0000
0001
0100
0001
0100
0001
0000
1000
,  // measure 59
0100
0000
0001
0100
0001
0000
1000
0010
,  // measure 60
1000
0000
0001
0100
0001
0000
0100
0010
,  // measure 61
0100
0000
0001
0000
1000
0100
0000
1000
,  // measure 62
0000
0001
0100
0001
0100
0001
0000
1000
,  // measure 63
0100
1000
0000
1000
0010
0000
0010
0100
,  // measure 64
0010
0000
0000
0100
0001
0000
1000
0000
,  // measure 65
1001
0000
0100
0000
1000
0001
0000
1000
,  // measure 66
0001
0000
0100
0000
0010
0100
0000
0010
,  // measure 67
0100
0000
1001
0000
1000
0010
0000
1000
,  // measure 68
0010
0000
0101
0000
0010
0100
0000
0010
,  // measure 69
0100
0000
0020
0000
0130
0001
0020
0000
,  // measure 70
0031
1000
0200
0000
1300
0001
0200
0000
,  // measure 71
0310
1000
0010
1000
0001
0100
0001
0100
,  // measure 72
0002
0000
0003
1001
,  // measure 73
1100
0000
0001
0100
0001
0000
1000
0100
,  // measure 74
1000
0000
0001
0010
0001
0100
0001
1000
,  // measure 75
0001
0000
1000
0100
1000
0000
0001
0100
,  // measure 76
0001
0000
1000
0010
1000
0100
1000
0010
,  // measure 77
1000
0000
0001
0100
0001
0000
0100
0010
,  // measure 78
0100
0000
0001
1000
0001
0100
0001
1000
,  // measure 79
0001
0000
1000
0100
2000
0000
3010
1000
,  // measure 80
0020
0230
0320
0130
,  // measure 81
0001
0000
1000
0001
1000
0000
0001
0100
,  // measure 82
0001
0000
1000
0100
1000
0100
1000
0010
,  // measure 83
1000
0000
0001
0100
0001
0000
1000
0010
,  // measure 84
0100
0000
0001
0100
0010
1000
0010
0100
,  // measure 85
0001
0100
0001
0100
0010
1000
0010
1000
,  // measure 86
0100
1000
0100
1000
0001
1000
0001
1000
,  // measure 87
0020
2030
3002
0203
,  // measure 88
0301
0000
1000
0001
1000
0001
1000
0000
,  // measure 89
2002
0000
0000
0000
,  // measure 90
0000
0000
0000
0000
0000
3003
1001
0000
,  // measure 91
1100
0000
1000
0010
1000
0000
0001
0100
,  // measure 92
0001
0000
0000
0000
1000
0000
0100
0000
1000
0000
0000
0010
0000
0000
1000
0000
,  // measure 93
0010
0000
0100
0000
0001
0100
0000
0001
,  // measure 94
0000
0100
0010
0100
0010
0100
0000
0001
,  // measure 95
1000
0001
0100
0001
0010
0001
0100
0001
,  // measure 96
2000
0000
0000
3010
0100
0000
1001
0000
,  // measure 97
0110
0000
1001
0000
1000
0100
0000
1100
,  // measure 98
0000
0001
0100
0001
0100
0010
0000
1000
,  // measure 99
0100
0000
1000
0010
0100
0000
0100
0001
,  // measure 100
0010
0000
0000
0000
0010
0000
0001
0000
0100
0000
0000
0001
0000
0000
0100
0000
,  // measure 101
0001
0000
0010
0000
0001
0100
0000
0010
,  // measure 102
0000
1000
0010
1000
0100
1000
0000
0010
,  // measure 103
0100
0010
1000
0010
0100
0001
0100
0010
,  // measure 104
1000
0010
0100
0001
0100
0010
0100
0010
,  // measure 105
0200
0000
0000
0301
0002
0000
0000
0000
,  // measure 106
2003
3020
0230
0302
,  // measure 107
2000
0000
3003
0000
,  // measure 108
0220
0000
0000
0330
,  // measure 109
2002
0000
0000
0000
,  // measure 110
0000
0000
0000
0000
,  // measure 111
0000
0000
0000
0000
,  // measure 112
3003
0000
0000
0000
;

//---------------dance-double - ----------------
#NOTES:
     dance-double:
     :
     Hard:
     13:
     0.615,0.843,0.220,0.266,0.178:
00000000
00000000
00000000
00000000
,
00000000
00000000
00000000
00000000
,
00000000
00000000
00000000
00000000
,
00000000
00000000
00000000
00000000
,
00000000
00000000
00000000
00000000
,
00000000
00000000
00000000
00000000
,
00000000
00000000
00000000
00000000
,
00000000
00000000
00000000
00000000
,
00000000
00000000
00000000
00000000
,
00000000
00000000
00000000
00000000
,
00000000
00000000
00000000
00000000
,
00000000
00000000
00000000
00000000
,
00100000
00000000
01000000
00000000
00010000
10000000
00000000
10000000
,
00000000
00010000
01000000
00000000
00010000
00100000
00000000
00001000
,
00010000
00000000
00000000
00000100
00001000
00000000
00000000
00000010
,
00000100
00000000
00000000
00000000
00000001
00000000
00000000
00000000
00001000
00000000
00000000
00000010
00000000
00000000
00001000
00000000
,
00000010
00000000
00001000
00000000
00000100
00010000
00000000
00010000
,
00000000
00000100
00010000
00000000
00001000
00010000
00000000
00000000
,
00001000
00000000
00100000
00001000
00000000
00100000
00010000
00000000
,
10000000
00010000
00000000
10000000
01000000
00000000
10000000
00000000
,
00200000
00000000
00300000
01000000
02000000
00000000
03000000
00000000
,
20000000
30200000
02300000
03020000
,
00230000
00000000
00000000
00300000
,
00022000
00000000
00033000
00011000
,
00010000
00000000
00000000
00010000
00000100
00000000
00000000
00000100
00001000
00000000
00000010
00000000
00001000
00000000
00000010
00000000
,
00000100
00000000
00000000
00000100
00000001
00000000
00000000
00000001
00001000
00000000
00000001
00001000
00000001
00001000
00000001
00001000
,
00000001
00000000
00000000
00000001
00001000
00000000
00000000
00001000
00000100
00000000
00010000
00000000
00001000
00000000
00100000
00000000
,
00010000
00000000
00000000
00010000
01000000
00000000
00000000
01000000
00100000
00000000
10000000
01000000
10000000
00000000
00100000
00000000
,
01000000
00000000
00000000
01000000
00010000
00000000
00000000
00010000
00100000
00000000
00001000
00000000
00010000
00000000
00000010
00000000
,
00001000
00000000
00000000
00001000
00000001
00000000
00000000
00000001
00000100
00000000
00000010
00000100
00000010
00000100
00000010
00000000
,
00000100
00000000
00000000
00000100
00000001
00000000
00000000
00000001
00001000
00000000
00000100
00000000
00010000
00000000
00001000
00000000
,
00010000
00000000
00001000
00100000
00001000
00000000
00010000
00000000
00011000
00000000
00000000
00000000
00110000
00000000
00000000
00000000
,
11000000
00000000
10000000
01000000
00000000
10000000
00000000
01000000
00000000
00000000
00100000
00000000
00001000
00000000
00010000
00000000
,
00001000
00000000
00000000
00010000
00000000
00000100
00000000
00001000
00000000
00000000
00000010
00000000
00000100
00000000
00000000
00000000
,
00000001
00000100
00000001
00000100
00000000
00000001
00000000
00000100
00000000
00000000
00000010
00000000
00001000
00000000
00000100
00000000
,
00001000
00000000
00000000
00000100
00000000
00000000
00010000
00000000
00000000
00000000
00001000
00000000
01000000
00000000
00010000
00000000
,
10000000
00000000
00100000
10000000
00000000
00100000
00000000
01000000
00000000
00000000
00010000
00000000
00100000
00000000
00001000
00000000
,
00010000
00000000
00000000
00000100
00000000
00001000
00000000
00000001
00000000
00000000
00001000
00000000
00000001
00000000
00000000
00000000
,
00001000
00000000
00000000
00000010
00000000
00010000
00000000
00001000
00000000
00000000
00001000
00000000
00100000
00000000
00010000
00000000
,
01000000
00000000
00000000
00100000
00000000
00000000
10000000
00000000
20020000
00000000
00000000
00000000
30030000
00000000
00000000
00000000
,
10100000
00000000
00100000
01000000
00010000
00000000
01000000
00000000
,
00001000
00000000
00010000
00000100
00001000
00000000
00000001
00000000
,
00001000
00000000
00000010
00010000
00000100
00000000
00010000
00000000
,
00001000
00000000
00100000
00010000
01000000
00000000
00100000
00000000
,
11000000
00000000
10000000
00010000
00100000
00000000
00100000
00001000
,
00010000
00000000
00010000
00000100
00001000
00000000
00001000
00000001
,
00000100
00000000
00000100
00000001
00001000
00000000
00001000
00000100
,
00010000
00000000
00011000
00000000
00011000
00000000
00002000
00003000
,
00011000
00000000
00010000
00000000
00001000
00100000
00000000
00100000
,
00000000
00010000
01000000
00000000
00010000
01000000
00000000
00100000
,
10000000
00000000
00000000
10000000
01000000
00000000
00000000
01000000
,
00010000
00000000
00000000
00000000
00100000
00000000
00000000
00000000
00001000
00000000
00000000
00010000
00000000
00000000
00001000
00000000
,
00010000
00000000
00000100
00000000
00001000
00000010
00000000
00000010
,
00000000
00000100
00000001
00000000
00000001
00000100
00000000
00000010
,
00001000
00000000
00001000
00000100
00001000
00000000
00000100
00010000
,
00000200
00000000
00010300
00000000
,
00010000
00000000
00001000
00000000
00010000
00001000
00000000
00100000
,
00000000
00010000
00000000
01000000
00100000
01000000
00000000
10000000
,
00100000
00000000
00000000
00100000
01000000
00000000
00000000
01000000
,
00010000
00000000
00000000
00000000
00100000
00000000
00000000
00000000
00001000
00000000
00000000
00010000
00000000
00000000
00001000
00000000
,
00010000
00000000
00000010
00000000
00001000
00000010
00000000
00000100
,
00000000
00000001
00000100
00000000
00000010
00001000
00000000
00000100
,
00010000
00001000
00010000
00001000
00100000
00001000
00100000
00010000
,
00200000
00000000
00000000
00310000
02000000
00000000
03100000
00000000
,
11000000
00000000
01010000
00000000
10000000
01000000
00000000
00010000
,
01000000
00000000
00001000
00000000
00010000
00001000
00000000
00001000
,
00010000
00000000
00000100
00000000
00001000
00000010
00000000
00000010
,
00001000
00000000
00000001
00000000
00000100
00000010
00000000
00000010
,
00000100
00000000
00000010
00001000
00000200
00000000
00010300
00000000
,
00001000
00000000
00100000
00001000
01000000
00000000
00020000
00000000
,
10030000
01000000
00100000
00000000
00100000
00010000
01000000
00000000
,
20020000
00000000
30030000
01100000
,
11000000
00000000
01000000
10000000
01000000
00000000
00010000
01000000
,
00010000
01000000
00001000
00010000
,
00000100
00000000
00001000
00000100
00001000
00000000
00000010
00001000
,
00000010
00000000
00001000
00000001
00001000
00000001
00001000
00000000
,
00000001
00000000
00001000
00000100
00001000
00000000
00000100
00010000
,
00000100
00000000
00010000
00001000
00010000
00000000
00001000
00000000
,
00100000
00000000
00010000
01000000
00010000
00000000
10000000
01000000
,
10000000
11000000
01010000
00110000
,
01010000
00000000
01000000
00010000
01000000
00000000
00010000
00000000
,
00100000
00000000
00001000
00010000
00000000
00001000
00010000
00000000
,
00001000
00000000
00010000
00000100
00010000
00000000
00000100
00000000
,
00001000
00000000
00000010
00001000
00000010
00001000
00000010
00000000
,
00000100
00000001
00001000
00000010
,
00010000
00001000
01000000
00010000
,
20000000
30200000
02300000
03020000
,
01030000
00000000
00100000
01000000
00100000
01000000
00100000
00000000
,
10020000
00000000
01000000
00000000
,
00100000
00000000
00030000
00011000
,
00011000
00010000
00000100
00001000
,
00000001
00000000
00001000
00000000
00000001
00000000
00001000
00000000
00000001
00000000
00000000
00001000
00000000
00000000
00000001
00000000
,
00001000
00000000
00000010
00000000
00010000
00000100
00000000
00000100
,
00000000
00010000
00001000
00010000
00001000
00010000
00000000
00001000
,
00100000
00000000
00010000
01000000
00010000
00000000
10000000
00100000
,
10000000
11000000
00010000
01010000
,
01100000
00000000
10010000
00000000
10000000
01000000
00000000
00010000
,
00000000
01000000
10000000
01000000
10000000
01000000
00000000
10000000
,
00010000
00000000
01000000
00000000
00001000
00000000
00010000
00001000
,
00010000
00000000
00000000
00000000
00000100
00000000
00000000
00000000
00001000
00000000
00000000
00000010
00000000
00000000
00001000
00000000
,
00000010
00000000
00001000
00000000
00000001
00001000
00000000
00000001
,
00000000
00001000
00000100
00000000
00010000
00001000
00000000
00100000
,
00010000
00100000
00010000
10000000
01000000
10000000
00010000
00100000
,
00010000
10000000
01000000
10000000
00100000
01000000
00010000
00000000
,
00200000
00000000
00000000
00001000
00002000
00000000
00303000
00000000
,
00020000
00030200
00002300
00003002
,
00000020
00000000
00000033
00000000
,
00002200
00000000
00000000
00003300
,
00022000
00000000
00000000
00000000
,
00000000
00000000
00000000
00000000
,
00000000
00000000
00000000
00000000
,
00033000
00000000
00000000
00000000
;

//---------------dance-single - ----------------
#NOTES:
     dance-single:
     :
     Medium:
     12:
     0.480,0.758,0.349,0.228,0.072:
0000
0000
0000
0000
,
0000
0000
0000
0000
,
0000
0000
0000
0000
,
0000
0000
0000
0000
,
0000
0000
0000
0000
,
0000
0000
0000
0000
,
0000
0000
0000
0000
,
0000
0000
0000
0000
,
0000
0000
0000
0000
,
0000
0000
0000
0000
,
0000
0000
0000
0000
,
0000
0000
0000
0000
,
1001
0000
0100
0000
0010
0000
0000
0001
,
0000
0100
0000
0010
0100
0010
0000
0000
,
1000
0000
0000
0010
1000
0000
0000
0001
,
1000
0001
0100
0001
,
1000
0000
0001
0000
1000
0000
0000
0100
,
0000
1000
0000
0001
1000
0001
0000
0000
,
1000
0100
0000
0100
0010
0000
0010
0001
,
0000
0001
0010
0000
1000
0000
0001
0000
,
0200
0300
0020
0030
,
1000
0001
1000
0002
,
2000
0000
0000
3003
,
0220
0000
0330
0000
,
1000
0000
0000
1000
0100
0000
0000
0100
0010
0000
0000
0010
0001
0000
0100
0000
,
0001
0000
0000
0001
0010
0000
0000
0010
0100
0000
0010
0000
0100
0000
0010
0000
,
1000
0000
0000
1000
0100
0000
0000
0100
0010
0000
0000
0010
0001
0000
0100
0000
,
0001
0000
0000
0001
0010
0000
0000
0010
0100
0000
0001
0000
1000
0000
0001
0000
,
1000
0000
0000
1000
0001
0000
0000
0001
1000
0000
0000
1000
0100
0000
0100
0000
,
1000
0000
0000
1000
0001
0000
0000
0001
1000
0000
0001
0000
0100
0000
0010
0000
,
1000
0000
0000
1000
0010
0000
0000
0010
0100
0000
0000
0100
0001
0000
0100
0000
,
0010
0000
0000
1000
0001
0000
0100
0000
1001
0000
0000
0000
0110
0000
0000
0000
,
1001
0000
1000
0000
1000
0001
1000
0000
,
0100
0000
0010
0000
0100
1000
0001
0000
,
0010
0000
0100
0000
0010
0001
1000
0000
,
0010
0000
1000
0000
0001
0010
0100
0000
,
1000
0000
0010
0000
0100
0010
0001
0000
,
1000
0000
0001
0000
0010
0100
1000
0000
,
0001
0100
0001
0000
1000
0100
1000
0000
,
0010
0100
0010
0000
2002
0000
3003
0000
,
1100
0001
0101
0000
,
0101
1000
1100
0000
,
1010
0001
0101
0000
,
0101
0100
1100
0000
,
1001
1000
1001
0001
,
0101
0100
0110
0010
,
1010
1000
1100
0000
,
0101
0002
0203
0301
,
2002
0000
0000
0000
,
3003
0000
0000
0000
,
0000
0000
0000
0000
,
0000
0000
0000
0000
,
0100
0000
0000
0000
0001
0000
0000
0001
,
0000
0001
0000
0000
0001
0000
0000
0000
,
1000
0000
0001
1000
,
0002
0000
2003
0000
,
3010
0000
0100
0000
0010
0000
0000
1000
,
0000
0001
1000
0000
,
0100
0000
0010
0000
,
0100
0010
0100
0000
,
0001
0000
1000
0000
0001
0000
0000
1000
,
0000
0001
1000
0000
,
0001
0100
1000
0100
,
0001
0000
1001
0000
,
1001
0000
0010
0000
,
1001
0000
0100
0000
,
1001
0010
0100
0000
,
1001
0100
0010
0000
,
1100
0100
0101
0001
,
0011
0010
1010
1000
,
1100
0110
0011
1001
,
0220
0000
0300
0030
,
1000
0100
1000
0100
,
1000
0000
0010
0000
1000
0010
1000
0000
,
0001
1000
0001
1000
,
0001
0000
0100
0001
0100
0001
0100
0000
,
0010
0100
0010
0100
,
0010
0000
1000
0000
0010
1000
0010
0000
,
1000
0001
1000
0001
,
2000
3200
0320
0031
,
0001
0000
0010
0001
0010
0000
0001
0000
,
0100
0000
0010
0100
0010
0000
0100
0000
,
0001
0000
1000
0001
1000
0000
0001
0000
,
0100
0010
1000
0100
,
1100
1000
1010
0010
,
0011
0001
0101
0000
,
1001
0000
0000
0000
,
0000
0010
0010
0100
,
2002
0000
3003
0000
,
0000
0000
0000
1001
,
1000
0000
0010
1000
0010
0000
1000
0000
,
0001
0100
0010
0000
,
0001
0000
1000
0000
0001
1000
0000
0001
,
0000
1000
0001
0000
1000
0000
0100
0000
,
0010
0000
0001
0000
0100
0000
0010
0100
,
0020
0000
0230
0300
,
0001
0000
0100
0000
0001
0100
0000
0001
,
0000
1000
0100
0000
1000
0000
0010
0000
,
0100
0000
0001
0100
0001
0000
0100
0001
,
0100
0010
2000
3000
,
0001
0000
0100
0000
0010
0100
0000
0010
,
0000
0100
0010
0000
0100
0000
0001
0000
,
0100
0010
0000
1000
0010
0000
0100
0010
,
0000
0100
0001
0000
0100
0000
0010
0000
,
1000
0000
0000
0001
0001
0000
0000
0000
,
1000
0010
0100
0001
,
2002
0000
3003
0000
,
0220
0000
0330
0000
,
2002
0000
0000
0000
,
0000
0000
0000
0000
,
0000
0000
0000
0000
,
3003
0000
0000
0000
;

//---------------dance-single - ----------------
#NOTES:
     dance-single:
     :
     Beginner:
     6:
     0.210,0.337,0.129,0.106,0.000:
0000
0000
0000
0000
,
0000
0000
0000
0000
,
0000
0000
0000
0000
,
0000
0000
0000
0000
,
0000
0000
0000
0000
,
0000
0000
0000
0000
,
0000
0000
0000
0000
,
0000
0000
0000
0000
,
0000
0000
0000
0000
,
0000
0000
0000
0000
,
0000
0000
0000
0000
,
0000
0000
0000
0000
,
0010
0000
0000
0000
,
0001
0000
0000
0000
,
0100
0000
0000
0000
,
1000
0000
0000
0000
,
0010
0000
0000
0000
,
1000
0000
0000
0000
,
0100
0000
0000
0000
,
0001
0000
0000
0000
,
0010
0000
0010
0000
,
0010
0000
0010
0000
,
0020
0000
0000
0000
,
0030
0000
0000
0000
,
0010
0000
1000
0000
,
0010
0000
0001
0000
,
0100
0000
1000
0000
,
0100
0000
0001
0000
,
1000
0000
0010
0000
,
0001
0000
0010
0000
,
1000
0000
0100
0000
,
0001
0000
0100
0000
,
2000
0000
3000
0000
,
0002
0000
0003
0000
,
2000
0000
3000
0000
,
0002
0000
0003
0000
,
0020
0000
0030
0000
,
0200
0000
0300
0000
,
0020
0000
0030
0000
,
0200
0000
0300
0000
,
0010
0000
0010
0000
,
0010
0000
1001
0000
,
0100
0000
0100
0000
,
0100
0000
1001
0000
,
0010
0010
0010
0000
,
0100
0100
0100
0000
,
0001
0001
0001
0000
,
1001
0000
0000
0000
,
2002
0000
0000
0000
,
3003
0000
0000
0000
,
0000
0000
0000
0000
,
0000
0000
0000
0000
,
0000
0000
0010
0000
,
0000
0000
0010
0000
,
0000
0000
0010
0000
,
0000
0000
0010
0000
,
1001
0000
0100
0000
,
0000
0000
0100
0000
,
0000
0000
0100
0000
,
0000
0000
0100
0000
,
1001
0000
0010
0000
,
0000
0000
0010
0000
,
0000
0000
0010
0000
,
0100
0000
0010
0000
,
1001
0000
0000
0000
,
1001
0000
0000
0000
,
1001
0000
0000
0000
,
1001
0000
0000
0000
,
1000
0000
0100
0000
,
0010
0000
0001
0000
,
0100
0100
0100
0200
,
0300
0000
0000
0000
,
0001
0000
0001
0001
,
0001
0000
0100
0000
,
1000
0000
1000
1000
,
1000
0000
0100
0000
,
0001
0000
0001
0001
,
0001
0000
0010
0000
,
1000
0000
1000
1000
,
1000
0000
0000
0000
,
0010
0000
0010
0010
,
0010
0000
1000
0000
,
0010
0000
0010
0010
,
0010
0000
0001
0000
,
0100
0100
0100
0000
,
0010
0010
0010
0000
,
1001
0000
0000
0000
,
0000
0010
0010
0000
,
1001
0000
0000
0000
,
0000
0000
0000
0000
,
1000
0000
0001
0000
,
1000
1000
1000
0000
,
0001
0000
1000
0000
,
0001
0001
0001
0000
,
0100
0000
0010
0000
,
1001
0000
1001
0000
,
0010
0000
0100
0000
,
0010
0010
0010
0000
,
0100
0000
0010
0000
,
0100
0100
0100
0000
,
0001
0000
1000
0000
,
0001
0001
0001
0000
,
1000
0000
0001
0000
,
1000
1000
1000
0000
,
0010
0000
0100
0000
,
0001
0000
1000
0000
,
1001
0000
0000
0000
,
0110
0000
0000
0000
,
2002
0000
0000
0000
,
0000
0000
0000
0000
,
0000
0000
0000
0000
,
3003
0000
0000
0000
;

//---------------dance-double - ----------------
#NOTES:
     dance-double:
     :
     Easy:
     9:
     0.374,0.590,0.213,0.197,0.000:
00000000
00000000
00000000
00000000
,
00000000
00000000
00000000
00000000
,
00000000
00000000
00000000
00000000
,
00000000
00000000
00000000
00000000
,
00000000
00000000
00000000
00000000
,
00000000
00000000
00000000
00000000
,
00000000
00000000
00000000
00000000
,
00000000
00000000
00000000
00000000
,
00000000
00000000
00000000
00000000
,
00000000
00000000
00000000
00000000
,
00000000
00000000
00000000
00000000
,
00000000
00000000
00000000
00000000
,
00100000
00000000
01000000
00000000
,
00100000
10000000
00100000
00000000
,
01000000
00000000
00100000
00000000
,
01000000
00010000
01000000
00000000
,
00001000
00000000
00010000
00000000
,
00001000
00010000
00001000
00000000
,
00010000
00001000
00010000
00000000
,
00000010
00000000
00000100
00000000
,
00000001
00000000
00001000
00000000
,
00000010
00001000
00000100
00000000
,
00022000
00000000
00000000
00033000
,
00000000
00000000
00000000
00000000
,
00010000
00000000
00001000
00000000
00010000
00001000
00010000
00000000
,
00001000
00000000
01000000
00000000
00010000
01000000
00010000
00000000
,
10000000
00000000
00010000
00000000
10000000
01000000
00100000
00000000
,
01000000
00010000
00100000
00000000
00001000
00010000
00001000
00000000
,
00010000
00000000
00000100
00000000
00010000
00000100
00010000
00000000
,
00000010
00000000
00001000
00000000
00000001
00001000
00000001
00000000
,
00000100
00000001
00000100
00000000
00000010
00001000
00000100
00000000
,
00000100
00010000
00001000
00000000
00011000
00000000
00011000
00000000
,
00002000
00000000
00100000
00000000
00100000
00100000
00103000
00000000
,
00200000
00010000
00310000
00000000
,
20000000
00000000
01000000
00000000
01000000
01000000
31000000
00000000
,
00200000
00000000
00010000
00310000
00000000
00001000
00001000
00000000
,
00010000
00000000
00000100
00000000
00001000
00001000
00001000
00000000
,
00000010
00000000
00000100
00000000
00000001
00000001
00000001
00000000
,
00001000
00000000
00000100
00000000
00010000
00010000
00010000
00000000
,
00001000
00010000
00001000
00000000
00022000
00000000
00033000
00000000
,
00011000
00000000
00110000
00000000
,
01100000
00000000
11000000
00000000
,
11000000
00000000
01100000
00000000
,
00110000
00000000
00011000
00000000
,
00001100
00000000
00000101
00000000
,
00000011
00000000
00001010
00000000
,
00001100
00000000
00011000
00000000
,
00011000
00000000
00000000
00000000
,
00022000
00000000
00000000
00000000
,
00033000
00000000
00000000
00000000
,
00000000
00000000
00000000
00000000
,
00000000
00000000
00000000
00000000
,
00000000
00000000
00010000
00000000
,
00000000
00000000
00001000
00000000
,
00000000
00000000
00010000
00000000
,
00002000
00000000
00020000
00033000
,
00001000
00010000
00001000
00000000
,
00100000
00010000
00100000
00000000
,
10000000
01000000
10000000
00000000
,
00010000
00100000
00010000
00000000
,
00000100
00010000
00000100
00000000
,
00001000
00000001
00001000
00000000
,
00000010
00001000
00000010
00000000
,
00001100
00000000
00011000
00000000
,
00010000
00001000
00002000
00000000
,
00103000
00100000
00200000
00000000
,
00310000
00010000
00020000
00000000
,
10030000
10000000
20000000
00000000
,
30100000
02000000
03010000
00200000
,
00301000
00020000
00030100
00002000
,
00003100
00000010
00000001
00001000
,
00001001
00000000
00000000
00000000
,
00000010
00001000
00000100
00001000
,
00000100
00010000
00001000
01000000
,
00010000
01000000
00010000
01000000
,
00100000
10000000
01000000
00100000
,
00001000
00010000
00001000
00010000
,
00000100
00001000
00000001
00001000
,
00000010
00001000
00000100
00010000
,
00001000
00000000
00011000
00000000
,
00010000
00001000
00010000
00001000
,
00100000
00010000
01000000
00100000
,
10000000
01000000
10000000
01000000
,
00100000
00010000
00001000
00010000
,
00000100
00001000
00000010
00000100
,
00000001
00000010
00000100
00001000
,
00000100
00010000
00001000
00100000
,
00000000
00100000
00100000
00100000
,
10010000
00000000
00000000
00000000
,
00000000
00000000
00000000
01000000
,
00010000
00000000
10010000
00000000
,
10000000
01000000
00100000
00001000
,
00010000
00001000
00010000
00000000
,
00000100
00001000
00000100
00000000
,
00000001
00000100
00000010
00001000
,
00000200
00000000
00020300
00030000
,
00001000
00100000
00001000
00000000
,
00100000
00010000
00100000
00000000
,
00010000
01000000
00100000
01000000
,
00100000
10000000
01000000
00100000
,
00010000
01000000
00010000
00000000
,
00100000
00001000
00100000
00000000
,
00010000
00000000
00000000
00000100
00000000
00000000
00001000
00000000
,
00000000
00000010
00000000
00000000
00000001
00000100
00000001
00000100
,
00000001
00000000
00001001
00000000
,
00000010
00010000
00000100
00020000
,
00002000
00000000
00000000
00000000
,
00033000
00000000
00000000
00000000
,
00022000
00000000
00000000
00000000
,
00000000
00000000
00000000
00000000
,
00000000
00000000
00000000
00000000
,
00033000
00000000
00000000
00000000
;

//---------------dance-single - ----------------
#NOTES:
     dance-single:
     :
     Easy:
     9:
     0.367,0.590,0.273,0.114,0.000:
0000
0000
0000
0000
,
0000
0000
0000
0000
,
0000
0000
0000
0000
,
0000
0000
0000
0000
,
0000
0000
0000
0000
,
0000
0000
0000
0000
,
0000
0000
0000
0000
,
0000
0000
0000
0000
,
0000
0000
0000
0000
,
0000
0000
0000
0000
,
0000
0000
0000
0000
,
0000
0000
0000
0000
,
0010
0000
0100
0000
,
0010
1000
0010
0000
,
0100
0000
0010
0000
,
0100
0001
0100
0000
,
1000
0000
0001
0000
,
0100
0001
0100
0000
,
0001
1000
0001
0000
,
1000
0001
1000
0000
,
0010
0000
0100
0000
,
0001
0010
0100
1000
,
0002
0000
0000
0003
,
1001
0000
0000
0000
,
0001
0000
1000
0000
0001
1000
0001
0000
,
0100
0000
0001
0000
0100
0000
0001
1000
,
0001
0000
0010
0000
0001
0100
0001
0000
,
0100
0001
0010
0000
0001
0000
1001
0000
,
0001
0000
1000
0000
0001
1000
0001
0000
,
1000
0000
0100
0000
1000
0100
1000
0000
,
0010
0000
0100
0000
0001
0100
0001
0000
,
0100
0001
0100
0000
1001
0000
1001
0000
,
0100
0010
1000
0001
,
0100
0000
0010
0100
0010
0000
0000
0000
,
1000
0100
0001
0010
,
1000
0000
0100
0001
0000
0001
0100
0000
,
0001
0000
1000
0000
0010
0100
0010
0000
,
1000
0000
0001
0100
0001
0000
0000
0000
,
0010
0000
0100
0000
0001
1000
0001
0000
,
1000
0001
1000
0000
2002
0000
3003
0000
,
0011
0000
0011
0000
,
0011
0000
0110
0000
,
1100
0000
1100
0000
,
1100
0000
0110
0000
,
0011
0000
0110
0000
,
1100
0000
0110
0000
,
0001
0010
0100
1000
,
1001
0000
0000
0000
,
2002
0000
0000
0000
,
3003
0000
0000
0000
,
0000
0000
0000
0000
,
0000
0000
0000
0000
,
0000
0000
0010
0000
,
0000
0000
0010
0000
,
0000
0000
0010
0000
,
0200
0000
0020
0330
,
1000
0001
1000
0000
,
0010
0100
0010
0000
,
0001
1000
0001
0000
,
0100
0010
0100
0000
,
0001
0010
0100
1000
,
0010
0100
0001
0000
,
1000
0010
0100
0001
,
0010
0100
1000
0000
,
1001
0000
0100
0000
,
1001
0000
0010
0000
,
1001
0000
0010
0000
,
1001
0000
0100
0000
,
1000
0100
0001
0100
,
1000
0100
0001
0100
,
1001
1001
1001
1001
,
2002
0000
3000
0003
,
1000
0001
1000
0001
,
1000
0100
0010
0001
,
0100
0001
0100
0001
,
0010
0100
1000
0100
,
1000
0001
1000
0001
,
1000
0010
0100
0010
,
0100
0001
0100
0001
,
1001
0000
0000
0100
,
0010
0010
1000
1000
,
0001
0100
1000
0100
,
0010
0010
0001
0001
,
1000
0010
0001
0010
,
1000
0100
0010
0001
,
1000
0100
0010
0001
,
1001
0000
0000
0000
,
0000
0010
0010
0010
,
1001
0000
0000
0000
,
0000
0000
0000
0100
,
0001
0000
1001
0000
,
1000
0100
0010
0000
,
0001
1000
0001
0000
,
0001
0010
0100
0000
,
1000
0100
0010
0001
,
2000
0000
0002
3003
,
0100
0010
0100
0000
,
0010
0001
0010
0000
,
0001
0100
0010
0100
,
0010
1000
0100
0010
,
0001
0100
0001
0000
,
0010
1000
0010
0000
,
1001
0000
0000
1000
0000
0000
1001
0000
,
0000
0001
0000
0000
1000
0100
1000
0100
,
1000
0000
1001
0000
,
0100
0001
0010
2000
,
0002
0000
0000
0000
,
3003
0000
0000
0000
,
2002
0000
0000
0000
,
0000
0000
0000
0000
,
0000
0000
0000
0000
,
3003
0000
0000
0000
;

//---------------dance-double - ----------------
#NOTES:
     dance-double:
     :
     Medium:
     12:
     0.473,0.758,0.311,0.205,0.061:
00000000
00000000
00000000
00000000
,
00000000
00000000
00000000
00000000
,
00000000
00000000
00000000
00000000
,
00000000
00000000
00000000
00000000
,
00000000
00000000
00000000
00000000
,
00000000
00000000
00000000
00000000
,
00000000
00000000
00000000
00000000
,
00000000
00000000
00000000
00000000
,
00000000
00000000
00000000
00000000
,
00000000
00000000
00000000
00000000
,
00000000
00000000
00000000
00000000
,
00000000
00000000
00000000
00000000
,
00100000
00000000
01000000
00000000
00100000
01000000
00000000
00100000
,
00000000
01000000
00010000
00000000
,
00100000
00000000
00001000
00010000
,
00001000
00010000
00001000
00000000
,
00010000
00000000
00000010
00000000
00001000
00000010
00000000
00000100
,
00000000
00000001
00001000
00000000
,
00000001
00000000
00000001
00000010
00000000
00000010
00000100
00000000
,
00000100
00001000
00000000
00000000
00000100
00000000
00010000
00000000
,
00011000
00000000
00000000
00001000
00001000
00000000
00000000
00000000
,
00010000
00001000
01000000
00010000
,
20000000
00000000
00000000
30000000
,
20020000
00000000
30030000
00000000
,
10000000
00000000
00000000
10000000
01000000
00000000
00000000
01000000
00100000
00000000
00000000
00000000
01000000
00000000
00001000
00000000
,
00010000
00000000
00000000
00010000
00000100
00000000
00000000
00000100
00001000
00000000
00000000
00000000
00001000
00000000
00000010
00000000
,
00000100
00000000
00000000
00000100
00000001
00000000
00000000
00000001
00001000
00000000
00000000
00000000
00001000
00000000
00000100
00000000
,
00010000
00000000
00000000
00010000
00001000
00000000
00000000
00001000
01000000
00000000
00010000
00000000
01000000
00000000
00000000
00000000
,
00100000
00000000
00000000
00100000
10000000
00000000
00000000
10000000
01000000
00000000
00000000
00010000
01000000
00000000
00000000
00000000
,
00001000
00000000
00000000
00010000
00001000
00000000
00000000
00010000
00000100
00000000
00001000
00000000
00000010
00000000
00000100
00000000
,
00000001
00000000
00000000
00000100
00000001
00000000
00000000
00000001
00000100
00000000
00001000
00000000
00000010
00000000
00000100
00000000
,
00000001
00000000
00000000
00001000
00000100
00000000
00010000
00000000
00011000
00000000
00000000
00000000
00011000
00000000
00000000
00000000
,
00011000
00000000
00001000
00100000
00010000
00000000
00010000
00100000
,
01000000
00000000
10000000
01000000
00100000
00000000
00000000
00000000
,
00100000
00000000
00001000
00010000
00001000
00000000
00010000
00000100
,
00001000
00000000
00000010
00000100
00000001
00000000
00001001
00000000
,
00000001
00000000
00000100
00000010
00001000
00000000
00000100
00010000
,
00001000
00000000
00100000
00010000
00100000
00000000
00010000
00000000
,
01000000
00100000
01000000
00100000
10000000
00010000
10000000
00010000
,
10000000
01000000
00100000
00010000
02000000
00000000
03000000
00000000
,
10010000
00000000
10010000
00000000
,
10000000
00100000
01000000
00001000
,
00010000
00000000
00011000
00000000
,
00010000
00000100
00001000
00000001
,
00001001
00000001
00001001
00001000
,
00001100
00000100
00010100
00010000
,
00011000
00001000
01001000
01000000
,
01100000
00000000
00000000
10000000
,
20020000
00000000
00000000
00000000
,
30030000
00000000
00000000
00000000
,
00000000
00000000
00000000
00000000
,
00000000
00000000
00000000
00000000
,
00000000
00000000
00010000
00000000
,
00000000
00000000
00001000
00000000
,
00010000
00000000
00001000
00010000
,
00002000
00000000
00020000
00033000
,
00010000
00000000
00000100
00000000
00010000
00000000
00000000
00000010
,
00000000
00000000
00000100
00000000
00000001
00000100
00000000
00000001
,
00000100
00000010
00001000
00000000
,
00000100
00010000
00001000
00000000
,
01000000
00000000
00010000
00000000
01000000
00000000
00000000
00100000
,
00000000
10000000
00100000
00000000
10000000
00100000
00000000
00000000
,
01000000
01000000
00001000
00001000
,
00022000
00000000
00033000
00000000
,
00011000
00000000
00000010
00000100
,
00001001
00000000
00000100
00010000
,
00011000
00000000
00100000
00010000
,
01010000
00000000
00100000
01000000
,
10010000
00000000
01010000
00000000
,
00101000
00000000
00011000
00000000
,
00000020
00002030
00003002
00000203
,
00000320
00000000
00000030
00001001
,
00001000
00000000
00000100
00001000
00000100
00000000
00001000
00000000
,
00000001
00000000
00000100
00000001
00000100
00000000
00000010
00000000
,
00001000
00000000
00000100
00001000
00000100
00000000
00010000
00000000
,
00001000
00000000
01000000
00001000
01000000
00000000
00010000
00000000
,
10000000
00000000
01000000
10000000
01000000
00000000
10000000
00000000
,
00010000
00000000
01000000
00010000
01000000
00000000
00001000
00000000
,
00010000
00000000
00000100
00010000
00000100
00000000
00001000
00000000
,
00001001
00000110
00001001
00000000
,
00000010
00000000
00000100
00000010
00000100
00000000
00000010
00000000
,
00001000
00000000
00000100
00001000
00000100
00000000
00010000
00000000
,
00001000
01000000
00010000
10000000
,
01000000
00000000
10000000
00100000
10000000
00000000
01000000
00000000
,
00010000
00110000
00100000
10100000
,
10000000
11000000
01000000
01010000
,
10010000
00000000
00000000
00000000
,
00000000
00001000
00001000
00010000
,
00022000
00000000
00000000
00000000
,
00033000
00000000
00000000
00011000
,
00010000
00000000
00000100
00010000
00000100
00000000
00001000
00000100
,
00001000
00000001
00000100
00000010
,
00000100
00000000
00000001
00000000
00000100
00000001
00000100
00000001
,
00000000
00001000
00000010
00000000
00001000
00000100
00000000
00001000
,
00000100
00010000
00001000
00010000
,
00022000
00033000
02020000
03030000
,
10000000
00000000
01000000
00000000
10000000
01000000
00000000
01000000
,
00000000
10000000
00010000
00000000
01000000
00100000
00000000
01000000
,
00100000
01000000
00001000
00010000
,
00000010
00001000
00000001
00001000
,
00000100
00000000
00010000
00000000
00001000
00100000
00000000
00100000
,
00000000
00010000
00100000
00000000
00010000
00000000
01000000
00000000
,
00100000
00000000
10000000
00100000
00000000
01000000
00010000
00000000
,
00100000
00010000
00000000
00100000
00001000
00000000
00010000
00000000
,
00000200
00000000
00000000
00001300
00002000
00000000
00000000
00000000
,
00003001
00000010
00000100
00002000
,
00000200
00000000
00000000
00003300
,
00011000
00000000
00000000
00000000
,
00022000
00000000
00000000
00000000
,
00000000
00000000
00000000
00000000
,
00000000
00000000
00000000
00000000
,
00033000
00000000
00000000
00000000
;
