#TITLE:DEAD END ("GROOVE RADAR" Special);
#SUBTITLE:;
#ARTIST:N & S;
#TITLETRANSLIT:;
#SUBTITLETRANSLIT:;
#ARTISTTRANSLIT:;
#GENRE:;
#CREDIT:;
#MENUCOLOR:;
#METERTYPE:DDR;
#BANNER:DEAD END (GROOVE RADAR Special).png;
#BACKGROUND:DEAD END (GROOVE RADAR Special)-bg.png;
#LYRICSPATH:;
#CDTITLE:./CDTITLES/Dance Dance Revolution 3rdMIX.png;
#MUSIC:DEAD END (GROOVE RADAR Special).ogg;
#OFFSET:0.000;
#SAMPLESTART:13.880;
#SAMPLELENGTH:15.000;
#SELECTABLE:YES;
#LISTSORT:;
#DISPLAYBPM:95.000:380.000;
#BPMS:0.000=95.238,2.000=94.959,20.000=190.016,84.500=95.031,101.500=95.000,115.750=190.002,212.250=187.500,212.750=94.987,220.750=380.038,264.750=192.125;
#STOPS:20.000=1.107
,101.500=0.473
,115.750=1.107
,212.250=1.107
;
#BGCHANGES:;
#ATTACKS:;

//---------------dance-single - ----------------
#NOTES:
     dance-single:
     :
     Challenge:
     18:
     0.926,1.000,0.906,0.857,1.000:
0000
0000
0000
0000
,
0200
0000
0000
0300
2001
0000
0000
0000
3020
0000
0000
0030
1002
0000
0000
0000
,
0103
0200
0000
0300
2001
0000
0000
0000
3010
0020
0000
0030
1002
0000
0000
0000
,
0023
0000
2000
3000
0002
0003
2000
3030
,
0002
0000
0200
0003
2000
0300
0020
3000
0002
0030
0200
0003
2300
0000
0002
0000
,
0000
3003
0000
0000
0001
0000
0000
0000
0001
0000
0100
0000
1000
0000
0000
0000
0000
0000
0000
0000
0001
0000
0000
0000
0001
0000
0100
0000
1000
0000
0000
0000
,
0000
0000
0001
0000
0001
0010
2000
0000
0000
0000
0000
0000
0100
0000
3000
0000
,
0100
0000
1000
0000
1000
0100
0001
0000
0000
0000
1000
0000
1000
0100
0001
0000
,
0000
0000
1000
0000
1000
0010
0002
0000
0000
0000
0000
0000
0100
0000
0003
0000
,
0100
0000
0010
0000
0010
1000
0100
0000
0000
0000
0010
0000
0010
1000
0100
0000
,
0000
0000
0100
0000
0100
0001
0020
0000
0000
0000
0000
0000
0100
0030
1000
0000
,
0100
0000
0010
0000
0010
0001
0100
0000
0000
0000
0010
0000
0010
0001
0100
0000
,
0000
0000
0100
0000
0100
1000
0020
0000
0000
0000
0000
0000
0100
0030
0001
0000
,
0100
0000
0000
0000
0001
0000
0001
0100
2000
0000
0002
0000
0000
0000
0000
0000
,
0000
0000
0000
0000
0000
3000
0010
0000
,
0013
1000
0100
1000
0010
0100
0001
0000
,
0001
0001
0100
0001
0010
0100
1000
0000
,
1000
0000
0001
0000
0001
0100
0010
0000
0010
0000
1000
0000
1000
0100
0010
0000
,
0010
0000
0001
0000
0001
0100
2000
0000
0000
0000
0100
0000
0010
3000
0100
0000
,
0010
0000
1000
0000
1000
0010
0100
0000
0100
0000
0001
0000
0001
0010
0100
0000
,
0100
0000
1000
0000
1000
0010
0002
0000
0000
0000
0010
0000
0100
0003
0010
0000
,
0100
0000
1002
0000
0100
0000
0100
0100
0103
0000
2100
0000
0100
0000
3100
0100
,
0100
1002
0100
0000
0100
0000
0100
0100
0103
0000
2100
0000
0100
0000
3100
0100
,
0100
1001
1002
0000
0100
0000
0100
0100
0103
0000
2100
0000
0100
0000
3100
1001
,
0000
0000
1001
0000
0000
0000
1001
0000
0100
0000
0000
0000
0100
0000
0100
0000
0100
0000
0000
0000
1020
0000
0000
1000
0000
0000
1000
0000
1000
0000
0000
1000
,
0000
0000
1000
0000
1000
0000
0000
1000
0000
0000
1000
0000
2000
3030
0101
0000
0000
0000
0101
0000
0000
0000
0110
0000
0001
0000
0101
0000
0000
0000
1100
0000
,
0000
1100
0000
0110
1000
1100
0000
1001
0000
1001
0000
0011
0000
1010
0000
1001
,
0000
0101
0000
1010
1001
0110
0000
1001
0000
1100
0000
0011
1001
0110
0000
0001
,
0100
0001
0010
1000
0010
1000
0010
0100
0010
0001
1000
0010
0100
0100
0100
2002
,
3003
0001
0000
0001
0100
1000
0000
0010
0000
1000
0000
1000
0010
0001
0000
0100
,
0000
0001
0000
0001
0100
2001
0000
0000
3000
0010
0000
0100
0000
0010
0010
0100
,
0000
1000
0000
1000
0100
0001
0000
0010
0000
0001
0000
0001
0010
1000
0000
0100
,
0000
1000
0000
1000
0100
1002
0000
0000
0003
0010
0000
0100
0000
0010
0010
0100
,
0000
1001
0000
1000
0010
0001
0000
0100
0000
1001
0000
1000
0010
0001
0000
0100
,
0000
0110
0000
0100
0001
0020
0000
0000
0000
0030
0000
1100
0000
0010
0010
1100
,
0000
1001
0000
0001
0010
1000
0000
0100
0000
1001
0000
0001
0010
1000
0000
0100
,
0000
0110
0000
0100
1000
0020
0000
0000
0000
0030
0000
0101
0000
0010
0010
0101
,
0000
0000
0000
1000
0000
1000
0100
0002
0000
2000
0000
0000
0000
0000
0000
0000
,
0003
0000
0000
0010
0000
0000
0000
0010
0000
0000
0000
0100
0000
0100
0000
3100
,
0000
0001
0000
0001
0000
0020
0000
0000
0000
1000
0030
1000
0000
0200
0000
0000
,
0000
0001
0300
0001
0000
0010
0000
1000
0000
1000
0000
0101
0000
0010
0010
0101
,
0000
1000
0000
1000
0001
0010
0000
0100
0000
1000
0000
1000
0010
0001
0000
0100
,
0000
1001
1001
1001
0000
2002
0000
0000
0000
3003
0000
0100
0000
0010
0010
0100
,
0000
0001
0000
0001
1000
0010
0000
0100
0000
0001
0000
0001
0010
1000
0000
0100
,
0000
1001
1001
1001
0000
2002
0000
0000
0000
3003
0000
0100
0000
0010
0010
0100
,
0000
0011
0000
0011
0000
0011
0000
2200
0000
3300
0000
2200
0000
0000
3300
0000
,
0000
0001
0010
1000
0100
1000
0000
0101
0000
0101
0000
0202
0000
0000
0000
0303
,
0000
0100
0000
1000
0000
0010
0000
2200
0000
3300
0000
2200
0000
0000
0000
3300
,
0000
0001
0010
1000
0010
0001
0010
1000
0000
0200
0000
0002
0000
0000
0000
0303
,
0000
1010
0000
1010
0000
1010
0000
0101
0000
0101
0000
0202
0000
0000
0000
0303
,
0000
1000
0010
0001
0100
0001
0000
1100
0000
1100
0000
2200
0000
0000
0000
3300
,
0000
0100
0000
0001
0000
0010
0000
0101
0000
0101
0000
0202
0000
0000
0000
0303
,
0000
1000
0010
0001
0010
1000
0010
0001
0000
0200
0000
2000
0000
0000
0000
0000
,
0000
0000
0000
3300
0000
0000
0002
0000
0000
0000
0000
0000
0100
0000
0000
0000
1003
0000
0000
0000
0000
0000
1000
0000
0000
0000
0020
0000
0000
0000
0000
0000
,
0001
0000
0000
2030
0000
0000
0100
0000
3001
1001
1001
1001
0000
0100
0010
0000
,
0010
0010
0000
0000
0002
0000
0000
0003
0000
0000
2000
0000
0000
3000
0000
0000
,
0002
0000
0000
0003
0000
0000
0020
0000
0000
0030
0000
0000
0200
0000
0000
0300
,
0000
0000
0020
0000
0000
0030
0000
0000
0002
0000
0000
0003
0000
0000
2000
0000
,
0000
3000
0000
0000
0002
0000
0000
0003
0000
0000
0020
0000
0000
0030
0000
0000
,
0200
0000
0000
0300
0000
0000
0020
0000
0000
0030
1000
0000
0100
0000
1000
0000
,
0000
0001
0010
0001
0000
0010
1000
0010
,
0000
0100
0001
0100
0000
1000
0100
1000
,
0010
0001
0100
1000
0100
0001
0010
1000
,
0000
0000
0000
0101
0000
0000
0000
0000
0000
0101
0000
0000
0000
0000
0000
0101
,
0000
0000
0000
0000
0000
0000
0000
1000
0000
0100
0000
0001
0000
0100
0000
1000
,
0000
0000
0000
0101
0000
0000
0000
0000
0000
1100
0000
0000
0000
0000
0000
0101
,
0000
0000
0000
2002
0000
0000
0000
0000
0000
0000
0000
0000
0000
0000
0000
3003
,
0000
0000
0000
0000
;

//---------------dance-double - ----------------
#NOTES:
     dance-double:
     :
     Challenge:
     18:
     0.892,1.000,0.906,0.857,1.000:
00000000
00000000
00000000
00000000
,
20000000
00000000
00000000
30000000
00120000
00000000
00000000
00000000
00032000
00000000
00000000
00003000
00000012
00000000
00000000
00000000
,
00000203
00000000
00000000
00000300
00002010
00000000
00000000
00000000
02003000
00000000
00000000
03000000
10200000
00000000
00000000
00000000
,
00320000
00000000
00002000
00003000
00200000
00300000
02000000
03030000
,
20000000
00000000
00200000
30000000
00020000
00300000
00000200
00030000
00000002
00000300
00000020
00000003
00002000
00000030
00000002
00000000
,
00000000
00003003
00000000
00000000
00000001
00000000
00000000
00000000
00000001
00000000
00000100
00000000
00001000
00000000
00000000
00000000
00000000
00000000
00000000
00000000
00000100
00000000
00000000
00000000
00000100
00000000
00001000
00000000
00010000
00000000
00000000
00000000
,
00000000
00000000
01000000
00000000
01000000
10000000
00200000
00000000
00000000
00000000
00000000
00000000
01000000
00000000
00300000
00000000
,
01000000
00000000
10000000
00000000
10000000
01000000
00010000
00000000
00000000
00000000
01000000
00000000
01000000
00010000
00001000
00000000
,
00000000
00000000
00000100
00000000
00000100
00000001
00000020
00000000
00000000
00000000
00000000
00000000
00000100
00000000
00000030
00000000
,
00000100
00000000
00000001
00000000
00000001
00000010
00001000
00000000
00000000
00000000
00000100
00000000
00000010
00001000
00010000
00000000
,
00000000
00000000
00100000
00000000
00100000
10000000
02000000
00000000
00000000
00000000
00000000
00000000
00100000
03000000
00010000
00000000
,
00100000
00000000
10000000
00000000
10000000
00100000
00010000
00000000
00000000
00000000
01000000
00000000
00100000
00010000
00001000
00000000
,
00000000
00000000
00000010
00000000
00000010
00000001
00000200
00000000
00000000
00000000
00000000
00000000
00000010
00000300
00001000
00000000
,
00000010
00000000
00000000
00000000
00001000
00000000
00010000
01000000
20000000
00000000
00020000
00000000
00000000
00000000
00000000
00000000
,
00000000
00000000
00000000
00000000
00000000
30000000
00000100
00000000
,
00030100
00000010
00001000
00000010
00010000
01000000
10000000
00000000
,
10000000
01000000
00100000
00010000
00001000
00000100
00000001
00000000
,
00000001
00000000
00000010
00000000
00000010
00001000
00000100
00000000
00000000
00000000
00001000
00000000
00001000
00000100
00010000
00000000
,
00000000
00000000
00010000
00000000
00010000
01000000
20000000
00000000
00000000
00000000
01000000
00000000
00100000
30000000
01000000
00000000
,
00100000
00000000
00100000
00000000
00100000
00010000
00000000
01000000
00000000
00000000
00010000
00000000
00010000
01000000
00001000
00000000
,
00000000
00000000
00001000
00000000
00001000
00000100
00000002
00000000
00000000
00000000
00000100
00000000
00000010
00000003
00000100
00000000
,
00000010
00002001
00000100
00000100
00003100
00020100
00001000
00031000
,
00001000
00021000
00100000
00000000
00100000
00000000
00100000
00000000
00130000
00000000
20100000
00000000
00100000
00000000
30100000
00000000
,
00100000
10010000
10020000
00000000
01000000
00000000
01000000
00000000
01030000
00000000
01002000
00000000
00010000
00000000
00013000
00011000
,
00000000
00000000
00011000
00000000
00000000
00000000
00011000
00000000
00000010
00000000
00000000
00000000
00000010
00000000
00000000
00000000
00000010
00000000
00000000
00000000
00021000
00000000
00000000
01000000
00000000
00000000
01000000
00000000
01000000
00000000
00000000
01000000
,
00000000
00000000
01000000
00000000
01000000
00000000
00000000
01000000
00000000
00000000
01000000
00000000
02000000
03030000
10100000
00000000
00000000
00000000
01100000
00000000
00000000
00000000
00110000
00000000
00000000
00000000
00011000
00000000
00000000
00000000
00001010
00000000
,
00000000
00000110
00000000
00000011
00000000
00001001
00000000
00000110
00000000
00011000
00000000
01100000
00000000
10010000
00000000
00110000
,
00000000
11000000
00000000
00110000
00011000
00001100
00000000
00001010
00000000
00000101
00000000
00001010
00011000
01010000
00000000
10000000
,
01000000
00100000
00010000
00001000
00000100
00000001
00000010
00001000
00010000
01000000
10000000
00100000
01000000
01000000
01000000
20020000
,
30030000
10000000
00000000
10000000
01000000
00010000
00000000
00100000
00000000
01000000
00000000
01000000
00010000
00001000
00000000
00000010
,
00000000
00000100
00000000
00000100
00000001
00000120
00000000
00000000
00000030
00000010
00000000
00000100
00000000
00000010
00000000
00000100
,
00000000
00000001
00000000
00000001
00000100
00001000
00000010
00000000
00000000
00000100
00000000
00000100
00001000
00010000
00000000
00100000
,
00000000
01000000
00000000
01000000
10000000
01200000
00000000
00000000
00300000
00100000
00000000
01000000
00000000
00100000
00000000
01000000
,
00000000
10010000
00000000
10000000
00100000
00010000
00000000
01000000
00000000
00110000
00000000
01000000
00010000
00001000
00000000
00000100
,
00000000
00000110
00000000
00000100
00000001
00000020
00000000
00000000
00000000
00000030
00000000
00000101
00000000
00000010
00000000
00000101
,
00000000
00001001
00000000
00000001
00000010
00001000
00000000
00000100
00000000
00001010
00000000
00000100
00001000
00010000
00000000
01000000
,
00000000
01100000
00000000
01000000
10000000
00200000
00000000
00000000
00000000
00300000
00000000
11000000
00000000
00100000
00000000
11000000
,
00000000
00000000
00000000
00010000
00000000
00001000
00000100
00000002
00000000
00002000
00000000
00000000
00000000
00000000
00000000
00000000
,
00000003
00000000
00000000
00000010
00000000
00000000
00000000
00000010
00000000
00000000
00000000
01000000
00000000
01000000
00000000
01003000
,
00000000
10000000
00000000
10000000
00000000
00200000
00000000
00000000
00000000
00010000
00300000
00001000
00000000
00000200
00000000
00000000
,
00000000
00000001
00000300
00000010
00000000
00001000
00000000
00010000
00000000
00100000
00000000
11000000
00000000
00010000
00000000
11000000
,
00000000
00010000
00000000
00010000
10000000
00100000
00000000
01000000
00000000
00010000
00000000
00010000
00001000
00000010
00000000
00000100
,
00000000
00001001
00001001
00001001
00000000
00002002
00000000
00000000
00000000
00003003
00000000
00000100
00000000
00000010
00000000
00000100
,
00000000
00001000
00000000
00001000
00000001
00000010
00000000
00000100
00000000
00001000
00000000
00001000
00010000
00100000
00000000
01000000
,
00000000
10010000
10010000
10010000
00000000
20020000
00000000
00000000
00000000
30030000
00000000
01000000
00000000
00100000
00000000
01000000
,
00000000
10100000
00000000
10100000
00000000
10100000
00000000
02020000
00000000
03030000
00000000
02020000
00000000
00000000
03030000
00000000
,
00000000
00001000
00000010
00000001
00000100
00000001
00000000
00001100
00000000
00001100
00000000
00002200
00000000
00000000
00000000
00003300
,
00000000
00001000
00000000
00010000
00000000
00100000
00000000
22000000
00000000
33000000
00000000
22000000
00000000
00000000
00000000
33000000
,
00000000
00010000
00100000
10000000
00100000
00010000
00001000
00000010
00000000
00000200
00000000
00000002
00000000
00000000
00000000
00000303
,
00000000
00000011
00000000
00000011
00000000
00000011
00000000
00001100
00000000
00001100
00000000
00002200
00000000
00000000
00000000
00003300
,
00000000
00010000
00100000
10000000
01000000
10000000
00000000
01010000
00000000
01010000
00000000
02020000
00000000
00000000
00000000
03030000
,
00000000
00010000
00000000
00001000
00000000
00000010
00000000
00000101
00000000
00000101
00000000
00000202
00000000
00000000
00000000
00000303
,
00000000
00001000
00000010
00000001
00000010
00001000
00010000
00100000
00000000
02000000
00000000
20000000
00000000
00000000
00000000
00000000
,
00000000
00000000
00000000
33000000
00000000
00000000
00200000
00000000
00000000
00000000
00000000
00000000
00010000
00000000
00000000
00000000
00301000
00000000
00000000
00000000
00000000
00000000
00000000
00000000
00000000
00000000
00000020
00000000
00000000
00000000
00000000
00000000
,
00000001
00000000
00000000
00002030
00000000
00000000
00000100
00000000
00013000
00011000
00011000
00011000
00000000
01000000
00000000
00000000
,
00000000
00100000
00000000
00000000
00020000
00000000
00000000
00030000
00000000
00000000
20000000
00000000
00000000
30000000
00000000
00000000
,
00002000
00000000
00000000
00003000
00000000
00000000
00000020
00000000
00000000
00000030
00000000
00000000
00000200
00000000
00000000
00000300
,
00000000
00000000
00000020
00000000
00000000
00000030
00000000
00000000
00002000
00000000
00000000
00003000
00000000
00000000
00000002
00000000
,
00000000
00000003
00000000
00000000
00020000
00000000
00000000
00030000
00000000
00000000
00200000
00000000
00000000
00300000
00000000
00000000
,
02000000
00000000
00000000
03000000
00000000
00000000
00200000
00000000
00000000
00300000
10000000
00000000
01000000
00000000
10000000
00000000
,
00000000
00010000
00100000
00010000
00000000
00001000
00000100
00001000
,
00000000
00000001
00000010
00000001
00000000
00000010
00000001
00000010
,
00000100
00001000
00010000
01000000
10000000
00010000
00001000
00000010
,
00000000
00000000
00000000
00000101
00000000
00000000
00000000
00000000
00000000
00000101
00000000
00000000
00000000
00000000
00000000
00000101
,
00000000
00000000
00000000
00000000
00000000
00000000
00000000
00001000
00000000
00010000
00000000
01000000
00000000
10000000
00000000
00100000
,
00000000
00000000
00000000
00110000
00000000
00000000
00000000
00000000
00000000
00011000
00000000
00000000
00000000
00000000
00000000
00001010
,
00000000
00000000
00000000
00000202
00000000
00000000
00000000
00000000
00000000
00000000
00000000
00000000
00000000
00000000
00000000
00000303
,
00000000
00000000
00000000
00000000
;

//---------------dance-single - ----------------
#NOTES:
     dance-single:
     :
     Hard:
     16:
     0.841,0.847,0.670,0.591,1.000:
0000
0000
0000
0000
,
0000
0000
0000
0000
,
0000
0000
0000
0000
,
2000
0100
3002
0010
2003
0100
3002
0010
,
2003
0100
3002
0010
2003
0100
3002
0010
,
0103
0000
1000
0000
0010
0000
1000
0000
0010
0100
0010
0000
0001
0000
0100
0000
,
0010
0100
0010
0000
1000
0000
0100
0000
0001
0000
0200
0000
0010
0000
0000
0000
,
0301
0000
0010
0000
1000
0000
0001
0000
0100
0010
0100
0000
1000
0000
0001
0000
,
0100
0010
0100
0000
1000
0000
0100
0000
0001
0000
0020
0000
1000
0000
0000
0000
,
0130
0000
1000
0000
0001
0000
0100
0000
0010
1000
0010
0000
0100
0000
0001
0000
,
0100
0010
0100
0000
0001
0000
1000
0000
0010
0100
0020
0000
1000
0000
0000
0000
,
0130
0000
0001
0000
1000
0000
0010
0000
0100
0001
0100
0000
0010
0000
1000
0000
,
0100
1000
0100
0000
0010
0000
0100
0000
1000
0001
2000
0000
0010
0000
0000
0000
,
3001
0200
0010
0001
0320
2000
0030
0000
,
0000
3100
0001
0100
0010
0100
0110
0000
,
0110
1000
0010
2020
3030
0001
0100
0220
,
0330
1000
0100
0001
0100
1000
0100
0000
,
1001
0010
0001
0201
0000
0310
0001
1020
,
0000
0130
0001
1000
0010
0100
0110
0000
,
0110
1000
0100
0120
0000
1030
0100
0021
,
0000
0031
0100
1000
0010
0100
0201
0000
,
0310
0000
1000
0000
0100
0000
1000
0100
1000
0000
0001
0100
0000
0100
0000
0010
,
0000
1000
0100
1000
0100
0000
0001
0100
0001
0000
0100
0010
0000
1000
0000
0002
,
0000
0000
1003
0100
1000
0000
0001
0010
0001
0000
0100
0010
0000
0010
0000
1001
,
0000
0000
0110
0000
0000
0000
1001
0000
0000
0000
1000
0000
0100
0000
0010
0000
0001
0000
0000
0000
1000
0000
0000
0100
0000
0000
0010
0000
0001
0000
0000
0010
,
0000
0000
0100
0000
1000
0000
0000
0100
0000
0000
0010
0000
0002
0000
2003
0000
0000
0000
0100
0000
0000
0000
3100
0000
0010
0000
0002
0000
0000
0000
0100
0000
,
0000
1000
0000
0103
0010
2000
0000
0100
0000
0010
0000
3100
0010
0002
0000
0100
,
0000
1000
0000
0103
0010
2000
0000
3002
0000
0010
0000
2003
0000
0100
0000
3002
,
0000
0010
0000
2003
0000
0100
0000
3002
0000
0010
0000
2003
0000
0100
0000
3001
,
0000
0010
0000
1000
0001
1000
0000
0010
0000
0100
0000
0001
1000
0001
0000
0100
,
0000
0010
0000
1000
0100
1000
0000
0001
0000
0010
0000
0110
0000
0000
0000
0110
,
0000
1000
0000
0001
0100
0010
0000
1000
0000
0001
0000
0100
0010
1000
0000
0100
,
0000
0001
0000
1000
0010
0100
0000
0001
0000
1000
0000
0101
0000
0000
0000
0101
,
0000
1000
0000
0010
0100
0010
0000
0001
0000
0100
0000
0010
1000
0010
0000
0100
,
0000
0001
0000
1000
0010
1000
0000
0001
0000
1000
0000
0110
0000
0000
0000
0110
,
0000
1000
0000
0100
0010
0001
0000
0100
0000
0010
0000
2000
0000
3010
0000
0001
,
0000
0200
0000
0320
0000
0032
0000
1000
0000
0103
0000
0110
0000
0000
0000
0110
,
0000
1000
0010
1000
0000
0001
0100
0002
0000
0200
0000
0000
0000
0303
0000
0000
,
0000
1000
0000
0100
0010
0100
0000
0001
0000
1000
0000
1001
0000
0100
0000
0110
,
0000
1000
0000
0100
1000
0100
0000
0101
0000
0001
0000
0010
0001
0010
0000
0110
,
0000
1000
0000
0010
1000
0010
0000
1200
0000
0310
0000
0201
0000
0310
0000
1001
,
0000
0100
0000
0010
0000
1000
0010
1000
0000
0001
0000
0100
0000
0010
1000
0010
,
0000
0100
0010
0100
0000
2002
0000
0000
0000
3003
0000
0110
0000
0000
0000
0110
,
0000
1000
0000
0010
0000
0100
0001
0100
0000
0001
0000
0100
0000
0010
1000
0010
,
0000
1001
0000
1001
0000
2002
0000
0000
0000
3003
0000
0110
0000
0000
0000
0110
,
0000
1000
0000
0100
0000
0010
0000
0011
0000
0000
0000
0011
0000
0000
0000
0000
,
0000
0001
0000
0001
0000
0001
0000
0100
0000
0100
0000
0110
0000
0000
0000
0000
,
0000
0001
0000
0010
0000
0100
0000
1100
0000
0000
0000
1001
0000
0000
0000
0000
,
0000
0001
0000
0001
0000
0100
0000
0110
0000
0100
0000
0110
0000
0000
0000
0000
,
0000
1000
0000
0010
0000
0100
0000
0101
0000
0000
0000
1001
0000
0000
0000
0000
,
0000
0001
0000
0100
0000
0110
0000
0100
0000
0100
0000
0110
0000
0000
0000
0000
,
0000
0001
0000
1000
0000
0010
0000
0110
0000
1000
0000
1001
0000
0000
0000
0000
,
0000
0110
0000
0100
0000
0100
0000
0110
0000
0110
0000
0220
0000
0000
0000
0000
,
0000
0330
0000
1000
0100
0010
0001
0000
1001
0000
0000
0001
0010
0100
1000
0000
,
1001
0000
0000
1000
0100
0010
0001
0000
1001
0000
0000
0001
0010
0100
1000
0000
,
1001
0000
0000
1000
0000
0000
0000
0100
0000
0000
0000
0010
0000
0100
0000
0001
,
0000
0100
0000
0010
0000
0000
0000
2001
0000
0000
0000
0000
0000
0000
0000
0000
,
0000
0000
0000
3001
0000
0000
0000
0010
0000
0000
0000
1000
0000
0010
0000
1000
,
0000
0100
0000
1000
0000
0000
0000
1002
0000
0000
0000
0000
0000
0000
0000
0010
,
0000
0000
0000
0013
0000
0000
0000
1000
0000
0100
0000
1000
0000
0100
0000
0010
,
0000
0001
0000
0020
0000
0000
0000
0100
0000
0000
0000
1000
0000
0000
0000
0130
,
0000
0000
0000
1001
0000
0000
0000
0110
0000
0000
0000
1000
0000
0100
0000
0010
,
0000
0001
0000
0100
0000
0000
0000
1010
0000
0000
0000
0101
0000
0000
0000
1010
,
0000
0000
0000
0210
0000
0000
0000
0000
0000
0302
0000
0000
0000
0000
0000
2003
,
0000
0000
0000
3010
0000
0000
0000
0001
0000
0100
0000
0010
0000
1000
0000
0100
,
0000
0010
0000
2001
0000
0000
0000
0000
0000
3020
0000
0000
0000
0000
0000
0230
,
0000
0000
0000
0301
0000
0000
0000
0000
0000
0000
0000
0000
0000
0000
0000
0000
;

//---------------dance-single - ----------------
#NOTES:
     dance-single:
     :
     Medium:
     14:
     0.753,1.000,0.896,1.000,1.000:
0000
0000
0000
0000
,
0000
0000
0000
0000
,
0000
0000
0000
0000
,
0210
0302
0023
2030
,
3200
0302
0023
2030
,
3200
0310
0001
1000
0000
0010
1000
0001
,
0000
0100
0001
2000
0001
0000
0010
0000
,
3100
0010
1000
0100
0000
0010
0001
0100
,
0000
0010
1000
0200
0001
0000
0010
0000
,
0310
0001
0100
1000
0000
1000
0100
0001
,
0000
1000
0100
0002
0100
0000
1000
0000
,
1003
0100
0010
0200
0000
0301
0010
2000
,
0000
3010
0001
0100
0020
0000
2030
0000
,
3100
0001
0100
0102
0000
2003
0000
3020
,
0000
0230
0000
0302
0000
0000
2003
0000
,
0010
3002
0010
0023
0000
0130
0200
2000
,
0300
3002
0000
0023
0000
0230
1000
0000
,
1300
0020
0100
0230
0000
0302
0010
0023
,
0000
0130
0200
2000
0300
3010
0100
0000
,
1001
0200
0002
0300
0000
0010
0023
0200
,
0030
0301
0010
0100
1000
0100
0010
0002
,
0000
1003
1100
1100
0110
0110
0011
0011
,
1001
1001
0110
0110
0011
0011
1010
1010
,
0101
0101
0011
0011
1100
1100
0110
0110
,
1001
1001
1100
1100
0011
0021
0030
1200
,
0300
0000
0012
0000
0003
0000
2001
3020
0000
0000
0000
0032
0000
0000
0000
0203
,
0000
0000
0000
2300
0000
0000
0000
3010
0000
0110
0000
0110
0000
1001
0000
1001
,
0000
1010
0000
1010
0000
1010
0000
0010
0000
0110
0000
1000
0000
1001
0000
0010
,
0000
0110
0000
1000
0000
1001
0000
0001
0000
0011
0000
0110
0000
1100
0000
1001
,
0000
0100
0000
0010
0000
2000
0000
0000
0000
3100
0000
0010
0000
2000
0000
0000
,
0000
3100
0000
0020
0000
1000
0000
0000
0000
0100
0000
0100
0000
0000
0000
0130
,
0000
0001
0000
0100
0000
2000
0000
0000
0000
3001
0000
0100
0000
2000
0000
0000
,
0000
3001
0000
0100
0000
2000
0000
0000
0000
0010
0000
3020
0000
0000
0000
0100
,
0000
0130
0000
0001
0000
0020
0000
0000
0000
0130
0000
0001
0000
0020
0000
0000
,
0000
0130
0000
0001
0000
0020
0000
0000
0000
0130
0000
0002
0000
0000
0000
1000
,
0000
1003
0000
1010
0000
0000
0000
0101
0000
0000
0000
1010
0000
0000
0000
0001
,
0000
0101
0000
0000
0000
0110
0000
0000
0000
1100
0000
0000
0000
0000
0000
0000
,
0000
1100
0000
0000
0000
1100
0000
0000
0000
0011
0000
0000
0000
0011
0000
0000
,
0000
0100
0000
0100
0000
0200
0000
0000
0000
1000
0000
1000
0000
2300
0000
0000
,
0000
0010
0000
0010
0000
3010
0000
0000
0000
0110
0000
0000
0000
0210
0000
0000
,
0000
0301
0000
1001
0000
1001
0000
0000
0000
0200
0000
0010
0000
0000
0000
0310
,
0000
0002
0000
1000
0000
2003
0000
0100
0000
3200
0000
0010
0000
0310
0000
0000
,
0000
1001
0000
1001
0000
1001
0000
0000
0000
0000
0000
0110
0000
0000
0000
0110
,
0000
0010
0000
0000
0000
0010
0000
0000
0000
0200
0000
1000
0000
1300
0000
1000
,
0000
1001
0000
1001
0000
1002
0000
0000
0000
0000
0000
0100
0000
0000
0000
0103
,
0000
1000
0000
1000
0000
0001
0000
0002
0000
0000
0000
2003
0000
0000
0000
0000
,
0000
3020
0000
0000
0000
0130
0000
0200
0000
0000
0000
0310
0000
0020
0000
0000
,
0000
1030
0000
1000
0000
0100
0000
0200
0000
0000
0000
0302
0000
0000
0000
0000
,
0000
0203
0000
0000
0000
1300
0000
2000
0000
0000
0000
3020
0000
0000
0000
0130
,
0000
0001
0000
0001
0000
0010
0000
0020
0000
0000
0000
2030
0000
0000
0000
3100
,
0000
0200
0000
0000
0000
0301
0000
0002
0000
0000
0000
0023
0000
0000
0000
0130
,
0000
1000
0000
1000
0000
0001
0000
0002
0000
0000
0000
0203
0000
0000
0000
0310
,
0000
1010
0000
0000
0000
0100
0000
0110
0000
0000
0000
1001
0000
0000
0000
0110
,
0000
0000
0000
1100
0000
1100
0000
1100
0000
1100
0000
0101
0000
0101
0000
0101
,
0000
0101
0000
1100
0000
1100
0000
0101
0000
0101
0000
1100
0000
1100
0000
0101
,
0000
0101
0000
2000
0000
0000
0000
0000
0000
0000
0000
3020
0000
0000
0000
0000
,
0000
0000
0000
0032
0000
0000
0000
0000
0000
0000
0000
0203
0000
0000
0000
0000
,
0000
0000
0000
0320
0000
0000
0000
0000
0000
0000
0000
2030
0000
0000
0000
0000
,
0000
0000
0000
3200
0000
0000
0000
0000
0000
0000
0000
0302
0000
0000
0000
0000
,
0000
0000
0000
0023
0000
0000
0000
0100
0000
0000
0000
0130
0000
0000
0000
0000
,
0000
0000
0000
2000
0000
0000
0000
0001
0000
0000
0000
3001
0000
0000
0000
0000
,
0000
0000
0000
0020
0000
0000
0000
0100
0000
0000
0000
0230
0000
0000
0000
0001
,
0000
0000
0000
0302
0000
0000
0000
1000
0000
0000
0000
2003
0000
0000
0000
0010
,
0000
0000
0000
3020
0000
0000
0000
0000
0000
0230
0000
0000
0000
0000
0000
0302
,
0000
0000
0000
0000
0000
0000
0000
2003
0000
0000
0000
3200
0000
0000
0000
0320
,
0000
0000
0000
0032
0000
0000
0000
0000
0000
2003
0000
0000
0000
0000
0000
3020
,
0000
0000
0000
0130
0000
0000
0000
0000
0000
0000
0000
0000
0000
0000
0000
0000
;

//---------------dance-single - ----------------
#NOTES:
     dance-single:
     :
     Easy:
     10:
     0.468,0.684,0.492,0.502,0.635:
0000
0000
0000
0000
,
0000
0000
0000
0000
,
0000
0000
0000
0000
,
0000
0000
0000
0000
,
0010
0001
0010
0001
0100
1000
0100
1000
,
0100
1000
0000
1001
0000
0001
0000
1001
,
0000
1000
0000
1001
0000
0020
0100
0000
,
0130
0010
0000
0110
0000
0100
0000
0110
,
0000
0010
0000
0110
0000
2000
0001
0000
,
3001
1000
0000
1001
0000
0001
0000
1001
,
0000
1000
0000
1001
0000
0200
0010
0000
,
0310
0100
0000
0110
0000
0010
0000
0110
,
0000
0100
0000
0110
0000
0002
1000
0000
,
1003
0001
0000
0101
0000
0201
0000
0000
,
0000
0320
0000
1000
0000
2030
0000
3200
,
0000
0320
0000
0001
0000
0032
0000
0100
,
0000
0203
0000
0010
0000
0310
0001
0000
,
0001
0020
0000
2030
0000
3200
0000
1300
,
0000
2000
0000
3020
0000
0032
0000
0103
,
0000
0020
0000
2030
0000
3200
0000
0301
,
0000
0101
0000
0101
0000
1100
0000
1100
,
0000
0000
0110
0000
1000
0000
0100
0000
0010
0000
0002
0000
0000
0203
0000
0000
,
0310
0000
2000
0000
0100
0000
3100
0000
0010
0000
0002
0000
0000
0203
0000
0000
,
0310
0000
2000
0000
0100
0000
0100
0000
3200
0000
0320
0000
0000
0031
0000
0000
,
0100
0020
1000
1000
1030
0110
0000
1001
,
0000
0000
0110
0000
0000
0000
2000
3000
0000
0010
0000
0001
0000
0100
0000
1000
,
0000
0100
0000
0001
0000
0010
0000
1000
0000
0100
0000
0001
0000
0010
0000
0001
,
0000
0100
0000
1000
0000
0010
0000
0110
0000
0000
0000
1001
0000
0000
0000
0110
,
0000
0000
0000
1001
0000
0000
0000
0110
0000
0000
0000
1001
0000
0000
0000
0110
,
0000
0001
0000
0000
0000
0101
0000
0000
0000
0001
0000
0000
0000
0101
0000
0000
,
0000
1000
0000
0000
0000
1200
0000
0000
0000
0000
0000
1000
0000
0300
0000
1100
,
0000
0100
0000
0000
0000
0110
0000
0000
0000
0100
0000
0000
0000
0110
0000
0000
,
0000
0001
0000
0000
0000
2001
0000
0000
0000
0000
0000
0001
0000
0000
0000
3001
,
0000
0010
0000
0000
0000
0110
0000
0000
0000
0010
0000
0000
0000
0110
0000
0000
,
0000
1000
0000
0000
0000
1100
0000
0000
0000
2000
0000
0100
0000
0000
0000
3100
,
0000
1000
0000
0001
0000
0000
0000
1001
0000
0000
0000
1001
0000
0000
0000
1000
,
0000
0100
0000
0000
0000
1100
0000
0000
0000
0101
0000
0000
0000
0000
0000
0000
,
0000
2000
0000
0000
0000
0000
0000
0000
0000
3002
0000
0000
0000
0000
0000
0000
,
0000
0000
0000
0000
0000
0000
0000
0000
0000
0103
0000
0000
0000
0010
0000
0000
,
0000
1000
0000
0000
0000
2002
0000
0000
0000
0000
0000
0000
0000
3003
0000
0000
,
0000
0010
0000
0000
0000
0100
0000
0000
0000
0010
0000
0000
0000
0100
0000
0000
,
0000
2000
0000
0000
0000
3100
0000
0000
0000
0002
0000
0000
0000
0103
0000
0000
,
0000
2000
0000
0000
0000
3100
0000
0000
0000
0002
0000
0000
0000
0103
0000
0000
,
0000
0010
0000
0000
0000
2002
0000
0000
0000
0000
0000
0000
0000
3003
0000
0000
,
0000
0100
0000
0000
0000
0100
0000
0000
0000
0100
0000
0000
0000
0100
0000
0000
,
0000
0001
0000
1000
0000
0001
0000
1000
0000
0000
0000
0000
0000
0000
0000
0000
,
0000
0100
0000
0000
0000
0000
0000
0100
0000
0000
0000
0000
0000
0000
0000
0000
,
0000
1000
0000
0001
0000
1000
0000
0001
0000
0000
0000
0000
0000
0000
0000
0000
,
0000
0010
0000
0000
0000
0000
0000
0010
0000
0000
0000
0000
0000
0000
0000
0000
,
0000
0001
0000
1000
0000
0001
0000
1000
0000
0000
0000
0000
0000
0000
0000
0000
,
0000
0110
0000
0000
0000
0000
0000
0110
0000
0000
0000
0000
0000
0000
0000
0000
,
0000
1000
0000
0001
0000
1000
0000
0001
0000
0000
0000
0000
0000
0000
0000
0000
,
0000
0110
0000
0000
0000
0000
0000
0110
0000
0000
0000
0000
0000
0000
0000
0000
,
0000
0000
0000
1000
0000
0000
0000
0010
0000
0000
0000
0001
0000
0000
0000
0100
,
0000
0000
0000
0001
0000
0000
0000
0010
0000
0000
0000
1000
0000
0000
0000
0100
,
0000
0000
0000
0002
0000
0000
0000
0000
0000
0000
0000
0003
0000
0000
0000
0000
,
0000
0000
0000
2000
0000
0000
0000
0000
0000
0000
0000
3000
0000
0000
0000
0000
,
0000
0000
0000
0002
0000
0000
0000
0000
0000
0000
0000
0003
0000
0000
0000
0000
,
0000
0000
0000
2000
0000
0000
0000
0000
0000
0000
0000
3000
0000
0000
0000
0000
,
0000
0000
0000
0020
0000
0000
0000
0000
0000
0000
0000
0030
0000
0000
0000
0000
,
0000
0000
0000
0200
0000
0000
0000
0000
0000
0000
0000
0300
0000
0000
0000
0000
,
0000
0000
0000
0020
0000
0000
0000
0000
0000
0000
0000
0030
0000
0000
0000
0000
,
0000
0000
0000
0200
0000
0000
0000
0000
0000
0000
0000
0300
0000
0000
0000
0000
,
0000
0000
0000
1000
0000
0000
0000
0000
0000
0001
0000
0000
0000
0000
0000
1000
,
0000
0000
0000
0000
,
0000
0000
0000
0001
0000
0000
0000
0000
0000
1000
0000
0000
0000
0000
0000
0001
,
0000
0000
0000
1001
0000
0000
0000
0000
0000
0000
0000
0000
0000
0000
0000
0000
;

//---------------dance-single - ----------------
#NOTES:
     dance-single:
     :
     Beginner:
     6:
     0.177,0.228,0.158,0.128,0.295:
0000
0000
0000
0000
,
0000
0000
0000
0000
,
0000
0000
0000
0000
,
0000
0000
0000
0000
,
0010
0010
0010
0010
,
0000
1000
0000
0000
0000
1000
0000
0000
,
0000
0002
0000
0000
0000
0003
0000
0000
,
0000
0001
0000
0000
0000
0001
0000
0000
,
0000
2000
0000
0000
0000
3000
0000
0000
,
0000
0010
0000
0000
0000
0010
0000
0000
,
0000
0200
0000
0000
0000
0300
0000
0000
,
0000
0100
0000
0000
0000
0100
0000
0000
,
0000
0020
0000
0000
0000
0030
0000
0000
,
0000
1000
0000
0000
0000
2000
0000
0000
,
0000
3000
0000
0000
0000
0000
0000
0000
,
0000
0001
0000
0000
0000
0001
0000
0000
,
0000
0002
0000
0000
0000
0003
0000
0000
,
0000
1000
0000
0000
0000
1000
0000
0000
,
0000
2000
0000
0000
0000
3000
0000
0000
,
0000
1001
0000
0000
0000
1001
0000
0000
,
0000
2002
0000
0000
0000
3003
0000
0000
,
0000
0100
0000
0000
0000
0010
0000
0000
,
0000
0100
0000
0000
0000
0010
0000
0000
,
0000
1000
0000
0000
0000
0001
0000
0000
,
0000
1000
0000
0000
0000
1001
0000
1001
,
0000
1001
0000
0000
0000
0000
0000
0000
,
0000
0000
0000
0000
,
0000
0000
0000
0000
0000
0000
0000
1000
0000
0000
0000
1000
0000
0000
0000
1000
,
0000
0000
0000
1000
0000
0000
0000
1000
0000
0000
0000
1000
0000
0000
0000
0000
,
0000
0001
0000
0000
0000
0000
0000
0000
0000
0001
0000
0000
0000
0000
0000
0000
,
0000
0002
0000
0000
0000
0000
0000
0000
0000
0003
0000
0000
0000
0000
0000
0000
,
0000
1000
0000
0000
0000
0000
0000
0000
0000
1000
0000
0000
0000
0000
0000
0000
,
0000
2000
0000
0000
0000
0000
0000
0000
0000
3000
0000
0000
0000
0000
0000
0000
,
0000
0010
0000
0000
0000
0000
0000
0000
0000
0010
0000
0000
0000
0000
0000
0000
,
0000
0020
0000
0000
0000
0000
0000
0000
0000
0030
0000
0000
0000
0000
0000
0000
,
0000
0100
0000
0000
0000
0000
0000
0000
0000
0100
0000
0000
0000
0000
0000
0000
,
0000
0200
0000
0000
0000
0000
0000
0000
0000
0300
0000
0000
0000
0000
0000
0000
,
0000
0001
0000
0000
0000
0000
0000
0000
0000
0001
0000
0000
0000
0000
0000
0000
,
0000
1000
0000
0000
0000
0000
0000
0000
0000
1000
0000
0000
0000
0000
0000
0000
,
0000
0001
0000
0000
0000
0000
0000
0000
0000
0001
0000
0000
0000
0000
0000
0000
,
0000
1000
0000
0000
0000
0000
0000
0000
0000
1000
0000
0000
0000
0000
0000
0000
,
0000
0010
0000
0000
0000
0000
0000
0000
0000
0010
0000
0000
0000
0000
0000
0000
,
0000
0100
0000
0000
0000
0000
0000
0000
0000
0100
0000
0000
0000
0000
0000
0000
,
0000
0010
0000
0000
0000
0000
0000
0000
0000
0010
0000
0000
0000
0000
0000
0000
,
0000
0100
0000
0000
0000
0000
0000
0000
0000
0100
0000
0000
0000
0000
0000
0000
,
0000
1001
0000
0000
0000
0000
0000
0000
0000
0000
0000
0000
0000
0000
0000
0000
,
0000
0110
0000
0000
0000
0000
0000
0000
0000
0110
0000
0000
0000
0000
0000
0000
,
0000
1001
0000
0000
0000
0000
0000
0000
0000
0000
0000
0000
0000
0000
0000
0000
,
0000
1001
0000
0000
0000
0000
0000
0000
0000
1001
0000
0000
0000
0000
0000
0000
,
0000
0110
0000
0000
0000
0000
0000
0000
0000
0000
0000
0000
0000
0000
0000
0000
,
0000
0110
0000
0000
0000
0000
0000
0000
0000
0110
0000
0000
0000
0000
0000
0000
,
0000
1001
0000
0000
0000
0000
0000
0000
0000
0000
0000
0000
0000
0000
0000
0000
,
0000
0010
0000
0000
0000
0000
0000
0000
0000
0010
0000
0000
0000
0000
0000
0000
,
0000
0010
0000
0000
0000
0000
0000
0000
0000
0000
0000
0000
0000
0000
0000
0000
,
0000
0000
0000
0000
,
0000
0000
0000
1000
0000
0000
0000
0000
0000
0000
0000
0000
0000
0000
0000
0000
,
0000
0000
0000
1000
0000
0000
0000
0000
0000
0000
0000
0000
0000
0000
0000
0000
,
0000
0000
0000
1000
0000
0000
0000
0000
0000
0000
0000
0000
0000
0000
0000
0000
,
0000
0000
0000
1000
0000
0000
0000
0000
0000
0000
0000
0000
0000
0000
0000
0000
,
0000
0000
0000
0001
0000
0000
0000
0000
0000
0000
0000
0000
0000
0000
0000
0000
,
0000
0000
0000
0001
0000
0000
0000
0000
0000
0000
0000
0000
0000
0000
0000
0000
,
0000
0000
0000
0001
0000
0000
0000
0000
0000
0000
0000
0000
0000
0000
0000
0000
,
0000
0000
0000
0001
0000
0000
0000
0000
0000
0000
0000
0000
0000
0000
0000
0000
,
0000
0000
0000
0100
0000
0000
0000
0000
0000
0000
0000
0000
0000
0000
0000
0000
,
0000
0000
0000
0010
0000
0000
0000
0000
0000
0000
0000
0000
0000
0000
0000
0000
,
0000
0000
0000
0100
0000
0000
0000
0000
0000
0000
0000
0100
0000
0000
0000
0000
,
0000
0000
0000
0100
0000
0000
0000
0000
0000
0000
0000
0000
0000
0000
0000
0000
;

//---------------dance-double - Copied from----------------
#NOTES:
     dance-double:
     Copied from:
     Easy:
     10:
     0.460,0.684,0.414,0.492,0.650:
00000000
00000000
00000000
00000000
,
00000000
00000000
00000000
00000000
,
00000000
00000000
00000000
00000000
,
00000000
00000000
00000000
00000000
,
00100000
00010000
00100000
00010000
01000000
10000000
01000000
10000000
,
01000000
10000000
00000000
01000000
00000000
00100000
00000000
00010000
,
00000000
00001000
00000000
00010000
00000000
00200000
01000000
00000000
,
01300000
00100000
00000000
00010000
00000000
00001000
00000000
00000100
,
00000000
00001000
00000000
00100000
00000000
20000000
00010000
00000000
,
30010000
10000000
00000000
01000000
00000000
00100000
00000000
00010000
,
00000000
00001000
00000000
00000100
00000000
00002000
00100000
00000000
,
00103000
00010000
00000000
00000100
00000000
00000001
00000000
00000010
,
00000000
00001000
00000000
00010000
00000000
00020000
10000000
00000000
,
10030000
00010000
00000000
01010000
00000000
02010000
00000000
00000000
,
00000000
03200000
00000000
10000000
00000000
20300000
00000000
32000000
,
00000000
03200000
00000000
00010000
00000000
00302000
00000000
00000100
,
00000000
00003020
00000000
00001000
00000000
00001030
00010000
00000000
,
00010000
00200000
00000000
20300000
00000000
32000000
00000000
13000000
,
00000000
20000000
00000000
30200000
00000000
00320000
00000000
01030000
,
00000000
00200000
00000000
20300000
00000000
32000000
00000000
03010000
,
00000000
01010000
00000000
01010000
00000000
00001100
00000000
00001100
,
00000000
00000000
00000110
00000000
00001000
00000000
00000100
00000000
00000010
00000000
00000002
00000000
00000000
00000203
00000000
00000000
,
00000310
00000000
00002000
00000000
00010000
00000000
00013000
00000000
00100000
00000000
00020000
00000000
00000000
02030000
00000000
00000000
,
03100000
00000000
00002000
00000000
00000100
00000000
00000100
00000000
00003200
00000000
00000320
00000000
00000000
00000031
00000000
00000000
,
00000100
00000020
00001000
00001000
00001030
00011000
00000000
10010000
,
00000000
00000000
01100000
00000000
00000000
00000000
20000000
30000000
00000000
00100000
00000000
00010000
00000000
00001000
00000000
00000100
,
00000000
00010000
00000000
00100000
00000000
00010000
00000000
00000010
00000000
00001000
00000000
01000000
00000000
00001000
00000000
00100000
,
00000000
00001000
00000000
00000010
00000000
00000100
00000000
00011000
00000000
00000000
00000000
00110000
00000000
00000000
00000000
00011000
,
00000000
00000000
00000000
00001100
00000000
00000000
00000000
00011000
00000000
00000000
00000000
00110000
00000000
00000000
00000000
01100000
,
00000000
00010000
00000000
00000000
00000000
01010000
00000000
00000000
00000000
00010000
00000000
00000000
00000000
01010000
00000000
00000000
,
00000000
00001000
00000000
00000000
00000000
00001200
00000000
00000000
00000000
00000000
00000000
00001000
00000000
00000300
00000000
00001100
,
00000000
00000100
00000000
00000000
00000000
00000110
00000000
00000000
00000000
00000100
00000000
00000000
00000000
00000110
00000000
00000000
,
00000000
00000001
00000000
00000000
00000000
00002001
00000000
00000000
00000000
00000000
00000000
00000001
00000000
00000000
00000000
00003001
,
00000000
00000100
00000000
00000000
00000000
00010100
00000000
00000000
00000000
00000100
00000000
00000000
00000000
00010100
00000000
00000000
,
00000000
00001000
00000000
00000000
00000000
01001000
00000000
00000000
00000000
00002000
00000000
01000000
00000000
00000000
00000000
01003000
,
00000000
00000000
00000000
00010000
00000000
00000000
00000000
10010000
00000000
00000000
00000000
10010000
00000000
00000000
00000000
10000000
,
00000000
01000000
00000000
00000000
00000000
11000000
00000000
00000000
00000000
01010000
00000000
00000000
00000000
00000000
00000000
00000000
,
00000000
20000000
00000000
00000000
00000000
00000000
00000000
00000000
00000000
30020000
00000000
00000000
00000000
00000000
00000000
00000000
,
00000000
00000000
00000000
00000000
00000000
00000000
00000000
00000000
00000000
00030100
00000000
00000000
00000000
00000010
00000000
00000000
,
00000000
00010000
00000000
00000000
00000000
20020000
00000000
00000000
00000000
00000000
00000000
00000000
00000000
30030000
00000000
00000000
,
00000000
00100000
00000000
00000000
00000000
00001000
00000000
00000000
00000000
00100000
00000000
00000000
00000000
00001000
00000000
00000000
,
00000000
00002000
00000000
00000000
00000000
00003100
00000000
00000000
00000000
00000002
00000000
00000000
00000000
00000103
00000000
00000000
,
00000000
00002000
00000000
00000000
00000000
00003100
00000000
00000000
00000000
00000002
00000000
00000000
00000000
00000103
00000000
00000000
,
00000000
00010000
00000000
00000000
00000000
00021000
00000000
00000000
00000000
00000000
00000000
00000000
00000000
00030000
00000000
00000000
,
00000000
01000000
00000000
00000000
00000000
01000000
00000000
00000000
00000000
01000000
00000000
00000000
00000000
01000000
00000000
00000000
,
00000000
00010000
00000000
10000000
00000000
00010000
00000000
10000000
00000000
00000000
00000000
00011000
00000000
00000000
00000000
00000000
,
00000000
00000010
00000000
00000000
00000000
00000000
00000000
00000010
00000000
00000000
00000000
00000000
00000000
00000000
00000000
00000000
,
00000000
00000001
00000000
00001000
00000000
00000001
00000000
00001000
00000000
00000000
00000000
00011000
00000000
00000000
00000000
00000000
,
00000000
00100000
00000000
00000000
00000000
00000000
00000000
00100000
00000000
00000000
00000000
00000000
00000000
00000000
00000000
00000000
,
00000000
00010000
00000000
10000000
00000000
00010000
00000000
10000000
00000000
00000000
00000000
00010100
00000000
00000000
00000000
00000000
,
00000000
00000110
00000000
00000000
00000000
00000000
00000000
00000110
00000000
00000000
00000000
00000000
00000000
00000000
00000000
00000000
,
00000000
00000001
00000000
00001000
00000000
00000001
00000000
00001000
00000000
00000000
00000000
00101000
00000000
00000000
00000000
00000000
,
00000000
01100000
00000000
00000000
00000000
00000000
00000000
01100000
00000000
00000000
00000000
00000000
00000000
00000000
00000000
00000000
,
00000000
00000000
00000000
10000000
00000000
00000000
00000000
00100000
00000000
00000000
00000000
00010000
00000000
00000000
00000000
01000000
,
00000000
00000000
00000000
00001000
00000000
00000000
00000000
00000010
00000000
00000000
00000000
00000001
00000000
00000000
00000000
00000100
,
00000000
00000000
00000000
00000002
00000000
00000000
00000000
00000000
00000000
00000000
00000000
00000003
00000000
00000000
00000000
00000000
,
00000000
00000000
00000000
00002000
00000000
00000000
00000000
00000000
00000000
00000000
00000000
00003000
00000000
00000000
00000000
00000000
,
00000000
00000000
00000000
00020000
00000000
00000000
00000000
00000000
00000000
00000000
00000000
00030000
00000000
00000000
00000000
00000000
,
00000000
00000000
00000000
20000000
00000000
00000000
00000000
00000000
00000000
00000000
00000000
30000000
00000000
00000000
00000000
00000000
,
00000000
00000000
00000000
00200000
00000000
00000000
00000000
00000000
00000000
00000000
00000000
00300000
00000000
00000000
00000000
00000000
,
00000000
00000000
00000000
02000000
00000000
00000000
00000000
00000000
00000000
00000000
00000000
03000000
00000000
00000000
00000000
00000000
,
00000000
00000000
00000000
00200000
00000000
00000000
00000000
00000000
00000000
00000000
00000000
00300000
00000000
00000000
00000000
00000000
,
00000000
00000000
00000000
02000000
00000000
00000000
00000000
00000000
00000000
00000000
00000000
03000000
00000000
00000000
00000000
00000000
,
00000000
00000000
00000000
10000000
00000000
00000000
00000000
00000000
00000000
00010000
00000000
00000000
00000000
00000000
00000000
10000000
,
00000000
00000000
00000000
00000000
,
00000000
00000000
00000000
00010000
00000000
00000000
00000000
00000000
00000000
00001000
00000000
00000000
00000000
00000000
00000000
00010000
,
00000000
00000000
00000000
00011000
00000000
00000000
00000000
00000000
00000000
00000000
00000000
00000000
00000000
00000000
00000000
00000000
;

//---------------dance-double - Copied from----------------
#NOTES:
     dance-double:
     Copied from:
     Medium:
     15:
     0.736,0.880,0.857,1.000,0.995:
00000000
00000000
00000000
00000000
,
00000000
00000000
00000000
00000000
,
00000000
00000000
00000000
00000000
,
02100000
03020000
00230000
00302000
,
00003200
00000302
00000023
00002030
,
00003200
00000310
00010000
00001000
00000000
00010000
00000100
00100000
,
00000000
00001000
00000000
20000000
00010000
00000000
00100000
00000000
,
31000000
00100000
10000000
01000000
00000000
00100000
00010000
01000000
,
00000000
00100000
00000000
00002000
00010000
00000000
00100000
00000000
,
00103000
00000100
00010000
00001000
00000000
00010000
01000000
00010000
,
00000000
00000100
00000000
00020000
00000100
00000000
00001000
00000000
,
00030100
00000100
00000010
00000200
00000000
00000301
00000010
00002000
,
00000000
00003010
00000000
00020000
00001000
00000000
00030100
00000000
,
00100000
00010000
01000000
01020000
00000000
20030000
00000000
30200000
,
00000000
02300000
00000000
03020000
00000000
00000000
00032000
00000000
,
00000010
00003002
00000010
00000023
00000000
00000130
00000200
00002000
,
00000300
00023000
00000000
00230000
00000000
02300000
10000000
00000000
,
13000000
00200000
01000000
02300000
00000000
03020000
00100000
00230000
,
00000000
00301000
00002000
00000200
00003000
00010300
01000000
00000000
,
10010000
02000000
00000000
03020000
00000000
00030200
00000000
00020300
,
00000000
01030000
00100000
01000000
10000000
01000000
00100000
00020000
,
00000000
10030000
11000000
11000000
01010000
00011000
00000100
00011000
,
00000100
00001010
00001010
00000101
00000101
00001010
00010000
00001010
,
00010000
00001000
00001000
00110000
00110000
01000000
10100000
01000000
,
10100000
00110000
00011000
00001100
00011000
00210000
00300000
12000000
,
03000000
00000000
00120000
00000000
00030000
00000000
20010000
30200000
00000000
00000000
00000000
00320000
00000000
00000000
00000000
02030000
,
00000000
00000000
00000000
23000000
00000000
00000000
00000000
30100000
00000000
01100000
00000000
01100000
00000000
10010000
00000000
10010000
,
00000000
00011000
00000000
00011000
00000000
00010100
00000000
00010100
00000000
01001000
00000000
01001000
00000000
10010000
00000000
10010000
,
00000000
00101000
00000000
00101000
00000000
00010010
00000000
00010010
00000000
00001001
00000000
00001001
00000000
00010100
00000000
00010100
,
00000000
01000000
00000000
00100000
00000000
20000000
00000000
00000000
00000000
31000000
00000000
00100000
00000000
20000000
00000000
00000000
,
00000000
31000000
00000000
00200000
00000000
10000000
00000000
00000000
00000000
01000000
00000000
01000000
00000000
00000000
00000000
01300000
,
00000000
00010000
00000000
00000010
00000000
00000002
00000000
00000000
00000000
00001003
00000000
00000010
00000000
00000002
00000000
00000000
,
00000000
00001003
00000000
00000010
00000000
00000002
00000000
00000000
00000000
00000100
00000000
00000203
00000000
00000000
00000000
00000010
,
00000000
00000310
00000000
00001000
00000000
00200000
00000000
00000000
00000000
01300000
00000000
00010000
00000000
00200000
00000000
00000000
,
00000000
01300000
00000000
00010000
00000000
00200000
00000000
00000000
00000000
01300000
00000000
00020000
00000000
00000000
00000000
10000000
,
00000000
10030000
00000000
10100000
00000000
00000000
00000000
01010000
00000000
00000000
00000000
00010100
00000000
00000000
00000000
00001000
,
00000000
00001010
00000000
00000000
00000000
00000110
00000000
00000000
00000000
00000011
00000000
00000000
00000000
00000000
00000000
00000000
,
00000000
00010010
00000000
00000000
00000000
00010010
00000000
00000000
00000000
00101000
00000000
00000000
00000000
00101000
00000000
00000000
,
00000000
00010100
00000000
00000000
00000000
00020000
00000000
00000000
00000000
00000010
00000000
00000020
00000000
00030000
00000000
00001030
,
00000000
00001000
00000000
00010000
00000000
00100000
00000000
00000000
00000000
01100000
00000000
00000000
00000000
02100000
00000000
00000000
,
00000000
03010000
00000000
10010000
00000000
10010000
00000000
00000000
00000000
02000000
00000000
00100000
00000000
00000000
00000000
03100000
,
00000000
00020000
00000000
00001000
00000000
00031000
00000000
00000100
00000000
00000200
00000000
00000010
00000000
00000310
00000000
00000000
,
00000000
00001001
00000000
00001001
00000000
00001001
00000000
00000000
00000000
00000000
00000000
00000110
00000000
00000000
00000000
00000110
,
00000000
00001000
00000000
00010000
00000000
00100000
00000000
00010000
00000000
02000000
00000000
10000000
00000000
13000000
00000000
10000000
,
00000000
10010000
00000000
10010000
00000000
10020000
00000000
00000000
00000000
00000000
00000000
01000000
00000000
00000000
00000000
01030000
,
00000000
10000000
00000000
10000000
00000000
00010000
00000000
00020000
00000000
00000000
00000000
20030000
00000000
00000000
00000000
00000000
,
00000000
30200000
00000000
00000000
00000000
01300000
00000000
02000000
00000000
00000000
00000000
03100000
00000000
00200000
00000000
00000000
,
00000000
10300000
00000000
10000000
00000000
01000000
00000000
02000000
00000000
00000000
00000000
03020000
00000000
00000000
00000000
00000000
,
00000000
00030200
00000000
00000000
00000000
00001300
00000000
00002000
00000000
00000000
00000000
00003020
00000000
00000000
00000000
00000130
,
00000000
00000001
00000000
00000001
00000000
00000010
00000000
00000020
00000000
00000000
00000000
00002030
00000000
00000000
00000000
00103000
,
00000000
00200000
00000000
00000000
00000000
00310000
00000000
00020000
00000000
00000000
00000000
00230000
00000000
00000000
00000000
01300000
,
00000000
10000000
00000000
10000000
00000000
00010000
00000000
00020000
00000000
00000000
00000000
00030200
00000000
00000000
00000000
00000310
,
00000000
00001010
00000000
00000000
00000000
00000100
00000000
00000110
00000000
00000000
00000000
00001010
00000000
00000000
00000000
00101000
,
00000000
00000000
00000000
11000000
00000000
11000000
00000000
11000000
00000000
11000000
00000000
01010000
00000000
01010000
00000000
01010000
,
00000000
01010000
00000000
11000000
00000000
01100000
00000000
00110000
00000000
00000000
00000000
00001100
00000000
00000110
00000000
00010010
,
00000000
00000000
00000000
20000000
00000000
00000000
00000000
00000000
00000000
00000000
00000000
30200000
00000000
00000000
00000000
00000000
,
00000000
00000000
00000000
00320000
00000000
00000000
00000000
00000000
00000000
00000000
00000000
02030000
00000000
00000000
00000000
00000000
,
00000000
00000000
00000000
03200000
00000000
00000000
00000000
00000000
00000000
00000000
00000000
20300000
00000000
00000000
00000000
00000000
,
00000000
00000000
00000000
32000000
00000000
00000000
00000000
00000000
00000000
00000000
00000000
03020000
00000000
00000000
00000000
00000000
,
00000000
00000000
00000000
00230000
00000000
00000000
00000000
01000000
00000000
00000000
00000000
01300000
00000000
00000000
00000000
00000000
,
00000000
00000000
00000000
00000200
00000000
00000000
00000000
00010000
00000000
00000000
00000000
00010300
00000000
00000000
00000000
00000000
,
00000000
00000000
00000000
00000020
00000000
00000000
00000000
00000100
00000000
00000000
00000000
00000230
00000000
00000000
00000000
00000001
,
00000000
00000000
00000000
00000302
00000000
00000000
00000000
00001000
00000000
00000000
00000000
00002003
00000000
00000000
00000000
00000010
,
00000000
00000000
00000000
00003020
00000000
00000000
00000000
00000000
00000000
00000230
00000000
00000000
00000000
00000000
00000000
00020300
,
00000000
00000000
00000000
00000000
00000000
00000000
00000000
20030000
00000000
00000000
00000000
32000000
00000000
00000000
00000000
03200000
,
00000000
00000000
00000000
00320000
00000000
00000000
00000000
00000000
00000000
00032000
00000000
00000000
00000000
00000000
00000000
00203000
,
00000000
00000000
00000000
00310000
00000000
00000000
00000000
00000000
00000000
00000000
00000000
00000000
00000000
00000000
00000000
00000000
;

//---------------dance-double - Copied from----------------
#NOTES:
     dance-double:
     Copied from:
     Hard:
     16:
     0.819,0.815,0.640,0.502,1.000: // measure 1
00000000
00000000
00000000
00000000
,  // measure 2
00000000
00000000
00000000
00000000
,  // measure 3
00000000
00000000
00000000
00000000
,  // measure 4
00002000
01000000
00023000
00100000
00032000
01000000
00203000
00001000
,  // measure 5
00320000
00000100
00030020
00000100
00020030
00000100
00030020
00000100
,  // measure 6
00002030
00000000
00013000
00000000
00100000
00000000
10000000
00000000
00100000
01000000
00100000
00000000
00010000
00000000
01000000
00000000
,  // measure 7
00100000
01000000
00100000
00000000
10000000
00000000
01000000
00000000
00010000
00000000
02000000
00000000
00100000
00000000
00000000
00000000
,  // measure 8
03010000
00000000
00000100
00000000
00000001
00000000
00001000
00000000
00000010
00000100
00000010
00000000
00000001
00000000
00001000
00000000
,  // measure 9
00000010
00000100
00000010
00000000
00000001
00000000
00000010
00000000
00001000
00000000
00000200
00000000
00000001
00000000
00000000
00000000
,  // measure 10
00000310
00000000
00001000
00000000
00010000
00000000
01000000
00000000
00100000
10000000
00100000
00000000
01000000
00000000
00010000
00000000
,  // measure 11
01000000
00100000
01000000
00000000
00010000
00000000
10000000
00000000
00100000
01000000
00200000
00000000
10000000
00000000
00000000
00000000
,  // measure 12
01300000
00000000
00010000
00000000
00001000
00000000
00000010
00000000
00000100
00000001
00000100
00000000
00000010
00000000
00001000
00000000
,  // measure 13
00000100
00001000
00000100
00000000
00000010
00000000
00000100
00000000
00001000
00000000
00200000
00000000
00010000
00000000
00000000
00000000
,  // measure 14
00310000
02000000
00100000
00010000
03200000
20000000
00300000
00000000
,  // measure 15
00000000
31000000
00010000
01000000
00100000
00000000
00101000
00000000
,  // measure 16
00010100
00000001
00000100
00000202
00000303
00001000
00000010
00000220
,  // measure 17
00000330
00000001
00000010
00000100
00001000
00000100
00010000
00000000
,  // measure 18
10010000
00100000
00010000
02010000
00000000
03100000
00010000
10200000
,  // measure 19
00000000
01300000
00010000
10000000
00100000
00000000
00010100
00000000
,  // measure 20
00010100
00000001
00000010
00000210
00000000
00000301
00000010
00001200
,  // measure 21
00000000
00001300
00000010
00000001
00000100
00000010
00001020
00000000
,  // measure 22
00000130
00000000
00010000
00000000
00000100
00000000
00001000
01000000
00001000
00000000
00010000
00000100
00000000
00000100
00000000
00001000
,  // measure 23
00000000
00010000
01000000
10000000
01000000
00000000
00010000
00000100
00010000
00000000
01000000
00001000
00000000
00001000
00000000
00020000
,  // measure 24
00000000
00000000
10030000
01000000
10000000
00000000
00010000
00100000
00010000
00000000
00000100
00000010
00000000
00000010
00000000
00001001
,  // measure 25
00000000
00000000
00000110
00000000
00000000
00000000
00001001
00000000
00000000
00000000
00011000
00000000
00000000
00000000
00110000
00000000
00000000
00000000
00000000
00000000
10000000
00000000
00000000
01000000
00000000
00000000
00100000
00000000
00010000
00000000
00000000
00100000
,  // measure 26
00000000
00000000
01000000
00000000
10000000
00000000
00000000
01000000
00000000
00000000
00100000
00000000
00010000
00000000
00002000
00000000
00000000
00000000
00000100
00000000
00000000
00000000
00003100
00000000
00000010
00000000
00000002
00000000
00000000
00000000
00000100
00000000
,  // measure 27
00000000
00001000
00000000
00000103
00000010
00002000
00000000
00000100
00000000
00000010
00000000
00003100
00000010
00000002
00000000
00000100
,  // measure 28
00000000
00001000
00000000
00000103
00100000
00001000
00000000
00010000
00001000
00010000
00000100
00010000
00001000
00010000
00000000
00000100
,  // measure 29
00001000
00000010
00001000
00000100
00001000
00000010
00000000
00010000
00000010
00010000
00001000
00010000
00000010
00010000
00000000
00011000
,  // measure 30
00000000
00100000
00000000
10000000
00010000
10000000
00000000
00100000
00000000
01000000
00000000
00010000
10000000
00010000
00000000
01000000
,  // measure 31
00000000
00100000
00000000
10000000
01000000
10000000
00000000
00010000
00000000
00000000
00000000
01001000
00000000
00000000
00000000
00010010
,  // measure 32
00000000
00000000
00000000
00000001
00000100
00000010
00000000
00001000
00000000
00000001
00000000
00000100
00000010
00001000
00000000
00000100
,  // measure 33
00000000
00000001
00000000
00001000
00000010
00000100
00000000
00000001
00000000
00000000
00000000
00010100
00000000
00000000
00000000
00110000
,  // measure 34
00000000
10000000
00000000
00100000
01000000
00100000
00000000
00010000
00000000
01000000
00000000
00100000
10000000
00100000
00000000
01000000
,  // measure 35
00000000
00010000
00000000
10000000
00100000
10000000
00000000
00010000
00000000
00000000
00000000
00101000
00000000
00000000
00000000
00010010
,  // measure 36
00000000
00001000
00000000
00010000
00000100
00001000
00000000
00000100
00000000
00000010
00000000
00000100
00000000
00000010
00000000
00000001
,  // measure 37
00000000
00000200
00000000
00000320
00000000
00000032
00000000
00001000
00000000
00000103
00000000
00010010
00000000
00000000
00000000
00101000
,  // measure 38
00000000
00010000
00000000
00000000
00000000
00010000
01000000
00020000
00000000
02000000
00000000
00000000
00000000
03030000
00000000
00000000
,  // measure 39
00000000
10000000
00000000
01000000
00100000
01000000
00000000
00010000
00000000
10000000
00000000
10010000
00000000
01000000
00000000
01100000
,  // measure 40
00000000
10000000
00000000
01000000
10000000
01000000
00000000
00000000
00000000
00011000
00000000
00000000
00000000
00001000
00000000
00000110
,  // measure 41
00000000
00000001
00000000
00000100
00000001
00000100
00000000
00000021
00000000
00000130
00000000
00001020
00000000
00000130
00000000
00001001
,  // measure 42
00000000
00000100
00000000
00010000
00000000
00001000
00100000
00001000
00000000
00010000
00000000
01000000
00000000
00100000
10000000
00100000
,  // measure 43
00000000
01000000
00100000
01000000
00000000
00021000
00000000
00000000
00000000
00030100
00000000
00001000
00000000
00000100
00000000
00000010
,  // measure 44
00000000
00001000
00000000
00000010
00000000
00000100
00000001
00000100
00000000
00000001
00000000
00000100
00000000
00000010
00001000
00000010
,  // measure 45
00000000
00001001
00000000
00001001
00000000
00002002
00000000
00000000
00000000
00003003
00000000
00001010
00000000
00000000
00000000
00010000
,  // measure 46
00000000
00001000
00000000
01000000
00000000
00010000
00000000
00100000
00000000
00000000
00000000
00110000
00000000
00000000
00000000
00000000
,  // measure 47
00000000
00010000
00000000
00010000
00000000
00010000
00000000
01000000
00000000
01000000
00000000
01100000
00000000
00000000
00000000
00000000
,  // measure 48
00000000
00001000
00000000
00000100
00000000
00000010
00000000
00000011
00000000
00000000
00000000
00001001
00000000
00000000
00000000
00000000
,  // measure 49
00000000
00001000
00000000
00001000
00000000
00000010
00000000
00000110
00000000
00000010
00000000
00000110
00000000
00000000
00000000
00000000
,  // measure 50
00000000
00001000
00000000
00100000
00000000
00001000
00000000
00010000
00000000
00000000
00000000
00010100
00000000
00000000
00000000
00000000
,  // measure 51
00000000
00010000
00000000
01000000
00000000
01100000
00000000
01000000
00000000
01000000
00000000
01100000
00000000
00000000
00000000
00000000
,  // measure 52
00000000
00010000
00000000
00000010
00000000
00010000
00000000
00000100
00000000
00000000
00000000
00011000
00000000
00000000
00000000
00000000
,  // measure 53
00000000
00000110
00000000
00000100
00000000
00000100
00000000
00000110
00000000
00000110
00000000
00000220
00000000
00000000
00000000
00000000
,  // measure 54
00000000
00000330
00000000
00000100
00001000
00100000
00001000
00000000
00011000
00000000
00000000
00010000
00100000
01000000
10000000
00000000
,  // measure 55
10010000
00000000
00000000
10000000
01000000
00100000
00010000
00000000
10010000
00000000
00000000
00100000
00001000
00010000
00000010
00000000
,  // measure 56
00010010
00000000
00000000
00000001
00000000
00000000
00000000
00000010
00000000
00000000
00000000
00000100
00000000
00000010
00000000
00001000
,  // measure 57
00000000
00000010
00000000
00000100
00000000
00000000
00000000
00001002
00000000
00000000
00000000
00000000
00000000
00000000
00000000
00000000
,  // measure 58
00000000
00000000
00000000
00001003
00000000
00000000
00000000
00000100
00000000
00000000
00000000
00010000
00000000
00000100
00000000
00010000
,  // measure 59
00000000
00001000
00000000
01000000
00000000
00000000
00000000
00021000
00000000
00000000
00000000
00000000
00000000
00000000
00000000
00100000
,  // measure 60
00000000
00000000
00000000
00130000
00000000
00000000
00000000
10000000
00000000
01000000
00000000
10000000
00000000
01000000
00000000
00100000
,  // measure 61
00000000
00010000
00000000
00200000
00000000
00000000
00000000
01000000
00000000
00000000
00000000
10000000
00000000
00000000
00000000
01300000
,  // measure 62
00000000
00000000
00000000
10010000
00000000
00000000
00000000
01100000
00000000
00000000
00000000
10000000
00000000
01000000
00000000
00100000
,  // measure 63
00000000
00010000
00000000
01000000
00000000
00000000
00000000
10100000
00000000
00000000
00000000
01010000
00000000
00000000
00000000
10100000
,  // measure 64
00000000
00000000
00000000
02100000
00000000
00000000
00000000
00000000
00000000
03020000
00000000
00000000
00000000
00000000
00000000
00032000
,  // measure 65
00000000
00000000
00000000
00103000
00000000
00000000
00000000
00010000
00000000
00000100
00000000
00001000
00000000
00000001
00000000
00000100
,  // measure 66
00000000
00000010
00000000
00010200
00000000
00000000
00000000
00000000
00000000
00002300
00000000
00000000
00000000
00000000
00000000
00203000
,  // measure 67
00000000
00000000
00000000
00310000
00000000
00000000
00000000
00000000
00000000
00000000
00000000
00000000
00000000
00000000
00000000
00000000
;
