#TITLE:DDRMAX2;
#SUBTITLE:;
#ARTIST:KONAMI;
#TITLETRANSLIT:;
#SUBTITLETRANSLIT:;
#ARTISTTRANSLIT:;
#GENRE:;
#CREDIT:;
#BANNER:DDRMAX2.png;
#BACKGROUND:;
#LYRICSPATH:;
#CDTITLE:;
#MUSIC:DDRMAX2.ogg;
#OFFSET:0.000000;
#SAMPLESTART:26.062500;
#SAMPLELENGTH:24.344196;
#SELECTABLE:YES;
#BPMS:0.000000=160.000000
,104.000000=155.171997
,214.000000=170.000000
,214.500000=190.000000
,347.500000=165.138000
,448.000000=147.981995
,454.000000=140.625000
,456.000000=143.425995
,460.000000=130.434998
,461.000000=121.619995
,462.000000=109.755997
,463.000000=83.333000
,464.000000=91.836998
,465.000000=112.500000
,466.000000=136.363998
,467.000000=148.000000
,541.833313=180.000000
;
#STOPS:
;
#BGCHANGES:;
#KEYSOUNDS:;
#ATTACKS:;

//---------------dance-single - ----------------
#NOTES:
     dance-single:
     :
     Beginner:
     4:
     0.077887,0.150896,0.059605,0.000000,0.000000,311.000000,277.000000,34.000000,0.000000,0.000000,0.000000,0.077887,0.150896,0.059605,0.000000,0.000000,311.000000,277.000000,34.000000,0.000000,0.000000,0.000000:
// measure 0
0000
0000
0000
0000
,  // measure 1
0000
0000
0000
0000
,  // measure 2
0000
0000
0000
0000
,  // measure 3
0000
0000
0000
0000
,  // measure 4
1000
0000
0000
0000
,  // measure 5
0000
0000
1000
1000
,  // measure 6
0000
0000
0100
0100
,  // measure 7
0000
0000
0010
0010
,  // measure 8
0000
0000
0001
0001
,  // measure 9
0000
0000
0100
0100
,  // measure 10
0100
0000
0001
0000
,  // measure 11
1000
0000
0100
0000
,  // measure 12
0001
0000
0100
0000
,  // measure 13
1000
0000
0100
0000
,  // measure 14
0010
0000
0001
0000
,  // measure 15
0010
0000
0001
0000
,  // measure 16
0010
0000
0010
0000
,  // measure 17
0010
0010
0010
0010
,  // measure 18
0010
0000
0001
0000
,  // measure 19
1000
0000
1000
0000
,  // measure 20
0010
0000
0010
0000
,  // measure 21
0100
0000
0100
0000
,  // measure 22
0001
0000
1000
1000
,  // measure 23
1000
0000
0001
0001
,  // measure 24
0001
0000
0001
0000
,  // measure 25
0100
0100
0100
0000
,  // measure 26
0000
0000
0000
0000
,  // measure 27
0000
0000
0000
0000
,  // measure 28
0000
0000
0000
0000
,  // measure 29
0000
0000
0000
0000
,  // measure 30
0010
0000
0100
0000
,  // measure 31
0010
0000
0100
0000
,  // measure 32
0001
0000
1000
0000
,  // measure 33
0010
0010
0010
0000
,  // measure 34
1001
0000
0100
0000
,  // measure 35
1001
0000
0100
0000
,  // measure 36
1000
0000
0100
0000
,  // measure 37
0001
0000
0100
0000
,  // measure 38
0010
0000
0100
0100
,  // measure 39
0100
0000
0001
0001
,  // measure 40
0001
0000
0010
0000
,  // measure 41
1000
0000
0001
0001
,  // measure 42
0000
0000
0000
0000
,  // measure 43
0100
0000
0010
0000
,  // measure 44
0001
0000
0000
0000
,  // measure 45
1000
0000
0100
0000
,  // measure 46
0010
0000
0000
0000
,  // measure 47
0001
0000
0000
0000
,  // measure 48
1000
0000
1000
0000
,  // measure 49
1000
1000
1000
0000
,  // measure 50
0110
0000
0000
0000
,  // measure 51
1001
0000
0000
0000
,  // measure 52
0010
0000
0100
0000
,  // measure 53
0001
0000
1001
0000
,  // measure 54
1001
0000
0000
0000
,  // measure 55
0001
0000
0100
0000
,  // measure 56
0010
0000
1000
0000
,  // measure 57
0001
0000
0100
0000
,  // measure 58
0010
0000
1000
0000
,  // measure 59
0001
0000
0001
0000
,  // measure 60
1000
0000
1000
0000
,  // measure 61
0100
0000
0100
0000
,  // measure 62
0100
0000
0000
0000
,  // measure 63
1000
0000
0100
0000
,  // measure 64
0001
0000
0100
0000
,  // measure 65
1000
0000
0100
0000
,  // measure 66
0001
0000
0100
0000
,  // measure 67
1000
0000
0000
0000
,  // measure 68
1000
0000
0000
0000
,  // measure 69
0010
0000
0100
0000
,  // measure 70
1001
0000
0000
0000
,  // measure 71
1000
0000
0000
0000
,  // measure 72
1000
0000
0000
0000
,  // measure 73
0001
0000
0000
0000
,  // measure 74
0001
0000
0000
0000
,  // measure 75
1000
0000
0001
0000
,  // measure 76
1000
0000
0001
0000
,  // measure 77
0001
0000
1000
0000
,  // measure 78
0010
0000
0000
0000
,  // measure 79
0100
0000
0000
0000
,  // measure 80
0010
0000
0000
0000
,  // measure 81
1000
0000
0001
0000
,  // measure 82
0010
0000
0010
0000
,  // measure 83
0001
0000
0001
0000
,  // measure 84
1000
0000
0001
0000
,  // measure 85
0100
0000
0100
0000
,  // measure 86
0000
0000
0000
0000
,  // measure 87
1000
0000
1000
0000
,  // measure 88
0001
0000
0001
0000
,  // measure 89
1000
0000
1000
0000
,  // measure 90
0001
0000
0001
0000
,  // measure 91
0010
0000
0010
0000
,  // measure 92
0100
0000
0100
0000
,  // measure 93
0010
0000
0010
0000
,  // measure 94
0100
0000
0100
0000
,  // measure 95
1000
0000
0001
0000
,  // measure 96
0010
0000
0100
0000
,  // measure 97
1000
0000
0010
0000
,  // measure 98
0100
0000
0001
0000
,  // measure 99
0010
0000
1001
0000
,  // measure 100
0100
0000
1001
0000
,  // measure 101
0010
0000
1001
0000
,  // measure 102
0100
0000
1001
0000
,  // measure 103
0110
0000
1001
0000
,  // measure 104
0010
0000
1001
0000
,  // measure 105
1001
0000
0110
0000
,  // measure 106
1000
0000
0110
0000
,  // measure 107
0110
0000
1001
0000
,  // measure 108
0010
0000
1001
0000
,  // measure 109
0110
0000
1001
0000
,  // measure 110
0010
0000
1001
0000
,  // measure 111
0010
0000
0110
0000
,  // measure 112
1001
0000
0000
0000
,  // measure 113
0000
0000
0000
0000
,  // measure 114
0000
0000
0000
0000
,  // measure 115
0000
0000
0000
0000
,  // measure 116
0100
0000
0000
0000
,  // measure 117
0000
0000
0000
0100
,  // measure 118
0100
0000
0000
1000
,  // measure 119
1000
0000
0000
0010
,  // measure 120
0010
0000
0000
0001
,  // measure 121
0001
0000
0000
0000
,  // measure 122
0010
0000
1001
0000
,  // measure 123
0010
0000
1001
0000
,  // measure 124
0010
0000
1001
0000
,  // measure 125
0010
0000
1001
1001
,  // measure 126
1001
0000
0000
0110
,  // measure 127
0110
0000
0000
1000
,  // measure 128
1000
0000
0000
0001
,  // measure 129
0001
0000
0000
0000
,  // measure 130
0100
0000
0100
0000
,  // measure 131
0010
0000
0010
0000
,  // measure 132
0010
0000
1000
0000
,  // measure 133
0100
0000
0001
0000
,  // measure 134
0010
0000
1000
0000
,  // measure 135
0100
0000
1001
0000
,  // measure 136
0000
0000
0000
0000
,  // measure 137
0000
0000
1000
0000
,  // measure 138
1000
0000
0100
0000
,  // measure 139
0100
0000
1000
0000
,  // measure 140
0100
0000
1000
1000
,  // measure 141
1000
0000
0001
0000
,  // measure 142
0001
0000
0100
0000
,  // measure 143
0100
0000
0001
0000
,  // measure 144
0100
0000
0001
0001
,  // measure 145
0001
0000
1000
0000
,  // measure 146
1000
0000
0010
0000
,  // measure 147
0010
0000
1000
0000
,  // measure 148
0010
0000
1000
1000
,  // measure 149
1000
0000
0001
0000
,  // measure 150
0001
0000
0010
0000
,  // measure 151
0010
0000
0001
0000
,  // measure 152
0010
0000
0001
0001
,  // measure 153
0001
0000
1000
0000
,  // measure 154
0001
0000
0100
0000
,  // measure 155
0010
0000
0100
0000
,  // measure 156
1000
0000
0001
0000
;

//---------------dance-single - ----------------
#NOTES:
     dance-single:
     :
     Easy:
     5:
     0.091661,0.137836,0.080642,0.029802,0.000000,366.000000,320.000000,46.000000,17.000000,0.000000,0.000000,0.091661,0.137836,0.080642,0.029802,0.000000,366.000000,320.000000,46.000000,17.000000,0.000000,0.000000:
// measure 0
0000
0000
0000
0000
,  // measure 1
0000
0000
0000
0000
,  // measure 2
0000
0000
0000
0000
,  // measure 3
0000
0000
0000
0000
,  // measure 4
2000
0000
0000
0000
,  // measure 5
0000
3000
0100
0100
,  // measure 6
0001
0000
0100
0100
,  // measure 7
1000
0000
0100
0100
,  // measure 8
0001
0000
0100
0000
,  // measure 9
1000
0000
0100
0100
,  // measure 10
0001
0000
0100
0000
,  // measure 11
1000
0000
0100
0000
,  // measure 12
0001
0001
0100
0100
,  // measure 13
1000
1000
0100
0100
,  // measure 14
0010
0001
0010
0001
,  // measure 15
0010
0001
0100
0100
,  // measure 16
0010
0000
0010
0000
,  // measure 17
0010
0010
0010
1001
,  // measure 18
0001
0000
0001
0000
,  // measure 19
1000
0000
1000
0000
,  // measure 20
0010
0000
0010
0000
,  // measure 21
0100
0000
0100
0000
,  // measure 22
0001
0000
1000
1000
,  // measure 23
0001
0000
1000
1000
,  // measure 24
0001
0000
0001
0000
,  // measure 25
0001
0001
0001
0001
,  // measure 26
2000
0000
0000
3000
,  // measure 27
0000
0000
0000
0000
,  // measure 28
0000
0000
0000
0000
,  // measure 29
0000
0000
0000
0000
,  // measure 30
0010
0000
0100
0000
,  // measure 31
0010
0000
0100
0000
,  // measure 32
0001
0000
1000
0000
,  // measure 33
0010
0010
0010
0000
,  // measure 34
1001
0000
0100
0000
,  // measure 35
1001
0000
0100
0000
,  // measure 36
1000
0000
0100
0000
,  // measure 37
0001
0000
0100
0000
,  // measure 38
0010
0000
0100
0100
,  // measure 39
1000
0000
0001
0001
,  // measure 40
0100
0000
0010
0000
,  // measure 41
1000
0000
0001
0000
,  // measure 42
1000
0000
0000
0000
,  // measure 43
0100
0000
0010
0000
,  // measure 44
0001
0000
0000
0000
,  // measure 45
1000
0000
0100
0000
,  // measure 46
0010
0000
0000
0000
,  // measure 47
0001
0000
0000
0000
,  // measure 48
1000
0000
1000
0000
,  // measure 49
1000
1000
1000
0000
,  // measure 50
0110
0000
0000
0000
,  // measure 51
1001
0000
0000
0000
,  // measure 52
0010
0000
0100
0000
,  // measure 53
0001
1000
0100
0000
,  // measure 54
1001
0000
1000
0000
,  // measure 55
0001
0000
1001
0000
,  // measure 56
0010
0000
0010
0000
,  // measure 57
0100
0000
0010
0000
,  // measure 58
1001
0000
1000
0000
,  // measure 59
0001
0000
1001
0000
,  // measure 60
0010
0000
0010
0000
,  // measure 61
0100
0000
0100
0000
,  // measure 62
0110
0000
0010
0000
,  // measure 63
1000
0000
0100
0000
,  // measure 64
0110
0000
0010
0000
,  // measure 65
0001
0000
0100
0000
,  // measure 66
0110
0000
0010
0000
,  // measure 67
1000
0000
0100
0000
,  // measure 68
0110
0000
0010
0000
,  // measure 69
0010
0001
0100
0000
,  // measure 70
1001
0000
0000
0000
,  // measure 71
1000
0000
0001
0000
,  // measure 72
1001
0000
0000
0000
,  // measure 73
1000
0000
0001
0000
,  // measure 74
1001
0000
0000
0000
,  // measure 75
1000
0000
0001
0000
,  // measure 76
1000
0000
1000
0000
,  // measure 77
0001
0000
0001
0000
,  // measure 78
0010
0000
1000
0000
,  // measure 79
0100
0000
1000
0000
,  // measure 80
0010
0000
0001
0000
,  // measure 81
0100
0000
0001
0000
,  // measure 82
0010
0000
1000
0000
,  // measure 83
0100
0000
1000
0000
,  // measure 84
0010
0000
0001
0000
,  // measure 85
0100
0000
0200
0000
,  // measure 86
0000
0000
0000
0000
,  // measure 87
1300
0000
1000
0000
,  // measure 88
0001
0000
0001
0000
,  // measure 89
1000
0000
1000
0000
,  // measure 90
0001
0000
0001
1001
,  // measure 91
0010
0000
0010
0000
,  // measure 92
0100
0000
0100
0000
,  // measure 93
0010
0000
0010
0000
,  // measure 94
0100
0000
0100
0110
,  // measure 95
1000
0000
0001
0000
,  // measure 96
0010
0000
0100
0000
,  // measure 97
1000
0000
0010
0000
,  // measure 98
0100
0000
0001
1001
,  // measure 99
0010
0000
1001
0000
,  // measure 100
0100
0000
1001
0000
,  // measure 101
0010
0000
1001
0000
,  // measure 102
0100
0000
1001
0000
,  // measure 103
0110
0000
1001
0000
,  // measure 104
0010
0100
1001
0000
,  // measure 105
1001
0000
0110
0000
,  // measure 106
1000
0001
0110
0000
,  // measure 107
0011
0000
1001
0000
,  // measure 108
0010
0001
1001
0000
,  // measure 109
1010
0000
1001
0000
,  // measure 110
0010
1000
1001
0000
,  // measure 111
1010
0000
0101
0000
,  // measure 112
1001
0000
0000
0000
,  // measure 113
0000
0000
0000
0000
,  // measure 114
0000
0000
0000
0000
,  // measure 115
0000
0000
0000
0000
,  // measure 116
0100
0000
0000
0000
,  // measure 117
0000
0000
0000
0100
,  // measure 118
0020
0000
0030
1000
,  // measure 119
0002
0003
1000
0100
,  // measure 120
0020
0000
0030
0001
,  // measure 121
2000
0000
0000
3000
,  // measure 122
0010
0100
0000
1000
,  // measure 123
0100
0001
0000
0010
,  // measure 124
1000
0000
1000
0000
,  // measure 125
0001
0100
0000
0100
,  // measure 126
0020
0000
0030
1000
,  // measure 127
0002
0003
1000
0100
,  // measure 128
0020
0000
0030
0001
,  // measure 129
1000
0000
0010
0000
,  // measure 130
0100
0000
0100
0001
,  // measure 131
0000
1000
0000
0001
0000
1000
0000
0001
,  // measure 132
0020
0030
1000
1000
,  // measure 133
0200
0300
0001
0001
,  // measure 134
0200
0300
0010
0010
,  // measure 135
0100
0000
0000
1000
2002
0000
0000
0000
,  // measure 136
0000
3003
0000
0000
,  // measure 137
0000
0000
0010
0001
,  // measure 138
0100
0000
1000
0000
,  // measure 139
1000
0000
0010
1000
,  // measure 140
0100
0000
0001
0000
,  // measure 141
0001
0000
0100
0000
,  // measure 142
0100
0000
0000
0010
,  // measure 143
0000
0010
1000
0000
,  // measure 144
0001
0000
0010
0000
,  // measure 145
0100
0000
0100
0001
,  // measure 146
0010
0000
1000
0000
,  // measure 147
1000
0000
0100
1000
,  // measure 148
0010
0000
0001
0000
,  // measure 149
0001
0000
0010
0000
,  // measure 150
0010
0000
0000
0100
,  // measure 151
0000
0100
1000
0000
,  // measure 152
0001
0000
0100
0000
,  // measure 153
0010
0000
1100
0000
,  // measure 154
1001
0000
0011
0000
,  // measure 155
1001
0000
0110
0000
,  // measure 156
0110
0000
2002
0000
,  // measure 157
0000
3003
0000
0000
;

//---------------dance-single - ----------------
#NOTES:
     dance-single:
     :
     Medium:
     8:
     0.165290,0.192970,0.106938,0.063111,0.027173,660.000000,599.000000,61.000000,36.000000,0.000000,0.000000,0.165290,0.192970,0.106938,0.063111,0.027173,660.000000,599.000000,61.000000,36.000000,0.000000,0.000000:
// measure 0
0000
0000
0000
0000
,  // measure 1
0000
0000
0000
0000
,  // measure 2
0000
0000
0000
0000
,  // measure 3
0000
0000
0000
0000
,  // measure 4
0020
0000
0000
0000
,  // measure 5
0100
0000
0130
0000
0000
0001
0100
0000
,  // measure 6
0010
1000
0010
0000
0010
1000
0010
0000
,  // measure 7
0001
0100
0001
0000
0001
0100
0001
0000
,  // measure 8
2000
3100
0002
0103
,  // measure 9
2000
0000
3000
1001
,  // measure 10
0010
0010
2000
3100
,  // measure 11
0010
0010
0002
0103
,  // measure 12
0010
1000
0010
0000
0001
0100
0001
0000
,  // measure 13
1001
0100
0010
1001
,  // measure 14
0010
1000
0100
0001
,  // measure 15
0001
1000
0100
0000
0010
0000
0010
0000
,  // measure 16
0100
1000
1000
0000
0100
0001
0001
0000
,  // measure 17
0010
1000
0010
1000
0010
0000
1001
0000
,  // measure 18
1000
0000
0100
0000
0001
0010
0100
0000
,  // measure 19
0001
0000
0100
0000
1000
0010
0100
0000
,  // measure 20
0001
0010
0100
0000
0001
0010
0100
0000
,  // measure 21
1000
0010
0100
0000
1000
0010
0100
0000
,  // measure 22
0002
0103
2000
3100
,  // measure 23
0002
0103
2000
3100
,  // measure 24
0010
0010
0010
0010
,  // measure 25
0001
0100
0010
1001
,  // measure 26
0220
0000
0000
0330
,  // measure 27
0000
0000
0000
0000
,  // measure 28
0000
0000
0000
0000
,  // measure 29
0000
0000
0000
0000
,  // measure 30
0010
0000
1001
0000
0010
1000
0100
0000
,  // measure 31
0010
0000
1001
0000
0010
1000
0100
0000
,  // measure 32
0001
0001
1000
1000
,  // measure 33
0010
0010
0010
1001
,  // measure 34
0010
0000
0100
0000
0010
1000
0100
0000
,  // measure 35
0001
0100
1000
0100
,  // measure 36
0020
0030
0100
0100
,  // measure 37
1000
0100
0001
0100
,  // measure 38
2000
3000
0100
0100
,  // measure 39
0002
0003
0100
0100
,  // measure 40
1000
0000
0001
0000
0010
1000
0100
0000
,  // measure 41
0001
0000
1000
0000
0010
1000
0100
0000
,  // measure 42
1001
0000
0100
0000
0001
1000
0100
0000
,  // measure 43
0010
1000
0001
0000
0010
1000
0001
0000
,  // measure 44
0010
0000
0100
0000
0001
1000
0100
0000
,  // measure 45
0001
1000
0100
0000
1001
0000
0100
0000
,  // measure 46
0010
0000
1001
0000
0000
0100
0100
0000
,  // measure 47
1000
0000
0110
0000
0000
0001
0001
0000
,  // measure 48
1000
0100
0001
0101
,  // measure 49
1000
0100
0001
0100
,  // measure 50
1000
0000
0000
1000
0000
0000
1000
0000
0000
0000
0000
0000
0000
0000
0000
0000
,  // measure 51
0001
0000
0000
0001
0000
0000
0001
0000
0000
0000
0000
0000
0000
0000
0000
0000
,  // measure 52
0010
0000
0000
1000
0000
0000
0100
0000
0000
0010
0000
0000
0001
0000
0001
0000
,  // measure 53
1000
0000
0000
0100
0000
0000
0100
0000
0000
0000
0000
0000
0000
0000
0000
0000
,  // measure 54
1000
0010
0100
1000
,  // measure 55
0100
0001
0100
0010
,  // measure 56
0100
0100
0100
1001
,  // measure 57
0100
1001
0100
1001
,  // measure 58
0010
0001
0100
1000
,  // measure 59
0001
0010
1000
0100
,  // measure 60
1001
0100
1001
0100
,  // measure 61
1100
0101
1000
0100
,  // measure 62
1000
0010
0100
1000
,  // measure 63
0100
0001
0100
0010
,  // measure 64
0101
1000
1100
0001
,  // measure 65
0010
0001
0100
1001
,  // measure 66
0010
0001
0100
1000
,  // measure 67
0001
0010
1000
0100
,  // measure 68
0010
1001
0100
1001
,  // measure 69
0010
1000
0100
0000
,  // measure 70
0002
0000
0100
0000
,  // measure 71
0100
0000
0100
0003
,  // measure 72
2000
0000
0100
0000
,  // measure 73
0100
0000
0100
3000
,  // measure 74
0002
0003
0200
0300
,  // measure 75
2000
3000
0200
0300
,  // measure 76
0001
1000
0100
1100
,  // measure 77
0001
0101
1000
1000
,  // measure 78
0001
0010
0001
0100
,  // measure 79
0010
0100
0001
1000
,  // measure 80
0101
1000
0100
1001
,  // measure 81
0010
0010
0010
1001
,  // measure 82
1000
0010
1000
0100
,  // measure 83
0010
0100
1000
0001
,  // measure 84
1100
0001
0100
1001
,  // measure 85
0010
0000
1000
0000
0100
0000
0000
0002
,  // measure 86
0000
0000
0000
0000
,  // measure 87
0013
0000
0000
0010
0000
0000
0010
0000
0010
1000
0000
1000
,  // measure 88
0001
0000
0000
0001
0000
0000
0001
0000
0001
0100
0000
0100
,  // measure 89
0010
0000
0000
0010
0000
0000
0010
0000
0010
1000
0000
1000
,  // measure 90
0001
0000
0000
0001
0000
0000
0001
0000
0001
0100
0000
0100
,  // measure 91
0010
0000
0000
0010
0000
0000
0010
0000
0010
0100
0000
0100
,  // measure 92
0001
0000
0000
0001
0000
0000
0001
0000
0001
1000
0000
1000
,  // measure 93
0100
0000
0000
0100
0000
0000
0100
0000
0100
0010
0000
0010
,  // measure 94
0001
0000
0000
0001
0000
0000
0001
0000
0001
1000
0000
1000
,  // measure 95
0001
0001
1000
1000
,  // measure 96
0010
0010
0100
0100
,  // measure 97
0001
0001
1000
1000
,  // measure 98
0010
0010
0100
0100
,  // measure 99
0010
0010
1100
0000
,  // measure 100
0100
0100
0011
0000
,  // measure 101
0001
1001
1000
1001
,  // measure 102
0100
0100
1001
0000
,  // measure 103
0010
0000
0000
0000
0010
0000
0000
0000
0010
0000
0000
0010
0001
0000
0000
0001
,  // measure 104
1000
0000
0000
0000
1000
0000
0000
0000
1000
0000
0000
0000
1000
0000
0000
0001
,  // measure 105
0100
0000
0000
0000
0100
0000
0000
0000
0100
0000
0000
0100
0001
0000
0000
0001
,  // measure 106
1000
0001
0001
0001
,  // measure 107
0100
0000
0000
0000
0100
0000
0000
0000
0100
0000
0000
0100
1000
0000
0000
1000
,  // measure 108
0001
0000
0000
0000
1000
0000
0000
0000
1000
0000
0000
0000
1000
0000
0000
0001
,  // measure 109
0010
0000
0000
0000
0010
0000
0000
0000
0010
0000
0000
0010
0001
0000
0000
0001
,  // measure 110
1000
0000
0001
0000
1001
0000
0000
1010
,  // measure 111
0000
0101
0000
0000
0011
0000
1100
0000
,  // measure 112
1001
0000
0000
0000
,  // measure 113
0000
0000
0000
0000
,  // measure 114
0000
0000
0000
0000
,  // measure 115
0000
0000
0000
0000
,  // measure 116
0100
0000
0000
0000
,  // measure 117
0000
0000
0000
1000
,  // measure 118
0001
0010
0001
0000
0100
0000
0100
0000
,  // measure 119
0001
0001
1000
1000
,  // measure 120
1000
0010
1000
0000
0100
0000
0100
0000
,  // measure 121
1000
0000
1000
0000
0001
0100
0000
0001
,  // measure 122
0010
0100
0010
0000
1000
0000
0001
0100
,  // measure 123
0010
0100
0010
0000
0001
0000
1000
0000
,  // measure 124
0100
0001
0000
0010
0000
0100
0000
1000
,  // measure 125
0010
0000
1000
0000
0001
0000
0100
0010
,  // measure 126
0001
0010
0001
0000
0100
0000
0100
0000
,  // measure 127
0001
0001
1000
1000
,  // measure 128
1000
0010
1000
0000
0100
0000
0100
0000
,  // measure 129
0001
0010
0000
1000
0000
0010
0000
0100
,  // measure 130
0010
1000
0000
0100
0001
0000
0010
0000
,  // measure 131
0000
1000
0000
0001
0000
0010
0001
0100
,  // measure 132
0010
0000
1000
0100
1000
0000
0001
0000
,  // measure 133
0010
0000
0001
0100
0001
0000
1000
0000
,  // measure 134
0010
0000
1000
0001
1000
0000
0100
0000
,  // measure 135
1001
0000
0000
0100
0220
0000
0000
0000
,  // measure 136
0000
0330
0000
0000
,  // measure 137
0000
0000
0001
1000
,  // measure 138
0100
0101
1000
0001
,  // measure 139
0100
1100
0001
0101
,  // measure 140
1000
1100
0010
0001
,  // measure 141
0100
0000
2200
3300
,  // measure 142
0202
0000
0303
0010
,  // measure 143
0010
0010
0010
1000
,  // measure 144
0100
0001
0010
1000
,  // measure 145
0100
1001
1000
0001
,  // measure 146
0010
0110
0001
1000
,  // measure 147
0010
0110
1000
0001
,  // measure 148
0010
0100
0001
0001
,  // measure 149
0010
0000
2002
3003
,  // measure 150
2200
0000
3300
0001
,  // measure 151
0001
0001
0001
0100
,  // measure 152
1000
0010
0001
0100
,  // measure 153
1000
1001
0201
0010
,  // measure 154
0001
0310
1200
0010
,  // measure 155
1000
0310
0001
1000
,  // measure 156
0100
0010
2002
0000
,  // measure 157
0000
3003
0000
0000
;

//---------------dance-single - ----------------
#NOTES:
     dance-single:
     :
     Hard:
     12:
     0.237668,0.248105,0.143753,0.031555,0.106061,949.000000,867.000000,82.000000,18.000000,0.000000,0.000000,0.237668,0.248105,0.143753,0.031555,0.106061,949.000000,867.000000,82.000000,18.000000,0.000000,0.000000:
// measure 0
0000
0000
0000
0000
,  // measure 1
0000
0000
0000
0000
,  // measure 2
0000
0000
0000
0000
,  // measure 3
0000
0000
0000
0000
,  // measure 4
0010
0010
0020
0000
0000
2000
0030
0000
,  // measure 5
3000
0001
0000
0100
0000
1001
1001
0000
,  // measure 6
0010
1000
0100
0000
0010
0001
0100
0000
,  // measure 7
0001
1000
0100
0000
1000
0001
0100
0000
,  // measure 8
0010
1000
0100
0001
0100
1000
0010
0000
,  // measure 9
0000
1000
0000
0001
0000
0010
1001
0000
,  // measure 10
0010
1000
0001
1000
0100
0001
0100
0000
,  // measure 11
0010
0010
0010
0000
1000
0000
0100
0000
,  // measure 12
0010
0001
0100
0001
1000
0010
0100
0001
,  // measure 13
1000
0010
0001
0010
1000
0100
0001
0000
,  // measure 14
0100
1000
1000
0000
0100
0001
0001
0000
,  // measure 15
1000
0010
0100
0001
0010
0100
1000
0000
,  // measure 16
0010
1000
0101
0000
0001
1000
1100
0000
,  // measure 17
0100
0001
1000
0100
1001
0000
1001
0000
,  // measure 18
1000
0000
0000
0000
0001
0000
0000
0000
0100
0010
0100
0000
0110
0000
0000
0000
,  // measure 19
0010
0000
0000
0000
0100
0000
0000
0000
0001
1000
0001
0000
1001
0000
0000
0000
,  // measure 20
1000
0000
0000
0000
0010
0000
0000
0000
0100
0001
0100
0000
0101
0000
0000
0000
,  // measure 21
1000
0000
0000
0000
0100
0000
0000
0000
0010
0001
0010
0000
0011
0000
0000
0000
,  // measure 22
0100
0000
1000
0001
0000
0000
0100
0000
,  // measure 23
0010
1000
0000
0001
0000
1000
0100
0010
,  // measure 24
0001
0000
1000
0100
0000
1000
0001
0000
,  // measure 25
0010
1000
0100
0000
0010
0001
0100
0000
,  // measure 26
2002
0000
0000
3003
,  // measure 27
0000
0000
0000
0000
,  // measure 28
0000
0000
0000
0000
,  // measure 29
0000
0000
0000
0000
,  // measure 30
0010
1000
0100
0000
0010
0001
0100
0000
,  // measure 31
0010
1000
0001
0100
0010
1000
0100
0000
,  // measure 32
0001
1000
0100
0000
1000
0001
0100
0000
,  // measure 33
0001
1000
0000
0010
0000
1000
0001
0100
,  // measure 34
0010
0000
1001
0000
0010
1000
0100
0000
,  // measure 35
1001
0100
0010
0000
0110
1000
0001
0000
,  // measure 36
1000
0001
1000
0010
0100
0001
0001
0000
,  // measure 37
0001
1000
0001
0010
0100
1000
1000
0000
,  // measure 38
0010
0100
0002
0000
0000
1000
1000
0000
,  // measure 39
0000
0000
0100
0000
0000
1000
1003
0000
,  // measure 40
0010
0000
0100
0000
0010
1000
0100
0000
,  // measure 41
1000
0010
0001
0010
1000
0100
0001
0000
,  // measure 42
0010
0100
0001
0100
0010
0100
0001
0100
,  // measure 43
0010
1000
0010
0100
0010
1000
0010
0100
,  // measure 44
0001
0010
0001
1000
0001
0010
0001
1000
,  // measure 45
0100
0010
0100
0001
0100
0010
0100
0001
,  // measure 46
0000
0110
0110
0000
0000
0100
0100
1000
,  // measure 47
0000
0110
1001
0000
0000
0001
1000
0100
,  // measure 48
1000
0000
0001
0101
0000
0000
0010
0000
,  // measure 49
1000
1001
0000
0000
0010
0000
0010
0000
,  // measure 50
1001
0000
0000
1100
0000
0000
2002
0000
0000
0000
0000
0000
3003
0000
0000
0000
,  // measure 51
0110
0000
0000
1100
0000
0000
0220
0000
0000
0000
0000
0000
0330
0000
0000
0000
,  // measure 52
0110
0000
0000
1000
0000
0000
0001
0000
0000
0010
0000
0000
0100
0000
0100
0000
,  // measure 53
1000
0000
0000
0110
0000
0000
1001
0000
0000
0000
0000
0000
0000
0000
0000
0000
,  // measure 54
1000
0100
0001
0000
1000
0100
0001
0000
,  // measure 55
1000
1100
0001
0101
,  // measure 56
1000
0100
0001
0000
1000
0100
0001
0000
,  // measure 57
0010
1001
0100
1001
,  // measure 58
1000
0100
0001
0000
1000
0100
0001
0000
,  // measure 59
0010
0001
0101
1100
,  // measure 60
1000
0100
0001
0000
1000
0100
0001
0000
,  // measure 61
1100
0101
1100
0101
,  // measure 62
0001
0100
1000
0000
0001
0100
1000
0000
,  // measure 63
0010
0010
1001
0100
,  // measure 64
0001
0100
1000
0000
0001
0100
1000
0000
,  // measure 65
0010
0100
0011
1010
,  // measure 66
0001
0100
1000
0000
0001
0100
1000
0000
,  // measure 67
1100
0001
1100
0001
,  // measure 68
0001
0100
1000
0000
0001
0100
1000
0000
,  // measure 69
0000
1000
0100
0001
0010
0000
0000
0000
,  // measure 70
0110
0000
1000
0100
0001
0010
1000
0000
,  // measure 71
0110
0000
0001
0100
1000
0010
0001
0000
,  // measure 72
0110
0000
1000
0100
0001
0010
1000
0000
,  // measure 73
0110
0000
0001
0100
1000
0010
0001
0000
,  // measure 74
1000
0100
1000
0000
0001
0100
0001
0000
,  // measure 75
1000
0100
0001
0000
1000
0100
0001
0000
,  // measure 76
0010
1000
0001
0000
0010
1000
0001
0000
,  // measure 77
1100
1001
0101
1001
,  // measure 78
1000
0100
0010
0100
1000
0100
0001
0000
,  // measure 79
1010
0100
0010
0101
,  // measure 80
0001
0100
0010
0100
1000
0100
0001
0000
,  // measure 81
0101
0010
1100
0010
,  // measure 82
1000
0010
0100
1000
0001
0010
0100
0000
,  // measure 83
1001
0100
1001
0100
,  // measure 84
0001
0010
0100
0001
1000
0010
0100
0000
,  // measure 85
0000
0001
0100
1000
0010
0000
0000
0200
,  // measure 86
0000
0000
0000
0000
,  // measure 87
0310
0000
0010
1000
0000
1000
0001
0000
0001
0100
0000
0100
,  // measure 88
0010
0000
0010
1000
0000
1000
0001
0000
0001
0100
0000
0100
,  // measure 89
0010
0000
0010
1000
0000
1000
0001
0000
0001
0100
0000
0100
,  // measure 90
0010
0000
0010
1000
0000
1000
0001
0000
0001
0100
0000
0100
,  // measure 91
0010
0000
0010
1000
0000
1000
0100
0000
0100
0010
0000
0010
,  // measure 92
0001
0000
0001
0100
0000
0100
0010
0000
0010
1000
0000
1000
,  // measure 93
0010
0000
0010
1000
0000
1000
0100
0000
0100
0010
0000
0010
,  // measure 94
0001
0000
0001
0100
0000
0100
0010
0000
0010
1000
0000
1000
,  // measure 95
0010
0000
0000
0000
0000
0000
0000
0000
0000
0000
0000
0000
0000
0000
0000
0000
0000
0000
0000
0000
0000
0000
0000
0000
0000
0000
0000
0000
0000
0000
0000
0000
0000
0000
0000
0000
0000
0000
0000
0000
0000
0000
0010
0000
0000
0000
0000
0000
0100
0000
0000
0000
0000
0000
0000
0000
0000
0000
0000
0000
0000
0000
0000
0000
0000
0000
0000
0000
0000
0000
0000
0000
0000
0000
0000
0000
0000
0000
0000
0000
0100
0000
0000
0000
0000
0000
0000
0000
0000
0000
0000
0000
0000
0000
0000
0000
0001
0000
0000
0000
0000
0000
0000
0000
0000
0000
0000
0000
0000
0000
0000
0000
0000
0000
0000
0000
0000
0000
0000
0000
0000
0000
0000
0000
0000
0000
0000
0000
0000
0000
0000
0000
0000
0000
0000
0000
0000
0000
0001
0000
0000
0000
0000
0000
1000
0000
0000
0000
0000
0000
0000
0000
0000
0000
0000
0000
0000
0000
0000
0000
0000
0000
0000
0000
0000
0000
0000
0000
0000
0000
0000
0000
0000
0000
0000
0000
1000
0000
0000
0000
0000
0000
0000
0000
0000
0000
0000
0000
0000
0000
0000
0000
,  // measure 96
0010
0000
0000
0000
0000
0000
0000
0000
0000
0000
0000
0000
0000
0000
0000
0000
0000
0000
0000
0000
0000
0000
0000
0000
0000
0000
0000
0000
0000
0000
0000
0000
0000
0000
0000
0000
0000
0000
0000
0000
0000
0000
0010
0000
0000
0000
0000
0000
0100
0000
0000
0000
0000
0000
0000
0000
0000
0000
0000
0000
0000
0000
0000
0000
0000
0000
0000
0000
0000
0000
0000
0000
0000
0000
0000
0000
0000
0000
0000
0000
0100
0000
0000
0000
0000
0000
0000
0000
0000
0000
0000
0000
0000
0000
0000
0000
0001
0000
0000
0000
0000
0000
0000
0000
0000
0000
0000
0000
0000
0000
0000
0000
0000
0000
0000
0000
0000
0000
0000
0000
0000
0000
0000
0000
0000
0000
0000
0000
0000
0000
0000
0000
0000
0000
0000
0000
0000
0000
0001
0000
0000
0000
0000
0000
1000
0000
0000
0000
0000
0000
0000
0000
0000
0000
0000
0000
0000
0000
0000
0000
0000
0000
0000
0000
0000
0000
0000
0000
0000
0000
0000
0000
0000
0000
0000
0000
1000
0000
0000
0000
0000
0000
0000
0000
0000
0000
0000
0000
0000
0000
0000
0000
,  // measure 97
0010
0000
0000
0000
0000
0000
0000
0000
0000
0000
0000
0000
0000
0000
0000
0000
0000
0000
0000
0000
0000
0000
0000
0000
0000
0000
0000
0000
0000
0000
0000
0000
0000
0000
0000
0000
0000
0000
0000
0000
0000
0000
0010
0000
0000
0000
0000
0000
0100
0000
0000
0000
0000
0000
0000
0000
0000
0000
0000
0000
0000
0000
0000
0000
0000
0000
0000
0000
0000
0000
0000
0000
0000
0000
0000
0000
0000
0000
0000
0000
0100
0000
0000
0000
0000
0000
0000
0000
0000
0000
0000
0000
0000
0000
0000
0000
0001
0000
0000
0000
0000
0000
0000
0000
0000
0000
0000
0000
0000
0000
0000
0000
0000
0000
0000
0000
0000
0000
0000
0000
0000
0000
0000
0000
0000
0000
0000
0000
0000
0000
0000
0000
0000
0000
0000
0000
0000
0000
0001
0000
0000
0000
0000
0000
1000
0000
0000
0000
0000
0000
0000
0000
0000
0000
0000
0000
0000
0000
0000
0000
0000
0000
0000
0000
0000
0000
0000
0000
0000
0000
0000
0000
0000
0000
0000
0000
1000
0000
0000
0000
0000
0000
0000
0000
0000
0000
0000
0000
0000
0000
0000
0000
,  // measure 98
0010
0000
0000
0000
0000
0000
0000
0000
0000
0000
0000
0000
0000
0000
0000
0000
0000
0000
0000
0000
0000
0000
0000
0000
0000
0000
0000
0000
0000
0000
0000
0000
0000
0000
0000
0000
0000
0000
0000
0000
0000
0000
0010
0000
0000
0000
0000
0000
0100
0000
0000
0000
0000
0000
0000
0000
0000
0000
0000
0000
0000
0000
0000
0000
0000
0000
0000
0000
0000
0000
0000
0000
0000
0000
0000
0000
0000
0000
0000
0000
0100
0000
0000
0000
0000
0000
0000
0000
0000
0000
0000
0000
0000
0000
0000
0000
0001
0000
0000
0000
0000
0000
0000
0000
0000
0000
0000
0000
0000
0000
0000
0000
0000
0000
0000
0000
0000
0000
0000
0000
0000
0000
0000
0000
0000
0000
0000
0000
0000
0000
0000
0000
0000
0000
0000
0000
0000
0000
0001
0000
0000
0000
0000
0000
1000
0000
0000
0000
0000
0000
0000
0000
0000
0000
0000
0000
0000
0000
0000
0000
0000
0000
0000
0000
0000
0000
0000
0000
0000
0000
0000
0000
0000
0000
0000
0000
1000
0000
0000
0000
0000
0000
0000
0000
0000
0000
0000
0000
0000
0000
0000
0000
,  // measure 99
0001
1000
0001
1000
0000
0000
1001
0000
0000
0001
0000
1000
,  // measure 100
0010
0100
0010
0100
0000
0000
0110
0000
0000
0010
0000
0100
,  // measure 101
0001
1000
0001
1000
0000
0000
0010
0100
0010
0100
0000
0000
,  // measure 102
0001
0000
0000
0000
1000
0000
0000
0000
0001
0000
0000
0000
1000
0000
0000
0000
0000
0000
0000
0000
0000
0000
0000
0000
2002
0000
0000
0000
0000
0000
0000
0000
0000
0000
0000
0000
3003
0000
0000
0000
0000
0000
0000
0000
0000
0001
0000
0000
,  // measure 103
1000
0000
0000
1000
0001
0000
0000
0001
0100
0000
0000
0100
0010
0000
0000
0000
,  // measure 104
1010
0000
0000
0000
0101
0000
0000
0000
1100
0000
0000
0000
0011
0000
0000
0001
,  // measure 105
1000
0000
0000
1000
0001
0000
0000
0001
0010
0000
0000
0010
0100
0000
0000
0100
,  // measure 106
1000
0010
0100
0001
0010
0100
1000
0001
,  // measure 107
1000
0000
0000
1000
0001
0000
0000
0001
0100
0000
0000
0100
0010
0000
0000
0010
,  // measure 108
1000
0000
0000
0000
0101
0000
0000
0000
0010
0000
0000
0000
1100
0000
0000
0100
,  // measure 109
1000
0000
0000
1000
0010
0000
0000
0010
0100
0000
0000
0100
0001
0000
0000
0001
,  // measure 110
0010
0000
1100
0000
0101
0000
0000
1001
,  // measure 111
0000
0011
0000
1010
1001
0000
0110
0000
,  // measure 112
1001
0000
0100
0000
,  // measure 113
0010
0000
1000
0000
,  // measure 114
0001
0000
0100
0000
,  // measure 115
0010
1000
0100
0010
,  // measure 116
0001
0000
1000
0000
,  // measure 117
0100
0000
0000
0000
0001
0000
0000
0000
0010
0000
0000
0100
0010
0000
0000
1000
,  // measure 118
0001
0000
0100
0000
0010
0000
1000
0000
0100
0000
0000
0001
1000
0000
0000
0100
,  // measure 119
0010
0000
1000
0000
0100
0000
0010
0000
0001
0000
0000
1000
0010
0000
0000
0100
,  // measure 120
0001
0000
1000
0000
0010
0000
0100
0000
0001
0000
0000
0010
0001
0000
0000
0100
,  // measure 121
1000
0000
0010
0000
0001
0000
0010
0000
1000
0100
0000
0100
0010
0000
0000
0001
,  // measure 122
0100
0000
0000
0010
1000
0000
0100
0000
0100
0000
0000
0010
0001
0000
0100
0000
,  // measure 123
0010
0000
1000
0000
0100
0000
0000
0000
0010
0000
0000
0001
1000
0000
0000
0100
,  // measure 124
0010
0000
0001
0000
0100
0000
0010
0000
1000
0000
0001
0000
0100
0000
0000
0010
,  // measure 125
0001
0000
0000
0000
0100
0000
0000
0000
0000
0000
0000
1000
0010
0000
0000
0001
,  // measure 126
0010
0000
0100
0000
0100
0000
0000
0000
0001
0000
0000
0100
1000
0000
0000
0100
,  // measure 127
0001
0000
0010
0000
0100
0000
0000
0100
0010
0000
0000
1000
0100
0000
0000
0001
,  // measure 128
0100
0000
0100
0000
0010
0000
0000
1000
0001
0000
0000
0010
1000
0000
0000
0100
,  // measure 129
0001
0000
1000
0000
0001
0000
0000
0100
0010
0000
1000
0000
0001
0000
0000
0000
,  // measure 130
0100
0000
0010
1000
0010
0001
0010
1000
,  // measure 131
0000
0100
0000
0010
0001
0100
0010
1000
,  // measure 132
0100
0000
0010
0001
0010
0000
0100
0000
1000
0000
0000
0000
1000
0000
0000
0001
,  // measure 133
0100
0000
0010
1000
0010
0000
0100
0000
0001
0000
0000
0000
0001
0000
0000
0100
,  // measure 134
0010
0000
1000
0001
1000
0000
0100
0000
0010
0000
0000
0000
0010
0000
0001
0100
,  // measure 135
0001
0000
1000
0000
1000
0010
0200
0000
0020
0000
0000
0000
0000
0000
0000
0000
,  // measure 136
0000
0330
0000
0000
,  // measure 137
0000
0000
0010
1000
,  // measure 138
0100
0000
0001
0010
0000
1000
0010
0000
,  // measure 139
0100
0100
0010
0001
,  // measure 140
0100
0000
1000
0010
0000
0001
0010
0000
,  // measure 141
0100
0000
0100
0000
0010
1000
0010
0000
,  // measure 142
0100
0001
0100
0000
0001
1000
0001
0000
,  // measure 143
0100
0100
0010
0001
,  // measure 144
0100
0000
0100
0001
0000
0010
1000
0000
,  // measure 145
1100
0101
0010
0001
,  // measure 146
0100
0000
1000
0010
0000
0001
0010
0000
,  // measure 147
0100
0000
0100
0001
0010
0000
1000
0000
,  // measure 148
0100
0000
0001
0010
0000
1000
0010
0000
,  // measure 149
0100
0000
0100
1000
0001
0000
0100
1000
,  // measure 150
0100
0001
0010
0000
0001
0100
0001
0000
,  // measure 151
1000
0000
1001
0000
0010
0100
1000
0100
,  // measure 152
0001
0000
0001
0100
0000
0100
0010
1000
,  // measure 153
0100
0010
1200
0001
,  // measure 154
1000
0310
1020
0001
,  // measure 155
1000
0000
0130
0000
0010
0001
0100
1000
,  // measure 156
0100
0001
0010
0100
2002
0000
0000
0000
,  // measure 157
0000
3003
0000
0000
;
