#TITLE:DDR EXTREME;
#SUBTITLE:;
#ARTIST:KONAMI;
#TITLETRANSLIT:;
#SUBTITLETRANSLIT:;
#ARTISTTRANSLIT:;
#GENRE:;
#CREDIT:;
#BANNER:DDR EXTREME.png;
#BACKGROUND:;
#LYRICSPATH:;
#CDTITLE:;
#MUSIC:DDR EXTREME.ogg;
#OFFSET:0.000000;
#SAMPLESTART:168.000000;
#SAMPLELENGTH:24.000000;
#SELECTABLE:YES;
#BPMS:0.000000=150.000000
,142.000000=666.000000
,142.250000=190.000000
,142.500000=150.000000
,242.000000=152.001999
,338.000000=150.000000
,460.000000=290.000000
,524.000000=665.999023
,528.250000=333.333008
,529.000000=184.687057
,530.000000=83.333000
,540.000000=333.333008
;
#STOPS:338.000000=0.794739,
531.000000=0.640000
;
#BGCHANGES:;
#KEYSOUNDS:;
#ATTACKS:;

//---------------dance-single - ----------------
#NOTES:
     dance-single:
     :
     Beginner:
     7:
     0.212446,0.500992,0.231425,0.008571,0.000000,347.000000,293.000000,54.000000,2.000000,0.000000,0.000000,0.212446,0.500992,0.231425,0.008571,0.000000,347.000000,293.000000,54.000000,2.000000,0.000000,0.000000:
0000
0000
0000
0000
,
0000
0000
0000
0000
,
0000
0000
0000
0000
,
1000
0000
0001
0000
,
0100
0000
0010
0010
,
0010
0000
0001
0000
,
1000
0000
0001
0000
,
1000
0000
0001
0000
,
0100
0000
0010
0010
,
0000
0001
0000
0001
,
0000
1000
0000
1000
,
0000
0110
0000
1000
,
0000
0110
0000
0001
,
0000
0001
0001
0000
,
0000
1000
1000
0000
,
1000
0000
0001
0000
,
0100
0100
0000
0010
,
0000
0000
0000
0000
,
0001
0000
0001
0000
,
0100
0000
0100
0000
,
0010
0000
0010
0000
,
1000
0000
1000
0000
,
0100
0000
0010
0000
,
0001
0000
1000
0000
,
0100
0000
0010
0000
,
0100
0000
1001
0000
,
1000
0000
0010
0000
,
0001
0000
0010
0000
,
0001
0000
0100
0000
,
1000
0000
0100
0000
,
1000
0000
1001
0000
,
0001
0000
1001
0000
,
0100
0000
0110
0000
,
0010
0000
0110
0000
,
0010
0000
0100
0000
,
1001
0000
0110
0000
,
0000
0000
0001
0001
,
0001
0001
0001
0001
,
0001
0000
1000
1000
,
1000
1000
1000
1000
,
1000
0000
0010
0000
,
0000
0000
0010
0000
,
0000
0000
0100
0000
,
0000
0000
0100
0000
,
0000
0000
0010
0000
,
0010
0000
1001
0000
,
1001
0000
0100
0000
,
0100
0000
1001
0000
,
1001
0000
0010
0000
,
0010
0000
0110
0000
,
0110
0000
0010
0000
,
0010
0010
0000
0000
,
0000
0000
0001
0001
,
0001
0001
0001
0001
,
0001
0000
1000
1000
,
1000
1000
1000
1000
,
1000
0000
0010
0000
,
0000
0000
0010
0000
,
0000
0000
0100
0000
,
0000
0000
0010
0010
,
0010
0010
0010
0000
,
0000
0000
1000
0000
,
0000
0000
0100
0000
,
0000
0000
0100
0000
,
0000
0000
0010
0000
,
0000
0000
0001
0000
,
0000
0000
0100
0000
,
0000
0000
0100
0000
,
0000
0000
0110
0000
,
0000
0000
0001
0000
,
1000
0000
0010
0000
,
1000
0000
0100
0000
,
1001
0000
0010
0000
,
0000
0000
0010
0000
,
0000
0000
0100
0000
,
0100
0000
0010
0010
,
0010
0000
0001
0000
,
0100
0000
1000
0000
,
0100
0000
1001
0000
,
0000
0000
1001
0000
,
0000
0000
1001
0000
,
0000
0000
0110
0000
,
0000
0000
0001
0000
,
0010
0000
1000
0000
,
0100
0100
0000
0000
,
0000
0000
0000
0000
,
0000
0000
0000
0000
,
0000
0000
0000
0000
,
0000
0000
0000
0000
,
1001
0000
0110
0000
,
1001
0000
0110
0000
,
0110
0000
1001
0000
,
1001
0000
0110
0000
,
1000
1000
0000
1001
,
0000
0100
0000
0010
,
0000
1000
0000
0001
,
0001
0000
1001
0000
,
0100
0100
0000
0100
,
0000
0010
0000
0010
,
0010
0010
0000
1000
,
0000
0001
0000
1000
,
1000
1000
1000
0000
,
0001
0001
0001
0000
,
0100
0100
0100
0000
,
0010
0010
0010
0000
,
0100
0100
0000
0110
,
0000
0010
0000
0001
,
0000
0001
0000
0010
,
0000
1000
0000
1000
,
1000
1000
0000
1001
,
0000
0001
0000
0100
,
0000
1001
0000
0110
,
0110
0110
0110
0110
,
0110
0000
0000
1001
,
1001
0000
0000
0000
,
0001
0000
0000
0000
,
0001
0000
0000
0000
,
1000
0000
0000
0000
,
1000
0000
0000
0000
,
0110
0000
0000
0000
,
0100
0000
0000
0000
,
0100
0000
0000
0000
,
0010
0000
0000
0000
,
0110
0000
0000
0000
,
0010
0000
0000
0000
,
0010
0000
0000
0000
,
0100
0000
0000
0000
,
1001
0000
0000
0000
,
0001
0000
0000
0000
,
1000
0000
0000
0000
,
0001
0000
1000
0000
,
2002
0000
0000
0000
,
0000
0000
0000
3003
,
0100
0000
0010
0000
,
1000
0000
0001
0000
,
1000
1000
0000
0000
,
0000
0000
0100
0000
,
0100
0000
0100
0000
,
0000
0000
0001
0000
,
0001
0000
0001
0000
,
0000
0000
0010
0000
,
0010
0000
0010
0000
,
0000
0000
1000
0000
,
0001
0000
0100
0000
,
0001
0000
0100
0000
,
0001
0000
0100
0000
,
0001
0000
1000
0000
,
1000
0000
0100
0000
,
1000
0000
0100
0000
,
1000
0000
0100
0000
,
1000
0000
0001
0000
,
0010
0000
0100
0000
,
0010
0000
0100
0000
,
0010
0000
0100
0000
,
0010
0000
1000
0000
,
0100
0000
0010
0000
,
0100
0000
0010
0000
,
0100
0000
0010
0000
,
0100
0000
0001
0000
,
0100
0000
0000
0000
,
1001
0000
0000
0000
,
0110
0000
0000
0000
,
1001
0000
0000
0000
,
0110
0000
0000
0000
,
1001
0000
0000
0000
,
0110
0000
0000
0000
,
0110
0000
0000
0000
,
1001
0000
0000
0000
;

//---------------dance-single - ----------------
#NOTES:
     dance-single:
     :
     Easy:
     9:
     0.307954,0.506242,0.205711,0.055713,0.000000,503.000000,455.000000,48.000000,13.000000,0.000000,0.000000,0.307954,0.506242,0.205711,0.055713,0.000000,503.000000,455.000000,48.000000,13.000000,0.000000,0.000000:
// measure 0
0000
0000
0000
0000
,  // measure 1
0000
0000
0000
0000
,  // measure 2
0000
0000
0000
0000
,  // measure 3
1000
0000
0001
0000
,  // measure 4
0100
0000
0010
0010
,  // measure 5
1000
0000
0001
0000
,  // measure 6
1000
0000
0001
0000
,  // measure 7
1000
0000
0001
0000
,  // measure 8
0100
0000
0010
0010
,  // measure 9
1000
0000
0001
0001
,  // measure 10
0001
0000
1000
1000
,  // measure 11
0001
0000
0110
1000
,  // measure 12
1000
0000
0110
0001
,  // measure 13
1000
0100
0001
0100
,  // measure 14
1000
0100
0001
0100
,  // measure 15
1000
0100
0001
0100
,  // measure 16
1000
1000
0100
0001
,  // measure 17
1000
0000
0000
0000
,  // measure 18
0001
1000
0001
1000
,  // measure 19
0100
0010
0100
0010
,  // measure 20
0001
0000
0100
0000
,  // measure 21
1000
0000
0100
0000
,  // measure 22
0100
0000
0010
0010
,  // measure 23
0001
0000
1000
0010
,  // measure 24
1000
0000
0001
0010
,  // measure 25
1000
0001
1000
0000
,  // measure 26
1000
0100
0010
0001
,  // measure 27
0001
0100
0010
1000
,  // measure 28
0001
0000
1000
0000
,  // measure 29
0010
0000
0100
0000
,  // measure 30
0100
0000
0001
0001
,  // measure 31
0100
0000
1000
1000
,  // measure 32
0001
0000
1000
0010
,  // measure 33
1000
0000
0001
0010
,  // measure 34
1000
0000
0001
0000
,  // measure 35
2002
0000
3003
0000
,  // measure 36
0000
0000
0010
0010
,  // measure 37
0010
0010
0100
0100
,  // measure 38
0100
0100
0001
0100
,  // measure 39
0001
0100
1000
0100
,  // measure 40
1000
0100
0010
0001
,  // measure 41
0100
0001
0010
0001
,  // measure 42
0100
1000
0010
1000
,  // measure 43
0100
1000
0010
1000
,  // measure 44
0100
0001
0010
0010
,  // measure 45
0100
1001
0100
0100
,  // measure 46
0010
0110
0001
0001
,  // measure 47
1000
1000
0001
0001
,  // measure 48
1000
1000
0100
0100
,  // measure 49
0010
1001
0010
0010
,  // measure 50
0100
0110
0001
0000
,  // measure 51
1000
0001
0000
0000
,  // measure 52
0000
0000
0010
0010
,  // measure 53
0010
0010
0100
0100
,  // measure 54
0100
0100
0001
0100
,  // measure 55
0001
0100
1000
0100
,  // measure 56
1000
0100
0010
0001
,  // measure 57
0100
0001
0010
0001
,  // measure 58
0100
1000
0010
1000
,  // measure 59
0100
1000
0010
1000
,  // measure 60
0100
0001
1001
0000
,  // measure 61
0000
0000
0010
0000
,  // measure 62
0100
0000
0010
1000
,  // measure 63
0100
0001
0220
0000
,  // measure 64
0000
0330
1001
0000
,  // measure 65
0000
0000
0010
0000
,  // measure 66
0100
0000
0010
1000
,  // measure 67
0100
0001
0220
0000
,  // measure 68
0000
0330
1000
0000
,  // measure 69
0001
0000
1000
0100
,  // measure 70
0001
0000
0010
1000
,  // measure 71
1000
0100
0010
0001
,  // measure 72
0100
1000
0010
0001
,  // measure 73
0001
0100
0010
1000
,  // measure 74
1000
0100
0010
0000
,  // measure 75
0010
0000
0010
1000
,  // measure 76
0200
0300
1000
0100
,  // measure 77
0001
0000
1000
0100
,  // measure 78
0001
0000
2000
0000
,  // measure 79
0000
3000
0002
0000
,  // measure 80
0000
0003
1000
0000
,  // measure 81
0100
0000
0001
0000
,  // measure 82
0100
0000
1000
0100
,  // measure 83
0001
0010
1000
1001
,  // measure 84
0001
0001
0000
0000
,  // measure 85
0000
0000
0000
0000
,  // measure 86
0000
0000
0000
0000
,  // measure 87
0000
0000
0000
0000
,  // measure 88
0000
0000
0000
0000
,  // measure 89
1010
1001
0100
0100
,  // measure 90
0010
0000
0100
0110
,  // measure 91
0001
0000
0100
0110
,  // measure 92
1000
0000
0100
0110
,  // measure 93
0011
1001
0100
0100
,  // measure 94
0010
0000
0100
0110
,  // measure 95
1000
0000
0100
0110
,  // measure 96
0001
0000
0100
0110
,  // measure 97
0000
0100
0000
0001
,  // measure 98
0000
0100
0010
0110
,  // measure 99
0000
0100
0000
1000
,  // measure 100
0000
0100
0010
0110
,  // measure 101
0010
0011
0001
1001
,  // measure 102
1000
1100
0100
0110
,  // measure 103
0010
0001
1000
0100
,  // measure 104
0010
0010
0100
0110
,  // measure 105
1100
1001
0000
0110
,  // measure 106
0000
1001
0000
0110
,  // measure 107
0000
1001
0000
0110
,  // measure 108
0010
0100
0000
1001
,  // measure 109
1100
1001
0000
0110
,  // measure 110
0000
1001
0000
0110
,  // measure 111
0000
1001
0000
0110
,  // measure 112
0010
0100
0010
1001
,  // measure 113
0100
0100
0100
1001
,  // measure 114
0000
0000
0000
0000
,  // measure 115
1000
0010
1000
0000
,  // measure 116
0001
0000
0001
0000
,  // measure 117
0010
0000
0010
0100
,  // measure 118
1000
0000
0001
1000
,  // measure 119
0001
0000
0100
0000
,  // measure 120
0100
0000
0010
0000
,  // measure 121
1000
0010
1000
0000
,  // measure 122
0001
0000
0000
1000
,  // measure 123
0001
0010
0001
0000
,  // measure 124
1000
0000
1000
0010
,  // measure 125
0000
0100
0000
0001
,  // measure 126
0010
0000
1000
0100
,  // measure 127
0000
1000
0000
0000
0001
0000
0000
1000
,  // measure 128
0000
0000
0010
0000
0000
1000
0000
0000
,  // measure 129
0000
0010
0000
0100
0000
0010
0000
0000
,  // measure 130
1000
0000
0001
1000
,  // measure 131
2002
0000
0000
0000
,  // measure 132
0000
0000
0000
0000
0000
0000
0000
3003
,  // measure 133
0100
0010
1000
0001
,  // measure 134
0010
0100
0001
1000
,  // measure 135
0100
0000
0010
0000
,  // measure 136
0100
0000
0010
0000
,  // measure 137
0100
0000
0001
0000
,  // measure 138
1000
0000
0010
0000
,  // measure 139
0100
0000
0010
0000
,  // measure 140
0100
0000
0010
0000
,  // measure 141
0100
0000
1000
0000
,  // measure 142
0001
0000
0010
0000
,  // measure 143
0100
1000
0100
0000
,  // measure 144
0010
0000
0001
0000
,  // measure 145
0010
0001
0010
0000
,  // measure 146
0100
0000
1000
0000
,  // measure 147
0001
0100
0001
0000
,  // measure 148
1000
0000
0010
0000
,  // measure 149
1000
0100
1000
0000
,  // measure 150
0001
0000
0010
0000
,  // measure 151
0010
1000
0010
0000
,  // measure 152
0100
0000
0001
0000
,  // measure 153
0100
0001
0100
0000
,  // measure 154
0010
0000
1000
0000
,  // measure 155
0001
0010
0001
0000
,  // measure 156
1000
0000
0100
0000
,  // measure 157
1000
0010
1000
0000
,  // measure 158
0001
0000
0100
0000
,  // measure 159
1000
0000
0000
0001
0000
0000
1000
0000
,  // measure 160
0100
0000
0100
0000
,  // measure 161
0001
0000
0000
0001
0000
0000
0001
0000
,  // measure 162
1000
0000
0000
1000
0000
0000
1000
0000
,  // measure 163
0100
0000
0000
0100
0000
0000
0100
0000
,  // measure 164
0010
0000
0000
0010
0000
0000
0010
0000
,  // measure 165
0100
0000
0000
0010
0000
0000
1000
0000
,  // measure 166
0001
0000
0000
0100
0000
0000
0010
0000
,  // measure 167
2002
0000
0000
0000
,  // measure 168
0000
0000
0000
3003
;

//---------------dance-single - ----------------
#NOTES:
     dance-single:
     :
     Medium:
     12:
     0.459176,0.650883,0.467136,0.064285,0.010714,750.000000,641.000000,109.000000,15.000000,0.000000,0.000000,0.459176,0.650883,0.467136,0.064285,0.010714,750.000000,641.000000,109.000000,15.000000,0.000000,0.000000:
0000
0000
0000
0000
,
0000
0000
0000
0000
,
0000
0000
0000
0000
,
0001
0000
1000
0000
,
0010
0010
0100
0100
,
0001
1000
0001
1000
,
0001
1000
0001
1000
,
0001
0000
1000
0000
,
0010
0010
0100
1001
,
0010
0010
1000
1000
,
0010
0010
0001
0001
,
1000
1000
0110
0001
,
0001
0001
0110
1000
,
0001
0100
1000
0100
,
0010
0001
1000
0100
,
0001
0100
1000
0100
,
0001
0001
0110
1000
,
0002
0000
0000
0003
,
1000
0001
0010
0100
,
0001
0100
1000
0100
,
0010
0100
0001
1000
,
0010
0000
0100
0000
0001
1000
0001
0000
,
0010
0010
0100
0100
,
1000
1000
0001
0100
,
0001
0001
1000
0100
,
0001
1000
0001
0101
,
0001
0010
0100
1000
,
1000
0010
0100
0001
,
1000
0100
0001
0100
,
0001
0000
1000
0000
0001
1000
0001
0000
,
0010
0010
1000
0100
,
0010
0010
0001
0100
,
1000
1000
0001
0100
,
0001
0001
1000
0100
,
0001
0001
1000
1000
,
1001
0000
0000
0010
0000
0000
1001
0000
0000
0000
0000
0000
0000
0000
0000
0000
,
0000
0000
0010
1000
,
0100
0000
1000
0000
0010
0100
0001
0000
,
0010
1001
0010
0001
,
1000
0100
1000
1000
,
0001
0001
0010
0001
,
1000
1100
0010
1000
,
0001
0101
0010
0100
,
0010
0100
0001
0000
1000
0000
1100
0000
,
0001
1100
1000
1100
,
0001
0100
1000
1100
,
0001
0100
0010
0001
,
0100
1000
0010
0001
,
0100
1000
0100
0110
,
1000
0010
0100
0110
,
0001
0010
1000
0100
,
0001
0000
0100
2000
0000
0000
0000
0000
,
0000
3000
0100
0001
,
0100
0000
0001
0000
0010
0001
0100
0000
,
0010
0101
2000
0010
,
0100
3002
0010
0010
,
0100
1003
0010
1000
,
0001
0110
0100
0001
,
1000
0110
0001
1000
,
0010
1000
0100
0000
0010
0000
1100
0000
,
0010
1001
2000
0000
,
0100
3000
0002
0000
,
0100
0003
2000
0000
,
0100
3000
0002
0000
,
0100
0003
1000
1000
,
0100
0100
0001
0010
,
1000
0100
0001
0001
,
0100
0100
1000
0010
,
0001
0100
2000
0000
,
3100
0000
1100
0000
1000
0001
0100
0000
,
0101
0001
0010
0010
,
1000
0100
0002
0000
,
2000
0000
3003
0000
0010
0001
0100
0000
,
0010
0100
0010
0010
,
1000
0100
0001
0101
,
1000
1100
0010
0001
,
0100
1000
0010
1000
,
1000
0100
0010
0001
,
0001
0100
1000
0100
,
0001
0100
1000
0100
,
0001
0000
0100
0000
0010
1000
0100
0000
,
1100
0000
1000
0000
1000
0001
0100
0000
,
0101
0001
1000
1100
,
0001
0101
1000
0100
,
0001
0000
1000
0100
0000
0000
0000
0000
,
1010
1001
0100
0110
,
0010
0001
0010
0000
0100
0000
0110
0000
,
0100
1000
0100
0000
0100
0000
0110
0000
,
0001
1000
0100
0000
0010
0000
0000
0000
,
1100
0000
0101
0000
0010
0100
0010
0100
,
0000
0110
0100
1001
,
0010
0000
1010
0000
0100
0001
0100
0010
,
0000
1001
0100
1010
,
0101
0000
1100
0000
0010
0100
0010
0100
,
0000
0110
0100
1001
,
0010
0000
0011
0000
0100
1000
0100
0010
,
0000
1001
0100
0011
,
0100
0000
0000
0100
0010
0000
0011
0000
,
0100
0000
0000
1000
0000
0000
1100
0000
,
0010
0000
0000
0010
0100
0000
1100
0000
,
0010
0000
0000
0001
0000
0000
0011
0000
,
0110
1100
1001
0101
,
0110
1010
0110
0011
,
0110
1010
1001
1100
,
0110
0101
0110
1100
,
1010
0000
0011
0000
0100
0010
1000
0001
,
0000
0000
0011
0000
0100
0010
0001
1000
,
0000
0000
1010
0000
0100
0001
1000
0010
,
0000
0110
1000
1010
,
0011
0000
1010
0000
0100
0010
0001
1000
,
0000
0000
1010
0000
0100
0010
1000
0001
,
0100
0110
0001
1001
,
1100
0110
0011
1001
,
0100
0000
0000
0010
0000
0000
0001
0000
0000
1000
0000
0000
0010
0000
0110
0000
,
0000
0000
0000
0000
,
1000
0010
0001
0010
,
1000
0010
0001
0010
,
1000
0000
0100
0000
0000
1000
0001
0000
,
0010
0010
0001
0100
,
0001
0000
0000
1000
0000
0010
0000
0000
,
0100
0000
0000
0010
0000
0000
1000
0000
,
0001
0010
0001
0000
0001
1000
0001
0000
,
0100
0000
0000
1001
,
0001
0010
0100
1000
,
0001
0100
0010
1000
,
0001
0000
0010
0000
0000
0100
1000
0000
,
0010
0100
0001
0100
,
0010
1000
0000
0000
1000
0000
0000
0001
,
0000
0000
0001
0000
0000
0010
0000
0000
,
0000
0100
0000
0100
0000
0100
1000
0000
,
0001
0010
0001
1000
,
2002
0000
0000
0000
,
0000
0000
0000
0000
0000
0000
0000
3003
,
0100
0000
0000
0000
0010
0000
0000
1000
1000
0000
0000
0000
0001
0000
0000
0000
,
0100
0000
0000
0000
0010
0000
0000
0001
0001
0000
1000
0000
1000
0000
0100
0000
,
0010
0001
0010
0001
,
0010
0001
1000
0001
,
1000
0100
1000
0100
,
1000
0100
1000
0001
,
0010
0100
0010
0100
,
0010
0100
1000
0100
,
0010
0100
0010
0100
,
0010
0100
0001
0100
,
1000
0100
0010
0001
,
0010
0000
0100
0000
1000
0001
1000
0000
,
0001
0010
0100
1000
,
0100
0000
0010
0000
0001
1000
0001
0000
,
1000
0010
0100
0001
,
0100
0000
0010
0000
1000
0001
1000
0000
,
0001
0100
0010
1000
,
0010
0000
0100
0000
0001
1000
0001
0000
,
1000
0100
1000
0001
,
0100
0000
0010
0000
1000
0001
1000
0000
,
0001
0100
0001
1000
,
0100
0000
0010
0000
0001
1000
0001
0000
,
1000
1000
0100
0100
,
0010
0010
0001
0001
,
1000
0100
0010
0001
,
1000
0100
0010
0001
,
0011
0000
0000
1001
0000
0000
1100
0000
,
0100
0000
0000
1001
0000
0000
0010
0000
,
1010
0000
0000
1001
0000
0000
0101
0000
,
0110
0000
0000
1010
0000
0000
1001
0000
,
1100
0000
0000
0110
0000
0000
0011
0000
,
1001
0000
0000
1010
0000
0000
0110
0000
,
0011
0000
0000
1001
0000
0000
0101
0000
,
1010
0000
0000
1001
0000
0000
1100
0000
,
0220
0000
0000
0000
,
0000
0000
0000
0330
;

//---------------dance-single - ----------------
#NOTES:
     dance-single:
     :
     Hard:
     16:
     0.626929,0.759363,0.539991,0.158569,0.083570,1024.000000,898.000000,126.000000,37.000000,0.000000,0.000000,0.626929,0.759363,0.539991,0.158569,0.083570,1024.000000,898.000000,126.000000,37.000000,0.000000,0.000000:
0000
0000
0000
0000
,
0000
0000
0000
0000
,
0000
0000
0000
0000
,
0001
1000
0000
0000
0100
0000
0000
0000
0001
0000
0000
0000
0100
0000
0000
0000
,
1000
0001
0000
0000
0100
0000
0000
0000
1000
0000
0000
0000
0100
0000
0000
0000
,
0001
1000
0000
0000
0100
0000
0000
0000
0001
0000
0000
0000
0100
0000
0000
0000
,
1000
0001
0000
0000
0100
0000
0000
0000
1000
0000
0000
0000
0100
0000
0000
0000
,
0001
1000
0000
0000
0100
0000
0000
0000
0001
0000
0000
0000
1000
0000
0000
0000
,
0001
0000
0001
0000
0001
0010
0100
0000
,
1100
0000
0001
0000
0001
0010
0100
0000
,
0011
0000
1100
0000
1000
0010
0101
0000
,
1001
0000
0100
0000
1000
0001
0100
0000
,
0010
1000
0100
0010
0001
1000
1100
0000
,
0011
0000
0100
0000
1000
0010
0100
0000
,
0001
0010
0100
1000
0010
0100
0001
0000
,
0220
0000
0330
0000
1001
0000
0000
0010
,
1000
0100
1000
0001
0010
0100
1000
0000
,
2002
3000
0010
0013
,
0010
0100
1000
0100
,
0010
0100
0001
0100
,
0010
1000
0100
0000
0010
0001
0100
0000
,
0010
1000
0100
0010
0001
0100
0101
0000
,
1010
0000
0101
0000
0010
1000
0100
0000
,
1000
0001
0100
0000
0010
0001
0100
0000
,
0001
0100
1000
0000
1000
0100
0001
0000
,
1000
0010
0001
0010
0001
0010
0110
0000
,
0110
0000
1010
0000
0001
1000
0100
0000
,
1001
0000
0101
0000
1000
0010
0100
0000
,
0001
1000
0100
0000
1000
0001
0100
0000
,
0010
0001
0100
1000
0100
0001
0011
0000
,
1001
0100
1000
0100
,
0001
0100
0001
0100
,
1000
0100
1000
0000
0001
0100
0001
0000
,
1000
0010
0100
0001
0010
0100
1000
0000
,
1010
0100
0101
0010
,
1010
0000
0000
1001
0000
0000
0202
0000
0000
0000
0000
0000
0303
0000
0000
0000
,
0000
0000
0000
0000
1000
1000
0100
0002
,
0000
0103
0100
1000
0000
1100
0000
0101
,
0000
1000
0001
0000
0010
0001
0100
0100
,
0010
0100
0001
0000
0010
1000
0010
0100
,
0001
0001
0001
0000
0120
0000
0001
0000
,
1030
1000
0001
0000
0120
0000
1000
0000
,
0031
0001
1000
0000
0210
0000
1000
0000
,
0310
0010
1000
0000
0210
0000
0001
0000
,
0310
0010
0001
0000
1000
0020
0001
0000
,
1000
1030
0100
0100
0001
0200
1000
0000
,
0001
0301
0010
0010
0001
0020
1000
0000
,
0001
0031
0100
0100
1000
0200
0001
0000
,
1000
1300
0010
0010
1000
0020
0001
0000
,
1000
1030
0100
0100
0001
0200
1000
0000
,
0001
0301
0010
0010
0001
0020
1000
0000
,
0001
0031
0100
0100
0000
0000
0000
0000
,
0000
0000
0000
0000
1000
1000
0100
0002
,
0000
0103
0100
1000
0000
1100
0000
0101
,
0000
1000
0001
0000
0010
0001
0100
0100
,
0010
0100
0001
0000
0010
1000
0010
0100
,
0001
0001
0001
0000
0120
0000
0001
0000
,
1030
1000
0001
0000
0120
0000
1000
0000
,
0031
0001
1000
0000
0210
0000
1000
0000
,
0310
0010
1000
0000
0210
0000
0001
0000
,
0310
0010
0001
0000
0020
0000
0000
0100
,
0000
0000
0030
0010
1000
0000
0010
0000
,
0010
0000
0001
0200
0000
1300
0100
0000
,
0110
0101
1001
0010
,
0100
0001
1000
0100
0020
0000
0000
0100
,
0000
0000
0030
0010
0001
0000
0010
0000
,
0010
0000
1000
0200
0000
0301
0100
0000
,
0110
1100
1001
0010
,
0100
0000
1000
0000
2002
0000
3003
1000
,
0001
0000
1001
0000
0010
1000
0000
1000
,
0100
0000
1001
0000
0010
0001
0000
0001
,
0100
0000
1001
0000
2002
0000
3003
0001
,
1000
0000
1001
0000
0010
0100
0001
1000
,
0000
0000
0100
0000
0010
0000
0000
0000
0100
0000
0000
0001
0000
0000
1000
0000
,
0000
0100
0001
0000
0001
0100
1000
0010
,
0001
0000
1000
0100
0000
0001
0100
1000
,
0000
0001
0100
0000
1000
0100
0000
0001
,
0100
1000
0000
0001
0100
0000
1001
0000
,
0010
1000
0000
1000
0200
0000
0000
0010
,
0310
1001
0020
1000
,
0100
0031
1001
0001
,
0001
0000
0000
0100
0000
0000
1000
0000
0001
0000
0000
0000
1001
0000
0000
0000
,
0001
0000
0000
0100
0000
0000
1000
0000
0001
0000
0000
0000
1001
0000
0000
0000
,
0010
0000
0000
0000
1001
0000
0000
0000
1000
0100
0000
1000
0100
0000
0001
0100
,
0000
0001
0100
0000
1000
0000
0100
0000
0000
0000
0000
0000
0000
0000
0000
0000
,
1010
0000
0101
0000
0010
0100
1000
0100
,
0000
0000
0010
0000
0010
0000
0000
0000
0101
0000
0000
1010
0000
0000
1001
0000
,
0000
0000
0100
0000
0100
0000
0000
0000
0011
0000
0000
1100
0000
0000
1001
0000
,
0000
0000
0010
0000
0100
0000
0000
0000
1100
0000
0000
0011
0000
0000
0000
0000
,
0011
0000
1001
0000
0010
0100
0010
1000
,
0000
0001
1000
0100
0010
0001
0100
0010
,
0000
0010
0100
1000
0001
0010
0100
0010
,
0000
0000
0100
0000
1000
0000
0001
0000
1001
0000
0000
0101
0000
0000
0110
0000
,
1010
0000
1001
0000
0010
0100
0010
0001
,
0000
1000
0001
0100
0010
1000
0100
0010
,
0000
0010
0100
0001
1000
0010
0100
0010
,
0000
0000
0100
0000
0001
0000
1000
0000
1001
0000
0000
1100
0000
0000
0110
0000
,
0001
0000
0000
0001
0000
0000
0001
0000
0100
0000
0010
0000
0100
0000
0001
0000
,
1000
0000
0000
1000
0000
0000
0100
0000
0000
0000
1000
0000
0010
0000
0010
0000
,
1000
0000
0000
1000
0000
0000
1000
0000
0100
0000
0010
0000
0100
0000
1000
0000
,
0001
0000
0000
0001
0000
0000
0100
0000
0000
0000
0001
0000
0010
0000
0010
0000
,
0100
1000
0100
0010
0100
0001
0100
0010
,
0100
1000
0100
0010
0100
0001
0100
0000
,
0010
1000
0010
0100
0010
0001
0010
0100
,
0010
0000
0011
0000
0100
1000
1100
0000
,
0110
0000
1001
0000
0100
0010
0001
0010
,
0000
0000
0100
0000
1000
0000
0100
0000
0010
0000
0000
0100
0000
0000
0100
0000
,
0000
0010
0001
1000
0100
1000
0100
0010
,
0001
0010
0100
0010
0011
0000
1001
0000
,
1100
0000
0110
0000
0001
0010
0100
0010
,
0000
0100
1000
0100
0010
0001
0000
0010
,
0110
0000
0100
1000
1001
0000
0010
0100
,
0110
0011
0110
1010
,
0010
0100
0000
0010
1000
0000
0010
0100
0000
0010
0001
0000
0010
0000
1001
0000
,
0000
0000
0000
0000
,
1000
0100
0010
0001
1000
0000
1000
0000
,
0001
0100
0001
0000
0010
1000
0010
0000
,
0100
0001
0100
0010
0100
0001
1000
0000
,
1100
1001
1010
0110
,
0100
0001
0000
0100
0010
0000
0100
1000
,
0000
0100
0010
1000
0010
0000
1010
0000
,
1001
0000
0001
0100
0001
0000
0010
1000
,
0010
0100
0001
0000
0101
0000
1001
0000
,
0001
0100
0010
1000
0001
0000
0001
0000
,
1000
0100
1000
0000
0010
0001
0010
0000
,
0100
1000
0100
0010
0100
1000
0001
0000
,
0101
1001
0011
0110
,
0100
1000
0000
0100
0010
0000
0100
0001
,
0100
0000
0100
0010
0000
0100
1000
0000
,
0000
0110
0000
0110
0000
0100
0010
0000
,
1010
1001
0101
0110
,
2002
0000
0000
0000
,
0000
0000
0000
0000
0000
0000
0000
0000
0000
0000
0000
0000
0000
0000
0000
0000
0000
0000
0000
0000
0000
0000
0000
0000
0000
0000
0000
0000
0000
0000
0000
0000
0000
0000
0000
0000
0000
0000
0000
0000
0000
0000
0000
0000
0000
0000
0000
0000
0000
0000
0000
0000
0000
0000
0000
0000
0000
3003
0000
0000
0000
0000
0000
0000
,
0100
0000
0000
1000
0000
0000
0010
0000
0000
0000
0000
0000
0000
0000
0001
0000
1001
0000
0000
0000
0000
0000
0100
0000
0100
0000
0000
0001
0000
0000
0010
0000
,
0010
0000
0000
0001
0000
0000
0100
0000
0000
0000
0000
0000
0000
0000
1000
0000
1001
0000
0000
0000
0000
0000
0010
0000
0010
0000
0000
1000
0000
0000
0100
0000
,
0010
0001
0010
0001
,
1000
0000
0100
0000
1000
0100
1000
0000
,
0010
1000
0010
1000
,
0001
0000
0100
0000
0001
0100
0001
0000
,
1000
0000
0001
0000
0010
0100
1000
0000
,
0001
0000
1000
0000
0010
0100
0001
0000
,
0010
0000
0100
0000
1000
0001
1000
0000
,
0001
1000
0010
0000
0100
0001
1000
0000
,
0001
0000
1000
0100
1000
0000
1000
0100
,
1000
0000
0001
0100
0001
0000
0001
0100
,
0001
0000
1000
0001
1000
0000
1000
0100
,
1000
0000
0001
1000
0001
0000
0001
0100
,
0010
0000
0100
0001
0100
0000
0010
1000
,
0010
0000
0100
0001
0100
0000
0010
1000
,
0001
0000
0010
0001
0010
0000
0001
0100
,
0001
0000
1000
0010
1000
0000
0001
0100
,
0010
1000
0010
1000
0010
1000
0001
0000
,
0010
0001
0010
0001
0010
0001
1000
0000
,
0010
1000
0010
0100
0001
1000
0100
0000
,
0010
0001
0010
0100
1000
0001
0100
0000
,
0010
1000
0001
0010
0100
0000
1000
0100
,
0010
0001
1000
0010
0100
0000
0001
0100
,
0010
1000
0100
0010
0001
0100
0010
1000
,
0100
0010
0001
0100
0010
1000
0001
0100
,
0001
0000
0000
1010
0000
0000
1001
0000
,
0101
0000
0000
0010
1000
0000
1010
0000
,
1001
0000
0000
0100
0001
0000
0101
0000
,
1001
0000
0000
0010
0001
0000
0011
0000
,
1001
0000
0000
0100
1000
0000
1100
0000
,
1001
0000
0000
0010
1000
0000
1010
0000
,
0010
0100
0000
0001
0100
0000
1001
0000
,
0010
0001
0000
0001
0100
0000
0110
0000
,
2002
0000
0000
0000
,
0000
0000
0000
3003
;
