#TITLE:DDR 5thMIX + DDRMAX;
#SUBTITLE:;
#ARTIST:KONAMI;
#TITLETRANSLIT:;
#SUBTITLETRANSLIT:;
#ARTISTTRANSLIT:;
#GENRE:;
#CREDIT:;
#BANNER:DDR 5thMIX + DDRMAX.png;
#BACKGROUND:;
#LYRICSPATH:;
#CDTITLE:;
#MUSIC:DDR 5thMIX + DDRMAX.ogg;
#OFFSET:0.000000;
#SAMPLESTART:200.260406;
#SAMPLELENGTH:20.312695;
#SELECTABLE:YES;
#BPMS:0.000000=150.000000
,133.000000=149.979996
,142.000000=160.167007
,248.000000=120.000000
,249.000000=111.111000
,251.000000=113.924004
,252.000000=116.883003
,254.000000=120.000000
,255.000000=123.288002
,257.000000=126.761002
,259.000000=130.434998
,260.000000=132.352997
,261.000000=134.328003
,262.000000=136.363998
,264.000000=140.625000
,265.000000=138.462006
,266.000000=136.363998
,267.000000=134.328003
,268.000000=130.434998
,270.000000=126.761002
,271.000000=121.622002
,272.000000=118.420998
,273.000000=121.622002
,274.000000=124.999992
,275.000000=130.434998
,276.000000=134.328003
,277.000000=138.462006
,278.000000=140.625000
,279.000000=147.541000
,280.000000=150.000000
,281.000000=139.507996
,353.000000=140.186996
,358.000000=136.363998
,359.000000=130.374985
,360.000000=122.139999
,361.000000=120.000000
,362.000000=145.289001
,442.000000=49.000000
,447.000000=196.039993
,513.000000=214.285995
,514.000000=145.160995
,515.000000=104.651001
,516.000000=64.286003
,517.000000=300.000000
;
#STOPS:248.000000=1.390000,
353.000000=2.930000,
517.000000=1.200000
;
#BGCHANGES:;
#KEYSOUNDS:;
#ATTACKS:;

//---------------dance-single - ----------------
#NOTES:
     dance-single:
     :
     Beginner:
     5:
     0.094063,0.288206,0.042122,0.000000,0.000000,297.000000,278.000000,19.000000,0.000000,0.000000,0.000000,0.094063,0.288206,0.042122,0.000000,0.000000,297.000000,278.000000,19.000000,0.000000,0.000000,0.000000:
0000
0000
0000
0000
,
0000
0000
0000
0000
,
0000
0000
0000
0000
,
0000
0000
0000
0000
,
0000
0000
0000
0000
,
0100
0000
0100
0000
,
0010
0000
0100
0000
,
0010
0000
0010
0000
,
0100
0000
0000
1001
,
0000
0100
0000
0000
,
0000
1000
0000
0000
,
0000
0001
0000
0000
,
0010
0010
0000
1001
,
0000
0100
0000
0000
,
0000
0010
0000
0000
,
0000
1000
0000
1000
,
0000
0001
0000
0001
,
0000
0100
0100
0100
,
0000
1000
1000
1000
,
0000
0010
0010
0010
,
0000
0001
0001
0001
,
0000
0100
0000
0010
,
0000
1000
0000
0001
,
0000
0100
0000
0010
,
0010
0000
0000
0000
,
0000
1000
1000
0000
,
0000
0001
0001
0000
,
0000
0100
0100
0000
,
0000
0010
0010
0010
,
0000
1000
1000
0000
,
0000
0001
0001
0000
,
0000
0100
0100
0000
,
0000
0010
0010
0010
,
0010
0000
0000
0000
,
0001
0000
0000
0000
,
1000
0000
0100
0000
,
0010
0000
0010
0000
,
0100
0100
0100
0000
,
0010
0000
0010
0000
,
0100
0100
0100
0000
,
0010
0000
0010
0000
,
0100
0100
0100
0000
,
1000
0000
0001
0000
,
1000
0000
0001
0000
,
1000
0000
0000
0000
,
1000
0000
0100
0000
,
0001
0001
0001
0000
,
0001
0001
0001
0000
,
0001
0000
0000
0000
,
0001
0000
0100
0000
,
0001
0000
1000
0000
,
0001
0000
0000
0000
,
1000
0000
1000
0000
,
0001
0000
0001
0000
,
1000
0000
1000
0000
,
0001
0000
0001
0000
,
0100
0000
0010
0000
,
0100
0000
0010
0000
,
0010
0000
0000
0000
,
0010
0000
0000
0000
,
0000
0010
0000
0100
,
0000
0010
0000
0100
,
0100
0000
0000
0000
,
1000
0000
0000
0000
,
0001
0000
0000
0000
,
0100
0000
0000
0000
,
0001
0000
0000
1000
,
0000
0000
0000
0100
,
0000
0000
0000
1000
,
0000
0000
0000
0001
,
0000
0010
0000
0010
,
0000
0010
0000
0000
,
0000
1000
1000
1000
,
1000
0000
0100
0000
,
0001
0000
0100
0000
,
1000
0000
1000
0000
,
1000
1000
0000
0010
,
0000
1000
0000
1000
,
0000
1001
0000
0010
,
0000
0100
0000
0100
,
0000
1000
0000
0010
,
0000
1000
0000
1000
,
0000
1001
0000
0010
,
0000
0100
0000
0100
,
0000
0100
0100
0100
,
0100
0000
0010
0010
,
0010
0000
1000
1000
,
1000
0000
0100
0100
,
0100
0100
0100
0000
,
0000
0000
0001
0000
,
0000
0000
1000
0000
,
0100
0000
0010
0000
,
0100
0100
0100
0000
,
1000
0000
0001
0000
,
1000
0000
1001
1001
,
1001
1001
1001
1001
,
1001
0000
0110
0110
,
0110
0110
0110
0110
,
0110
0000
0001
0000
,
0000
0000
1000
0000
,
0000
0000
0100
0000
,
0000
0000
0010
0000
,
0000
0000
0001
0000
,
0001
0000
1000
0000
,
1000
0000
0010
0000
,
0100
0000
0001
0000
,
1000
0000
0001
0001
,
0001
0001
0001
0001
,
0001
0000
1000
1000
,
1000
1000
1000
1000
,
1000
0000
0001
0000
,
0000
0000
0000
1000
,
0000
1000
0000
1000
,
0000
1000
0000
1000
,
0000
1000
0000
1000
,
0000
1000
0000
0001
,
0000
0001
0000
0001
,
0000
0001
0000
0001
,
0000
0001
0000
0001
,
0000
0001
0000
1000
,
0000
1000
0000
0100
,
0000
0100
0000
0001
,
0000
0001
0000
1000
,
0000
1000
0000
0001
,
0000
0001
0000
0100
,
0000
0100
0000
1000
,
0000
1000
0000
0001
,
0000
0001
0000
0000
,
0000
0010
0000
0000
,
0000
0000
0001
0000
,
0000
0000
0000
0000
,
0000
0000
1000
0000
,
0000
0000
0000
0000
,
0000
0000
0001
0000
,
0000
0000
0000
0000
,
0000
0000
0001
0000
,
0000
0000
0000
0000
,
0000
0000
0010
0000
,
0000
0000
0000
0000
,
0000
0000
0100
0000
,
0000
0000
0000
0000
,
0000
0000
1000
0000
,
0000
0000
1000
0000
,
0000
0000
1000
0000
,
0000
0000
0001
0000
,
0000
0000
0100
0000
,
0000
0000
1000
0000
,
0000
0000
0010
0000
,
0000
0000
0001
0000
,
0000
0000
1000
0000
,
0000
0000
0100
0000
,
0000
0000
0001
0000
,
0000
0000
0010
0000
,
0000
0000
0100
0000
,
0000
0000
1000
0000
,
0000
0000
0010
0000
,
0000
0000
0001
0000
,
0000
0000
1000
0000
,
0000
0000
0100
0000
,
0000
0000
0001
0000
,
0000
0000
0010
0000
,
0000
0000
1000
0000
,
0000
0000
1001
0000
;

//---------------dance-single - ----------------
#NOTES:
     dance-single:
     :
     Easy:
     8:
     0.158988,0.254896,0.108631,0.008868,0.004434,502.000000,453.000000,49.000000,4.000000,0.000000,0.000000,0.158988,0.254896,0.108631,0.008868,0.004434,502.000000,453.000000,49.000000,4.000000,0.000000,0.000000:
0000
0000
0000
0000
,
0000
0000
0000
0000
,
0000
0000
0000
0000
,
0000
0000
0000
0000
,
0100
0000
0100
1001
,
0100
1001
0100
1001
,
0010
1001
0100
1001
,
0010
1000
0001
0100
,
0010
0010
1000
0001
,
0100
0000
0100
0010
,
1000
1000
1000
0001
,
0100
0000
0100
0010
,
1000
0001
0000
1001
,
0100
0000
0000
0001
,
1000
0010
0010
0100
,
0001
0000
0001
0000
,
1000
0000
1000
1001
,
0000
0100
0100
0100
,
0010
1000
0100
0010
,
1000
0000
0001
0100
,
0010
1001
0100
1001
,
1001
0000
0100
0000
,
0010
0010
1000
1000
,
0001
0001
0100
0010
,
1001
0000
0000
0000
,
0100
0110
1000
0001
,
0010
0110
0001
1000
,
0001
0000
0001
0100
,
0010
1000
0001
0100
,
0001
1001
0010
0100
,
1000
1001
0100
0010
,
1000
0000
1000
0010
,
0100
0001
1000
0010
,
1000
0000
0000
0000
0000
0000
0000
0001
,
1000
0000
0000
0000
0000
0000
0000
0010
,
0100
0000
0000
0001
1000
0000
0000
0000
,
0010
0000
0010
0000
,
0010
1000
0100
0001
,
0010
0000
0010
0000
,
0010
0001
0100
1000
,
0010
0000
0010
0000
,
0010
1000
0100
0001
,
1000
0100
0001
0010
,
0100
1001
0100
1001
,
0010
1000
0100
1001
,
0100
0001
0010
1001
,
0110
0001
0010
1000
,
0001
0100
1000
0010
,
0001
1001
0001
0100
,
1000
1001
1000
0100
,
0001
0000
1000
0000
,
0001
0000
0000
0000
,
1000
0100
1000
1001
,
0001
0100
0001
1001
,
1000
0100
1000
0010
,
0001
0100
0001
0010
,
0100
1001
0010
1000
,
0100
1001
0010
0001
,
0010
1000
0100
0010
,
0100
0001
0010
0100
,
0010
0010
1000
0100
,
0010
0010
0001
0100
,
1001
0010
0000
0000
,
0000
0000
0000
0010
,
0001
0100
0000
0000
,
0000
0000
0000
0000
,
0000
0010
0000
1000
,
0000
0100
0000
0010
,
0000
0001
0000
1000
,
0000
0001
0000
0100
,
0000
0010
0000
0010
,
0000
0010
0000
0010
,
0000
1000
1000
1000
,
1000
0000
0000
0000
0100
0000
0000
0000
0100
0000
0000
0000
0000
0010
0000
0010
,
0000
0001
0001
0001
,
0001
0000
0000
0000
0100
0000
0000
0000
0100
0000
0000
0000
0000
0010
0000
0010
,
0000
1000
0100
0010
,
0001
1000
0010
0100
,
0010
1001
0100
0010
,
0001
0100
1000
0100
,
0010
1001
0010
1000
,
0100
0010
0001
0100
,
0010
1001
0001
1000
,
0100
0010
0001
0100
,
0010
0100
0100
0100
,
0100
0010
0010
0010
,
0010
1000
1000
1000
,
1000
0001
0001
0001
,
0001
1001
0100
0000
,
0100
0000
0001
0000
,
1000
0000
0001
0000
,
0100
0000
0010
1000
,
0100
0100
0001
0100
,
1000
0100
0001
0100
,
1000
0100
1001
0100
,
0010
1000
0001
0100
,
0010
1000
0001
0100
,
1000
0100
0010
0001
,
1000
0100
0001
0000
,
0000
0000
1000
0000
,
0000
0000
0100
0000
,
0000
0000
0010
0000
,
0000
0000
0001
0000
,
0001
0000
1000
0000
,
1000
0000
0010
0000
,
0100
0000
0001
0000
,
1000
0000
1001
0100
,
1000
0100
1001
0100
,
0001
0100
1001
0010
,
1000
0100
1001
0010
,
0001
0000
0100
0000
0010
0000
0000
1000
,
0000
0000
0000
1000
,
0000
1000
0000
1000
,
0000
1000
0000
1000
,
0000
1000
0000
1000
,
0000
1000
0000
0001
,
0000
0100
0000
1000
,
0000
0100
0000
0001
,
0000
0100
0000
0100
,
0000
0100
0000
1000
,
0000
1000
0000
1000
,
0000
1000
0000
0001
,
0000
0100
0000
1000
,
0000
1000
0000
0010
,
0000
0010
0000
1000
,
0000
1000
0000
0001
,
0000
0001
0000
0100
,
0000
0100
0000
0000
,
0000
2002
0000
0000
,
0000
3003
0001
0000
,
0001
0000
0000
1000
,
0001
0000
1000
0000
,
1000
0001
0000
0001
,
1000
0000
0001
0100
,
0010
1000
0000
0100
,
1000
0000
0001
0100
,
0010
1000
0000
0100
,
1000
0001
0010
0000
,
0010
0000
0000
0100
,
0010
0000
0100
0000
,
0100
0000
0000
0010
,
0100
0000
1000
1000
,
1000
1000
0000
0001
,
0001
0000
0010
0010
,
0010
0010
0000
0100
,
0100
0000
0100
0000
1000
0000
0000
0001
,
0000
1000
1001
0000
,
0000
0000
0000
0000
1000
0000
0000
0100
,
0000
1000
1100
0000
,
0000
0000
0000
0000
0001
0000
0000
0100
,
0000
0001
0101
0000
,
0000
0000
0000
0000
0010
0000
0000
0100
,
0000
0010
0110
0000
,
0000
0000
0000
0000
1000
0000
0000
0100
,
0000
0010
0011
0000
,
0000
0000
0000
0000
0001
0000
0000
0100
,
0000
0010
1010
0000
,
0000
0000
0000
0000
1000
0000
0000
0001
,
0000
0100
0110
0000
,
0000
0000
1001
0000
,
0000
0000
0110
0000
,
0000
0000
1100
0000
,
0101
0000
2002
0000
,
0000
0000
0000
0000
,
0000
3003
0000
0000
;

//---------------dance-single - ----------------
#NOTES:
     dance-single:
     :
     Medium:
     12:
     0.227398,0.309516,0.097547,0.028821,0.011085,718.000000,674.000000,44.000000,13.000000,0.000000,0.000000,0.227398,0.309516,0.097547,0.028821,0.011085,718.000000,674.000000,44.000000,13.000000,0.000000,0.000000:
// measure 0
0000
0000
0000
0000
,  // measure 1
0000
0000
0000
0000
,  // measure 2
0000
0000
0000
0000
,  // measure 3
0000
0000
0000
0000
,  // measure 4
0100
0100
0010
1001
,  // measure 5
0100
0000
0000
0010
1000
0001
0001
0000
,  // measure 6
0100
0000
0000
0010
0100
0001
1000
0000
,  // measure 7
0010
0010
0100
0001
,  // measure 8
1000
1000
1000
1000
,  // measure 9
0010
0000
1000
0100
,  // measure 10
0010
0001
1000
0000
0001
0000
0001
0000
,  // measure 11
0100
0001
0100
0001
,  // measure 12
1000
0000
1000
1001
,  // measure 13
0100
0000
0010
0000
1000
0001
0100
0000
,  // measure 14
0001
0000
0001
0000
1000
0010
0100
0010
,  // measure 15
1000
0000
0000
0001
0000
0000
0100
0000
,  // measure 16
0000
0000
0000
1001
,  // measure 17
0100
0101
1001
1100
,  // measure 18
1000
0001
0001
0001
,  // measure 19
0100
0110
0101
1001
,  // measure 20
1000
0000
0010
0000
0100
0000
0100
0001
,  // measure 21
1000
1000
0010
0100
,  // measure 22
0001
0001
1000
1000
,  // measure 23
0010
1010
0001
0101
,  // measure 24
1001
0000
0000
1000
0001
0100
0010
0000
,  // measure 25
0001
0000
0001
0000
1000
0010
0100
0001
,  // measure 26
1000
0000
1000
0000
0010
0100
0001
1000
,  // measure 27
0010
0000
0010
0000
0100
0100
0001
1000
,  // measure 28
0000
0010
0100
0001
0000
0001
0001
0000
,  // measure 29
1000
0000
1000
0000
0001
0100
0010
1000
,  // measure 30
0001
0000
0001
0000
0100
0010
1000
0001
,  // measure 31
0100
0000
0100
0000
0010
0010
1000
0001
,  // measure 32
0000
0100
0010
1000
0000
0001
1000
0000
,  // measure 33
0001
0000
0000
0000
0000
0000
0000
1000
,  // measure 34
0001
0000
0000
1000
0000
0000
0001
0000
0000
1000
0000
0000
0001
0000
1000
0000
,  // measure 35
0001
0000
0000
1000
0000
0000
0001
0000
1000
0000
0000
0000
0000
0000
0000
0000
,  // measure 36
0010
1000
0001
0010
,  // measure 37
1100
0101
1000
0100
,  // measure 38
0010
0001
1000
0010
,  // measure 39
0101
1100
0001
0100
,  // measure 40
0010
1000
0001
0010
,  // measure 41
1100
0101
0010
1000
,  // measure 42
0010
0100
0010
0001
,  // measure 43
1100
0101
1000
0100
,  // measure 44
0010
0001
1000
0101
,  // measure 45
0010
1000
0101
1000
,  // measure 46
0010
0000
1001
0000
1000
0100
0001
0000
,  // measure 47
0100
0000
1000
0000
0001
0100
1000
0000
,  // measure 48
0110
0001
0010
1000
,  // measure 49
0011
1100
0010
0001
,  // measure 50
1100
0010
0101
0010
,  // measure 51
1000
0001
0100
0000
0010
0000
1000
0000
,  // measure 52
1100
0000
0001
0000
0010
0100
1000
0000
,  // measure 53
0101
0000
1000
0000
0010
0100
0001
0000
,  // measure 54
0001
0100
1000
0000
1000
0100
0001
0000
,  // measure 55
0010
0010
1100
1001
,  // measure 56
0010
0001
0100
1000
,  // measure 57
0010
1000
0100
0001
,  // measure 58
0010
1100
0001
1000
,  // measure 59
0010
1100
0001
1000
,  // measure 60
0110
0000
0001
0000
0010
0100
1000
0000
,  // measure 61
0010
0100
0001
0000
1000
0000
0001
0000
,  // measure 62
0010
0010
0010
0010
,  // measure 63
0100
0100
0100
0010
,  // measure 64
0001
1000
0000
0100
,  // measure 65
0000
0000
0000
0000
,  // measure 66
0000
1000
0010
0100
,  // measure 67
0000
0001
0010
0100
,  // measure 68
0000
1000
1000
1000
,  // measure 69
0000
0001
0001
0001
,  // measure 70
0000
1000
0000
0001
,  // measure 71
0000
1000
0010
0100
,  // measure 72
0001
1000
1000
1000
,  // measure 73
1000
0100
0010
0000
0010
0000
0010
0000
,  // measure 74
0010
0001
1000
0000
1000
0000
1000
0000
,  // measure 75
1000
0010
0100
0000
0100
0000
0100
0000
,  // measure 76
0100
0001
1000
0000
1000
0100
1000
0100
,  // measure 77
0010
0000
0001
0000
0100
0010
1000
0001
,  // measure 78
0010
0000
0100
0000
0100
1000
0100
1000
,  // measure 79
0001
0000
0100
0000
0010
1000
0001
0010
,  // measure 80
0100
0000
1000
0000
0001
0100
0001
0100
,  // measure 81
0010
0000
1000
0000
0100
0010
0001
0100
,  // measure 82
0010
0000
1000
0000
1000
0100
1000
0100
,  // measure 83
0010
0000
0001
0000
1000
0010
0100
0001
,  // measure 84
1000
0100
0100
0100
,  // measure 85
0100
0010
0001
0000
0001
0000
0001
0000
,  // measure 86
0001
0100
0010
0000
0010
0000
0010
0000
,  // measure 87
0010
1000
0001
0000
0001
0000
0001
0010
,  // measure 88
0100
1000
0001
0000
0100
0000
0000
0000
,  // measure 89
0100
0000
0001
1000
,  // measure 90
0001
0000
0100
0000
1000
0100
0100
0000
,  // measure 91
0100
0000
0000
0000
0010
1000
1000
0000
,  // measure 92
0100
0000
0000
0000
0001
0100
0100
0000
,  // measure 93
1000
0000
0000
0000
1000
0100
0100
0000
,  // measure 94
1000
0000
1001
0100
,  // measure 95
0010
1000
0100
0000
0001
0010
0100
0000
,  // measure 96
0010
1000
0001
0100
,  // measure 97
1000
1000
0100
0000
0010
0010
0001
0000
,  // measure 98
1000
0000
0100
0000
0001
0000
0000
1000
,  // measure 99
0000
0000
0100
0000
0000
1000
0000
0001
,  // measure 100
0000
0100
0000
1000
0000
0100
0000
0001
,  // measure 101
0000
1000
0000
0100
0000
0010
0000
0001
,  // measure 102
0000
1000
0000
0100
0100
0000
0000
0000
,  // measure 103
0000
0000
0000
0000
,  // measure 104
0000
0000
0010
0010
,  // measure 105
0010
0010
0010
0010
,  // measure 106
0010
0000
0010
0000
1001
0100
0010
0000
,  // measure 107
1001
0100
0010
0000
1001
0100
0010
0000
,  // measure 108
0001
0100
0010
1000
,  // measure 109
0100
0000
0001
0000
0010
1000
0010
1000
,  // measure 110
0001
0000
1000
0000
0100
0000
0000
0000
0010
0010
0000
0000
0000
0000
1000
1000
,  // measure 111
0000
0100
0100
0000
0000
0001
0001
0000
0100
0100
0000
0000
1000
0000
0000
0000
,  // measure 112
0100
0000
0001
0100
0001
0000
0001
0000
,  // measure 113
0100
0000
1000
0100
1000
0000
1000
0000
,  // measure 114
0100
0000
0001
0100
0001
0000
0001
0000
,  // measure 115
0100
0000
1000
0100
1000
0000
0010
0000
,  // measure 116
0010
0000
0010
1000
0100
0000
0001
0000
,  // measure 117
0001
0000
0001
1000
0100
0000
1000
0000
,  // measure 118
1000
0000
1000
0001
0100
0000
0001
1000
,  // measure 119
0010
1000
0001
1000
0100
0000
0001
0000
,  // measure 120
0000
0000
0010
1000
0100
0000
1000
0000
,  // measure 121
0000
0000
0010
0001
0100
0000
0010
0000
,  // measure 122
0000
0000
0001
1000
0010
0000
0100
0000
,  // measure 123
0000
0001
1000
0100
,  // measure 124
0100
0100
0100
0100
,  // measure 125
0100
0100
0100
0100
,  // measure 126
0100
0100
0100
0100
,  // measure 127
0100
0000
0100
0100
0100
0000
0000
0000
,  // measure 128
0000
2002
0000
0000
,  // measure 129
0000
3003
0001
0010
,  // measure 130
0100
1000
0001
0100
,  // measure 131
0020
0030
1000
0100
,  // measure 132
0010
0001
1000
0100
,  // measure 133
0020
0030
0001
0100
,  // measure 134
0001
0100
0010
1000
,  // measure 135
0010
0000
1000
0100
,  // measure 136
1000
0100
0010
0001
,  // measure 137
0010
0001
1000
0001
,  // measure 138
1000
0001
1000
0001
,  // measure 139
0100
0010
0100
0010
,  // measure 140
0100
0000
0001
0001
,  // measure 141
0002
1003
1000
2000
,  // measure 142
3100
0100
0200
0310
,  // measure 143
0010
0020
0031
0100
,  // measure 144
0001
1000
0100
1000
,  // measure 145
0001
0000
1000
0000
0001
0000
0000
0010
,  // measure 146
0000
0000
0010
0000
0001
0000
0000
1000
,  // measure 147
0000
0000
1000
0000
0001
0000
0000
0100
,  // measure 148
0000
0100
0001
0000
,  // measure 149
0101
0000
0000
0000
0001
0000
0000
0100
,  // measure 150
0000
0001
0100
0000
0001
0000
0000
1000
,  // measure 151
0000
0001
1000
0000
0001
0000
0000
0010
,  // measure 152
0000
0100
0010
0000
0002
0000
0000
0000
,  // measure 153
0000
0000
0003
0000
1000
0000
0000
0001
,  // measure 154
0000
0100
0010
0000
1000
0000
0000
0001
,  // measure 155
0000
0100
0010
0000
1000
0000
0000
0001
,  // measure 156
0000
0100
0010
0000
1000
0000
0000
0001
,  // measure 157
0000
0100
0010
0000
1000
0001
0100
0010
,  // measure 158
1000
0100
0010
0001
1000
0100
0010
0001
,  // measure 159
1000
0000
0001
0000
0100
0000
0010
0000
1000
0000
0000
0001
0000
0000
2000
0000
,  // measure 160
0000
0000
0000
0000
3000
0000
0000
0000
0001
0000
0000
1000
0000
0000
0002
0000
,  // measure 161
0000
0003
1100
0000
,  // measure 162
0101
0000
2002
0000
,  // measure 163
0000
0000
0000
0000
,  // measure 164
0000
3003
0000
0000
;

//---------------dance-single - ----------------
#NOTES:
     dance-single:
     :
     Hard:
     15:
     0.323361,0.637240,0.144103,0.055424,0.101981,1021.000000,956.000000,65.000000,25.000000,0.000000,0.000000,0.323361,0.637240,0.144103,0.055424,0.101981,1021.000000,956.000000,65.000000,25.000000,0.000000,0.000000:
0000
0000
0000
0000
,
0000
0000
0000
0000
,
0000
0000
0000
0000
,
0000
0000
0000
0000
,
0001
0000
0001
0000
1000
0010
1000
0010
,
0100
0001
1000
0010
0100
0100
0100
0000
,
0010
1000
0001
0100
0001
0001
0001
0000
,
1000
0000
1000
0000
0100
0001
1000
0000
,
0010
0000
0010
0000
1000
0100
0001
0000
,
1000
0000
0001
0000
0100
0001
1000
0000
,
0010
0010
0010
0010
1000
0000
0001
0000
,
0100
0010
1000
0001
,
0100
0101
1010
1001
,
0100
0000
0100
0000
0100
0010
1000
0001
,
0000
0100
0010
0000
1000
0100
0001
0000
,
1000
1000
1010
0100
0000
0000
0100
0000
,
0001
0100
0010
1000
0001
0000
1001
0000
,
0100
0100
0100
0010
1000
0001
0100
0010
,
1000
0000
1000
0000
1000
0001
0100
0000
,
0010
0000
0100
0001
0000
1000
0000
0010
,
0000
0000
0000
0000
0101
0000
0100
1000
,
0001
0000
0100
0010
0000
1000
0000
0000
,
0001
0000
1000
0000
1000
0000
1000
0010
,
0100
0000
0100
0000
,
0110
0000
0000
0000
,
1000
0100
0001
0000
1000
0010
0001
0000
,
0010
1000
0001
0000
1000
0001
0100
0000
,
0010
0010
0010
0100
0001
0000
0101
0000
,
1000
1010
0110
0101
,
0001
0100
1000
0000
0001
0010
1000
0000
,
0010
0001
1000
0000
0001
1000
0100
0000
,
0010
0100
0010
0010
1000
0000
1100
0000
,
0001
0011
0110
1100
,
0001
0000
1001
0000
1001
0000
0001
1000
,
0010
0000
0000
0100
0000
0000
0001
0000
0000
1000
0000
0000
0010
0000
0100
0000
,
0001
0000
0000
1000
0000
0000
0010
0000
1000
0000
0000
0000
0000
0000
0000
0000
,
1000
0000
0100
0000
0010
0000
0001
0100
0001
0000
0100
0000
1000
0000
0000
0000
,
0100
0000
0010
0000
0001
0000
0010
0100
0010
0000
1000
0000
0001
0000
0000
0000
,
0010
0000
0001
0000
0100
0000
0001
1000
0001
0000
0010
0000
0100
0000
0000
0000
,
1000
0000
0001
0000
0100
0000
0010
1000
0010
0000
0100
0000
0001
0000
0000
0000
,
1000
0000
0100
0000
0001
0000
1000
0010
1000
0000
0010
0000
0001
0000
0000
0000
,
1000
0000
0001
0000
0010
0000
0100
1000
0100
0000
0010
0000
0100
0000
0000
0000
,
0001
0000
0100
0000
1000
0000
0010
1000
0010
0000
1000
0000
0001
0000
0000
0000
,
0010
0000
0100
0000
1000
0000
0001
0100
0001
0000
0010
0000
0100
0000
0000
0000
,
1001
0000
1000
0100
0010
0000
1000
0100
,
0001
0000
1000
0010
0001
0000
0100
0010
,
0001
0000
0001
0010
0100
0000
0001
0010
,
1000
0000
0001
0100
1000
0000
0110
0000
,
1001
0000
0001
0010
0100
0000
0001
0010
,
0100
0000
0001
0010
0100
1000
0100
0001
,
0000
1000
0010
0001
0000
1000
0100
0001
,
0000
1000
0001
0000
0010
0000
0010
0000
,
1100
0000
0011
0000
1000
0000
0010
0100
,
0001
0000
1010
0000
0001
0000
0110
0001
,
1000
0000
0011
0000
1000
0000
0110
1000
,
0001
0000
0110
0000
0001
0010
0100
1000
,
1001
0000
0101
0000
1100
0001
0100
0000
,
1001
0000
1100
0000
0101
1000
0100
0000
,
1001
0000
0100
1000
0000
0000
1001
0000
,
0100
0001
1000
0100
0000
0010
0010
0001
,
0100
0000
0101
0000
0000
0010
1000
0100
,
0000
0001
0100
0010
0000
1000
0001
0000
,
0100
0000
0010
0100
0010
0100
0010
0100
,
0010
0100
0010
0000
0000
0000
1000
0000
,
0001
0000
0100
0000
0000
0010
1000
0000
,
0000
0000
0000
0000
,
0000
0000
0001
0000
0000
0000
0010
0100
,
0000
1000
0000
0000
0010
0000
0000
0000
0000
0000
0000
0000
0100
0000
0000
0000
,
0001
0000
0000
0000
1000
0000
0000
0000
0000
0000
0100
0000
0100
0000
0000
0010
,
0000
0001
0000
0000
0000
0000
0001
0000
,
0000
1000
0000
0010
,
0000
0010
0000
0010
,
0000
0000
0000
0000
1000
0000
0001
0100
0000
1000
0100
0000
0000
0000
0001
0100
,
0000
1000
0100
0000
0000
0000
0001
0100
0000
1000
0100
0000
0010
0000
0001
0000
,
0100
0000
0010
0000
0000
0000
1000
0100
0000
0001
0100
0000
0000
0000
1000
0100
,
0000
0001
0100
0000
0000
0000
1000
0100
0000
0001
0100
0000
0010
0000
1000
0000
,
0100
0000
0010
0000
0001
0100
0000
0010
1000
0000
0100
0010
0000
0001
1000
0000
,
0010
0000
0100
0000
0001
0010
0000
0100
1000
0000
0010
0100
0000
0001
1000
0000
,
0100
0000
0010
0000
0001
1000
0000
0010
0100
0000
0001
0010
0000
0100
1000
0000
,
0010
0000
0100
0000
0001
0010
0000
0100
1000
0000
0001
0100
0000
0010
1000
0000
,
0100
0000
0010
0000
0001
1000
0000
0100
0010
0000
0001
0100
0000
0010
1000
0000
,
0100
0000
0010
0000
0001
0100
0000
0010
1000
0000
0100
0010
0000
0001
0100
0000
,
0010
0000
1000
0000
0001
0010
0000
0100
1000
0000
0010
0100
0000
0001
1000
0000
,
0100
0000
0010
0000
0001
0100
0000
0010
1000
0000
0100
0010
0000
0001
1000
0000
,
0010
0000
0100
0000
0000
0000
0001
1000
0000
0100
0010
0000
0000
0000
0001
0100
,
0000
0010
1000
0000
0000
0000
0001
0010
0000
0100
1000
0000
0010
0000
0100
0000
,
0001
0010
0100
1000
0100
1000
0100
1000
,
0010
0100
0001
0100
0001
0010
0100
0010
,
0100
1000
0002
0000
2003
0000
0000
0000
,
0000
0000
0200
0000
,
0000
0000
3300
0000
0012
0000
0010
1000
,
0000
0100
0000
1000
0003
0100
0001
0010
,
0000
0010
0001
0010
2100
0000
0100
0001
,
0000
0010
0000
0001
3000
0010
1000
0100
,
0000
0100
1000
0100
0010
0001
0100
0000
,
0010
1000
0100
0000
0001
0100
1000
0010
,
1000
0100
0010
0000
0100
1000
0010
0000
,
0100
0001
0010
0000
1000
0010
0001
0100
,
0001
0010
0100
1000
0020
0000
0000
0230
,
0000
0000
0302
0000
0000
1003
0000
0001
,
0000
0100
0020
0001
0000
0130
0000
0010
,
0000
1000
0200
0010
0000
1300
0000
0001
,
0000
0000
1000
0000
0100
0000
0010
0000
0001
0000
0000
1001
0000
0000
1001
0000
,
0000
0000
0000
0000
0000
1010
0000
0000
0110
0000
0000
0110
0000
0000
0101
0000
,
0000
0000
0011
0000
0000
0011
0000
0000
0001
0000
0010
0000
0100
1000
0100
1000
,
0010
0000
0100
0000
0001
0100
0001
0100
0010
0000
1000
0000
0100
1000
0100
1000
,
0010
0000
0100
0000
0001
0100
0001
0100
0010
0000
1000
0000
0010
0000
1000
0000
,
0001
0100
0001
0100
0001
0010
0001
0010
,
0100
1000
0100
1000
0001
0010
0100
1000
,
0001
0100
0010
1000
0100
0010
0001
0100
,
1000
0000
0100
0000
0001
0000
0010
0000
1010
1100
0001
0010
0100
1000
1100
1010
,
0001
1100
0101
0010
0100
0011
1001
0100
0110
2002
0000
3003
1000
0000
0100
0000
,
0010
0002
0000
1003
0200
0000
0301
0010
,
0100
2000
0000
3001
0020
0000
1030
0010
,
0001
2000
0000
3100
0002
0000
1003
0100
,
0001
2000
0000
3010
0001
0000
0100
1000
,
0001
0010
0000
1000
0001
0000
0010
0001
,
1000
0100
0000
0001
1000
0000
0001
0100
,
0001
1000
0000
1000
0001
0000
0010
0100
,
0001
0100
1000
0000
1200
0000
0301
0001
,
0100
1000
0100
0001
0010
0100
0010
0001
,
1000
0100
0010
0100
1000
0001
0010
0010
,
1000
0001
0100
1000
1000
0001
0100
0010
,
0100
0100
0100
0010
0001
1000
0001
0010
,
1000
0100
0010
0001
0100
1000
0001
1000
,
0010
0001
1000
0010
0100
0010
1000
0100
,
0001
1000
0100
0010
0001
1000
0010
0100
,
0001
1000
0100
0100
0200
0000
0000
0000
,
0300
2002
0000
0000
,
0000
3003
1000
0001
,
0010
0100
1000
0001
1000
0100
0010
0001
,
1000
0001
0100
0000
0010
0000
1000
0100
,
1000
0001
1000
0000
0010
1000
0001
0100
,
0001
0000
0010
0100
1000
0100
1000
0001
,
1000
0010
1000
0001
0100
0000
0010
1000
,
0100
0010
0001
0000
0100
0001
0000
0000
,
1000
0000
0001
0100
0010
1000
0010
1000
,
0001
0000
1000
0000
0001
0100
0001
0100
,
0001
0000
1000
0100
1000
0100
1000
0000
,
0010
0100
0010
0100
0010
0000
1000
0001
,
1000
0001
1000
0000
0001
0100
0001
0010
,
0001
0000
1000
0100
1000
0010
1000
0000
,
0010
0100
0010
1000
0001
0000
1000
0001
,
1000
0010
0100
0000
0001
0010
0100
1000
,
0001
0000
1000
0100
1000
0010
1000
0001
,
1000
0010
1000
0100
0010
0000
0001
1000
,
0000
1000
0001
0000
0010
0000
0011
0000
,
0000
1100
0000
0000
0100
0000
1000
0001
,
0000
0001
1000
0000
0100
0000
1100
0000
,
0000
0011
0000
0000
0001
0000
0010
0100
,
0000
0100
0010
0000
0001
0000
0100
0010
,
0000
0010
0100
0000
0010
0000
1000
0001
,
0000
0001
1000
0000
0001
0000
1001
0000
,
0000
1001
0000
0000
0010
0000
0001
1000
,
0001
0000
0100
0000
0001
0000
0010
0100
,
0010
0000
0001
0000
0100
0000
0001
1000
,
0001
0000
0010
0000
1000
0000
0100
0010
,
0100
0000
1000
0000
0010
0100
0010
1000
,
0001
0100
0010
1000
0001
0010
0100
1000
,
0010
0000
0000
0000
0100
0000
0000
0000
0001
0000
0000
0000
1000
0000
0000
0000
0001
0000
0000
0000
0000
0001
0000
0000
0000
0000
0001
0000
0000
0000
0000
0000
,
0000
0000
0000
0000
0000
0000
0000
0000
0000
0000
0000
0000
0000
0000
0000
0000
1000
0000
0000
0000
0000
1000
0000
0000
0000
0000
1000
0000
0000
0000
0000
0000
,
0000
0000
0000
0000
0000
0000
0000
0000
0000
0000
0000
0000
0000
0000
0000
0000
0010
0000
0000
0000
0000
0010
0000
0000
0000
0000
0010
0000
0000
0000
0000
0000
,
0100
0000
0000
0000
0000
0100
0000
0000
0000
0000
0100
0000
0000
0000
0000
0000
2002
0000
0000
0000
0000
0000
0000
0000
0000
0000
0000
0000
0000
0000
0000
0000
,
0000
0000
0000
0000
,
0000
3003
0000
0000
;
