#TITLE:DDR 4thMIX;
#SUBTITLE:;
#ARTIST:KONAMI;
#TITLETRANSLIT:;
#SUBTITLETRANSLIT:;
#ARTISTTRANSLIT:;
#GENRE:;
#CREDIT:;
#BANNER:DDR 4thMIX.png;
#BACKGROUND:;
#LYRICSPATH:;
#CDTITLE:;
#MUSIC:DDR 4thMIX.ogg;
#OFFSET:-0.020000;
#SAMPLESTART:87.281502;
#SAMPLELENGTH:19.359459;
#SELECTABLE:YES;
#BPMS:0.000000=132.190994
,87.000000=129.000000
,87.875000=128.000000
,88.000000=132.192001
,124.000000=148.479996
,125.000000=155.009995
,219.750000=130.000000
,220.000000=155.171997
,226.000000=155.000000
,235.000000=152.000000
,236.000000=155.009995
,284.000000=154.289993
,302.750000=185.000000
,303.000000=154.889999
,331.750000=199.000000
,332.000000=144.000000
,332.500000=144.117996
,431.833344=210.000000
,432.000000=185.000000
,432.125000=260.019989
,605.000000=256.041992
;
#STOPS:
;
#BGCHANGES:;
#KEYSOUNDS:;
#ATTACKS:;

//---------------dance-single - ----------------
#NOTES:
     dance-single:
     :
     Beginner:
     4:
     0.095056,0.171940,0.072671,0.000000,0.000000,293.000000,261.000000,32.000000,0.000000,0.000000,0.000000,0.095056,0.171940,0.072671,0.000000,0.000000,293.000000,261.000000,32.000000,0.000000,0.000000,0.000000:
0000
0000
0000
0000
,
0000
0000
0000
0000
,
0000
0000
0000
0000
,
0000
0000
0000
0000
,
0000
0000
0000
0000
,
0001
0000
0000
0000
,
0001
0000
0000
0000
,
0001
0000
1000
0000
,
1000
0000
0001
0000
,
1000
0000
0000
0000
,
1000
0000
0000
0000
,
0001
0000
0100
0000
,
1000
1000
0000
0000
,
0100
0100
0100
0000
,
0100
0000
0100
0000
,
1000
0000
0001
0000
,
1000
1000
1000
0000
,
1000
0000
0001
0000
,
0001
0000
0001
0000
,
0010
0000
0010
0000
,
0001
0001
0000
0000
,
0100
0100
0100
0000
,
0001
0000
1000
0000
,
0001
0000
1000
0000
,
0010
0010
0010
0000
,
0100
0100
0100
0000
,
1000
0000
0001
0000
,
1000
0000
0001
0000
,
1000
0000
0100
0000
,
0001
0001
0000
0000
,
0100
0100
0100
0000
,
1001
0000
0000
0000
,
0001
0000
0000
0000
,
1000
0000
0000
0000
,
0100
0100
0100
0000
,
0001
0000
1000
0000
,
0001
0000
1000
0000
,
0010
0000
0100
0000
,
0010
0000
0100
0000
,
1000
0000
0000
0000
,
0001
0000
0000
0000
,
0010
0000
0100
0000
,
0010
0010
0010
0000
,
1000
0000
1000
0000
,
0001
0000
0001
0000
,
0010
0000
0010
0000
,
0100
0100
0100
0100
,
0100
0000
0000
0000
,
0001
0000
1000
0000
,
1001
0000
0000
0000
,
0010
0000
0100
0000
,
0110
0000
0000
0000
,
1001
1001
1001
0000
,
0100
0000
0000
0000
,
0010
0000
0000
0000
,
1000
0000
0000
0000
,
0001
0000
0000
0000
,
0010
0000
0000
0000
,
0100
0100
0100
0000
,
1001
0000
1001
0000
,
0100
0000
0100
0000
,
0110
0000
0110
0000
,
0001
0000
0001
0000
,
1000
0000
0000
0000
,
0001
0000
0000
0000
,
0010
0000
0100
0000
,
0001
0000
1000
0000
,
0001
0000
0000
0000
,
0000
0000
0000
0000
,
1000
0000
0000
0000
,
0000
0000
0000
0000
,
0001
0000
1000
0000
,
0001
0000
1000
0000
,
0010
0000
0100
0000
,
0010
0000
0100
0000
,
0001
0000
0001
0000
,
1000
0000
1000
0000
,
0010
0000
0010
0000
,
0100
0000
0100
0000
,
0001
0000
0000
0000
,
1000
0000
0000
0000
,
0010
0000
0100
0000
,
0010
0010
0010
0000
,
0001
0001
0001
0000
,
0001
0001
0001
0000
,
1000
1000
1000
0000
,
0001
0001
0001
0000
,
1000
0000
0001
0000
,
1000
0000
0001
0000
,
1000
0000
0010
0000
,
0001
0000
0100
0000
,
0010
0000
0100
0000
,
0100
0000
0001
0000
,
1000
0000
0001
0000
,
0001
0000
1000
0000
,
1001
0000
0100
0000
,
1001
0000
0100
0000
,
1000
0000
0001
0000
,
1000
0000
0000
0110
,
0000
0001
0000
0110
,
0000
1000
0000
0110
,
0000
1000
0000
0100
,
0000
0010
0000
0001
,
0001
0000
0000
0000
,
0010
0000
0000
0000
,
0110
0000
0110
0000
,
0010
0010
0000
1001
,
0000
0001
0001
0001
,
0001
0000
0000
0000
,
0001
0000
0000
0000
,
0010
0000
0000
0000
,
0100
0000
0000
0000
,
0010
0000
0000
0000
,
0100
0000
0000
0000
,
0001
0000
0000
0000
,
0001
0000
0000
0000
,
1000
0000
0000
0000
,
1000
0000
0000
0000
,
1001
0000
0000
0000
,
1001
0000
0000
0000
,
1001
0000
0000
0000
,
1001
0000
0000
0000
,
0000
0110
0000
0000
,
0000
0110
0000
0000
,
0000
0110
0000
0000
,
0000
0110
0000
0000
,
0000
1000
0000
1000
,
0000
0000
0000
0000
,
0000
1000
0000
1000
,
0000
0000
0000
0000
,
0000
1000
0000
1000
,
0000
0000
0000
0000
,
0000
1000
0000
1000
,
0000
0000
0000
0000
,
0000
0001
0000
0001
,
0000
0000
0000
0000
,
0000
0001
0000
0001
,
0000
0000
0000
0000
,
0000
0001
0000
0001
,
0000
0000
0000
0000
,
0000
0001
0000
0001
,
0000
0000
0000
0000
,
0000
0010
0000
0000
,
0000
1001
0000
0000
,
0000
1001
0000
0000
,
0000
1001
0000
0000
,
0000
0010
0000
0000
,
0000
1001
0000
0000
,
0000
1001
0000
0000
,
0000
1001
0000
0000
,
0000
0010
0000
0010
,
0000
0010
0000
0010
,
0000
0010
0000
0000
,
0000
1000
0000
0000
,
0000
0010
0000
0000
,
0000
1000
0000
0000
,
0000
0010
0000
0000
,
0000
1000
0000
0000
,
0000
0010
0000
0000
,
0000
0010
0000
0000
,
0000
0000
0000
1000
,
0000
0000
0000
0100
,
0000
0000
0000
1000
,
0000
0000
0000
0100
,
0000
0000
0000
1000
,
0000
0000
0000
0100
,
0000
0100
0000
0100
,
0000
0100
0000
0100
,
0000
0100
0000
0000
;

//---------------dance-single - ----------------
#NOTES:
     dance-single:
     :
     Easy:
     7:
     0.168700,0.305671,0.140800,0.000000,0.000000,520.000000,458.000000,62.000000,0.000000,0.000000,0.000000,0.168700,0.305671,0.140800,0.000000,0.000000,520.000000,458.000000,62.000000,0.000000,0.000000,0.000000:
// measure 0
0000
0000
0000
0000
,  // measure 1
0000
0000
0000
0000
,  // measure 2
0000
0000
0000
0000
,  // measure 3
0000
0000
0000
0000
,  // measure 4
0000
0000
0000
0000
,  // measure 5
0001
0000
0000
0000
,  // measure 6
0001
0000
0000
0000
,  // measure 7
0001
0001
1000
0000
,  // measure 8
1000
1000
0001
0000
,  // measure 9
1000
0001
0000
0000
,  // measure 10
1000
0001
0000
0000
,  // measure 11
0001
0001
0000
0100
,  // measure 12
1000
1000
0000
0010
,  // measure 13
0100
0100
0100
0000
,  // measure 14
0100
0010
0100
0000
,  // measure 15
1000
0000
0001
0000
,  // measure 16
1000
1000
1000
0001
,  // measure 17
1000
0000
0001
0000
,  // measure 18
0001
1000
0001
0000
,  // measure 19
0010
0000
0010
0000
,  // measure 20
0001
0001
1000
0000
,  // measure 21
0100
0100
0100
0100
,  // measure 22
0001
0000
1000
0000
,  // measure 23
0001
1000
0001
0000
,  // measure 24
0010
0010
0010
0001
,  // measure 25
0100
0100
0010
0100
,  // measure 26
1000
0000
0001
0000
,  // measure 27
1000
0000
0001
0000
,  // measure 28
1000
1000
0100
0001
,  // measure 29
0001
0001
0010
1000
,  // measure 30
0100
0100
0100
0100
,  // measure 31
1001
0000
0000
0000
,  // measure 32
0001
0000
0000
0000
,  // measure 33
0010
0000
0100
0000
,  // measure 34
0010
0100
0001
1000
,  // measure 35
0100
0010
0001
1000
,  // measure 36
0001
0100
0010
1000
,  // measure 37
0010
1000
0001
0100
,  // measure 38
0010
0010
0010
0010
,  // measure 39
1000
1000
0000
0001
,  // measure 40
0000
0010
0000
0100
,  // measure 41
1000
0000
0001
0000
,  // measure 42
0100
0001
1000
0010
,  // measure 43
0100
0100
0100
0100
,  // measure 44
0010
0010
0010
0010
,  // measure 45
0000
1000
0000
0001
,  // measure 46
0100
0010
1000
0001
,  // measure 47
1000
0000
1000
0010
,  // measure 48
0100
0100
0100
1001
,  // measure 49
0010
0000
0010
1000
,  // measure 50
0001
0001
0001
0010
,  // measure 51
0100
0000
0100
1000
,  // measure 52
0001
0001
0001
0110
,  // measure 53
1000
0000
1000
0010
,  // measure 54
0100
0001
1000
0010
,  // measure 55
1000
1000
0000
1000
,  // measure 56
0000
1000
0000
1000
,  // measure 57
0000
0100
0000
0100
,  // measure 58
0000
0001
0000
0001
,  // measure 59
0000
1000
0000
0100
,  // measure 60
0000
0001
0000
0100
,  // measure 61
0000
0010
0000
1001
,  // measure 62
0000
1001
0000
0100
,  // measure 63
0000
0001
0000
0100
,  // measure 64
0000
1000
0000
0100
,  // measure 65
0000
1000
0000
0001
,  // measure 66
0000
0100
0000
1001
,  // measure 67
0000
0010
1000
0100
,  // measure 68
0001
0000
1001
1001
,  // measure 69
0000
0010
0001
0100
,  // measure 70
1000
0000
1001
1001
,  // measure 71
0000
0100
0000
0100
,  // measure 72
0000
0010
0000
1001
,  // measure 73
0000
0010
0001
0010
,  // measure 74
0000
1000
0010
1000
,  // measure 75
1000
0010
0001
0010
,  // measure 76
0000
0100
0100
0100
,  // measure 77
0001
0010
1000
0010
,  // measure 78
0000
0100
0100
0100
,  // measure 79
1001
0010
1000
0010
,  // measure 80
0000
0100
0100
0100
,  // measure 81
0010
1001
1001
0100
,  // measure 82
0000
0100
0100
0100
,  // measure 83
0001
0001
0001
0001
,  // measure 84
0001
0001
0001
0010
,  // measure 85
1000
1000
1000
0100
,  // measure 86
0001
0001
0001
0100
,  // measure 87
1000
0010
0001
0010
,  // measure 88
1000
0010
0001
0010
,  // measure 89
1000
0000
0010
0000
,  // measure 90
0001
0000
0100
0000
,  // measure 91
0010
1001
0100
1001
,  // measure 92
0100
0110
0001
0110
,  // measure 93
1000
0010
0001
0110
,  // measure 94
0001
0010
1000
0110
,  // measure 95
1001
0010
0100
0110
,  // measure 96
1001
0010
0100
0110
,  // measure 97
1000
0100
0001
0010
,  // measure 98
1000
0000
0000
0110
,  // measure 99
1000
0001
0010
0110
,  // measure 100
0001
1000
0010
0110
,  // measure 101
0100
1000
0100
0100
,  // measure 102
0001
0010
0001
0001
,  // measure 103
1000
0010
0001
0100
,  // measure 104
1000
0010
0001
0100
,  // measure 105
1001
0110
1001
0110
,  // measure 106
1001
0110
1000
1001
,  // measure 107
0001
0001
0001
0001
,  // measure 108
0100
0000
0000
0000
,  // measure 109
0000
0000
0000
0000
,  // measure 110
0010
1000
0001
0000
,  // measure 111
0100
0000
0100
0000
,  // measure 112
1000
0001
1000
0000
,  // measure 113
0100
0000
0100
0000
,  // measure 114
0001
0010
0001
0000
,  // measure 115
0100
0000
0100
0000
,  // measure 116
1000
0010
1000
0000
,  // measure 117
0100
0000
0100
0000
,  // measure 118
1001
0000
0100
0000
,  // measure 119
1001
0000
0100
0000
,  // measure 120
1001
0000
0100
0000
,  // measure 121
1001
0000
0100
0010
,  // measure 122
0000
0010
0000
0010
,  // measure 123
0000
0010
0000
0010
,  // measure 124
0000
0010
0000
0010
,  // measure 125
0000
0010
0000
0010
,  // measure 126
0000
1000
0000
1001
,  // measure 127
0000
0010
0000
1001
,  // measure 128
0000
1001
0000
0100
,  // measure 129
0000
1000
0000
0001
,  // measure 130
1000
0100
0000
0010
,  // measure 131
0000
1001
0000
1001
,  // measure 132
0000
0010
0000
1001
,  // measure 133
0000
0010
0000
1000
0010
0000
0000
0000
,  // measure 134
0000
1000
0000
1001
,  // measure 135
0000
0010
0000
1001
,  // measure 136
0000
1001
0000
0100
,  // measure 137
0000
1000
0000
0001
,  // measure 138
1000
0100
0000
0010
,  // measure 139
0000
1001
0000
1001
,  // measure 140
0000
0010
0000
1001
,  // measure 141
0000
0010
0000
1000
0010
0000
0000
0000
,  // measure 142
0000
0010
1000
0100
,  // measure 143
0000
0001
0000
0001
,  // measure 144
0000
1000
0000
1001
,  // measure 145
0000
0010
0000
1001
,  // measure 146
0000
0010
0001
0100
,  // measure 147
0000
1000
0000
1000
,  // measure 148
0000
0001
0000
1001
,  // measure 149
0000
0010
0000
1001
,  // measure 150
0000
0010
0000
0001
,  // measure 151
0000
0100
0000
1000
,  // measure 152
0000
0010
0000
1000
,  // measure 153
0001
1000
0000
1001
,  // measure 154
0000
0010
0000
1000
,  // measure 155
0001
1000
0000
1001
,  // measure 156
0000
0010
0000
1000
,  // measure 157
0001
1000
0000
1001
,  // measure 158
0000
0010
0000
1000
,  // measure 159
0001
0010
0001
1000
,  // measure 160
0000
1001
0000
0010
,  // measure 161
1000
0001
0000
1001
,  // measure 162
0000
0010
0000
1000
,  // measure 163
0001
1000
0000
1001
,  // measure 164
0000
0010
0000
0001
,  // measure 165
1000
0001
0000
1001
,  // measure 166
0000
1000
0000
1000
,  // measure 167
0001
0000
0001
0001
,  // measure 168
0001
1001
0000
0000
;

//---------------dance-single - ----------------
#NOTES:
     dance-single:
     :
     Medium:
     10:
     0.213146,0.324776,0.138529,0.000000,0.000000,657.000000,596.000000,61.000000,0.000000,0.000000,0.000000,0.213146,0.324776,0.138529,0.000000,0.000000,657.000000,596.000000,61.000000,0.000000,0.000000,0.000000:
// measure 0
0000
0000
0000
0000
,  // measure 1
0000
0000
0000
0000
,  // measure 2
0000
0000
0000
0000
,  // measure 3
0000
0000
0000
0000
,  // measure 4
0000
0000
0000
0000
,  // measure 5
0000
0010
0000
0010
,  // measure 6
0000
0100
0000
0100
,  // measure 7
0010
0000
0010
0000
0010
1000
0100
0000
,  // measure 8
0100
0000
0100
0000
0100
1000
0010
0000
,  // measure 9
0010
0000
0010
0000
0010
0100
0001
0000
,  // measure 10
0001
0001
0010
0010
,  // measure 11
0101
0101
1000
1000
,  // measure 12
1010
1010
0001
0001
,  // measure 13
1000
0000
1000
0000
0001
0100
1000
0000
,  // measure 14
1000
1000
0001
1000
,  // measure 15
0010
1000
0100
0000
0010
1000
0100
0000
,  // measure 16
0001
0001
1000
1100
,  // measure 17
0001
0001
1000
0001
,  // measure 18
0010
0100
0010
0100
,  // measure 19
0001
0001
1000
0001
,  // measure 20
0010
0010
0100
0100
,  // measure 21
0001
0011
0100
1100
,  // measure 22
0010
0000
0010
0000
0010
1000
0001
0000
,  // measure 23
0001
0000
0001
0000
0001
0100
1000
0000
,  // measure 24
1000
0100
0001
0000
1000
0100
0001
0000
,  // measure 25
0001
0001
0100
0010
,  // measure 26
1000
0100
0010
0001
0000
0000
0110
0000
,  // measure 27
0001
0010
0100
1000
0000
0000
0010
0000
,  // measure 28
0010
0100
0100
0010
,  // measure 29
0100
0010
1000
0001
,  // measure 30
0000
0110
0000
0000
0000
0010
1000
0000
,  // measure 31
1001
0000
0000
0000
0000
0000
0000
0010
,  // measure 32
0100
0000
0000
0000
0000
0000
0000
0010
,  // measure 33
0100
0000
0010
0000
,  // measure 34
0010
1000
0001
0100
,  // measure 35
1000
0010
0100
0001
,  // measure 36
1000
0100
0010
0001
,  // measure 37
0100
0001
1000
0010
,  // measure 38
0100
0000
0100
0000
0010
1000
0001
0100
,  // measure 39
0010
0000
0010
1000
,  // measure 40
0001
0000
0001
0000
0100
0001
1000
0010
,  // measure 41
0100
0000
0100
0001
,  // measure 42
1000
1000
1000
0000
0000
0001
0001
0000
,  // measure 43
0100
0000
0000
0010
1000
0000
0000
0001
,  // measure 44
0010
0000
0010
0000
0001
0000
1000
0010
,  // measure 45
0100
0001
1000
0010
,  // measure 46
1000
0000
1000
0000
1000
0001
1000
0001
,  // measure 47
0100
0001
1000
0010
,  // measure 48
0100
0000
0100
0000
0100
0000
0010
1000
,  // measure 49
0001
0000
0100
0010
,  // measure 50
1000
0000
1000
0000
1000
0000
0010
0100
,  // measure 51
0001
0000
1000
0010
,  // measure 52
1000
0000
0010
0000
0100
0000
0001
0010
,  // measure 53
0100
1000
1000
1000
,  // measure 54
0010
0010
0100
0000
,  // measure 55
0000
1000
0000
0100
,  // measure 56
0000
0001
0000
0100
,  // measure 57
0000
1000
0000
0100
,  // measure 58
0000
0001
0001
0001
,  // measure 59
1000
1000
0100
0001
,  // measure 60
0010
0000
1001
0000
0010
1000
0100
0000
,  // measure 61
0001
0100
0100
1000
,  // measure 62
0010
0000
1001
0000
0010
0001
0100
0000
,  // measure 63
0010
1000
1000
0001
,  // measure 64
0100
1000
0100
0001
,  // measure 65
0100
0000
1000
0000
0100
1000
0010
0000
,  // measure 66
1001
0000
1001
0000
0010
1000
0100
0000
,  // measure 67
0010
0001
0100
1000
,  // measure 68
1001
1000
0100
0100
,  // measure 69
0010
1000
0100
0001
,  // measure 70
1001
0001
0100
0100
,  // measure 71
1000
0100
0001
0100
,  // measure 72
0010
1000
0010
0001
,  // measure 73
1001
0100
0001
0010
,  // measure 74
1000
0010
0001
0010
,  // measure 75
0001
0100
0010
0100
,  // measure 76
1000
0000
0010
0000
1000
0001
0100
0000
,  // measure 77
1000
0100
0010
0100
,  // measure 78
0001
0000
0010
0000
0001
1000
0100
0000
,  // measure 79
0001
0000
1000
0000
0100
0000
0001
0100
,  // measure 80
0000
0010
0000
1000
0000
0010
0100
0000
,  // measure 81
0110
1001
0010
0100
,  // measure 82
0001
0100
1000
0100
,  // measure 83
0001
0000
0000
0000
,  // measure 84
1000
0000
0000
0000
,  // measure 85
0010
0000
0010
0000
,  // measure 86
0100
0100
0100
0100
,  // measure 87
0001
0010
1000
0000
0001
0100
0001
0000
,  // measure 88
1000
0010
0001
0000
1000
0100
1000
0000
,  // measure 89
0010
0010
0010
0010
,  // measure 90
0100
0000
0000
0000
0000
1001
0110
0000
,  // measure 91
1000
0000
1000
0000
0001
0010
1000
0000
,  // measure 92
0001
0000
0001
0000
1000
0010
0001
0000
,  // measure 93
0100
1010
0100
0011
,  // measure 94
0001
0010
1000
0110
,  // measure 95
0001
0000
0001
0000
1000
0100
0001
0000
,  // measure 96
1000
0000
1000
0000
0001
0100
1000
0000
,  // measure 97
1100
1001
0011
0110
,  // measure 98
1001
0000
0000
0000
0110
1000
0001
0000
,  // measure 99
1000
0100
0001
0100
,  // measure 100
0101
1100
0101
1100
,  // measure 101
0001
0100
1000
0100
,  // measure 102
0101
1100
0101
1100
,  // measure 103
0010
0000
0010
0000
0010
1000
0100
0000
,  // measure 104
0010
0000
0010
0000
0010
0001
0010
0000
,  // measure 105
1100
0011
0101
1010
,  // measure 106
0110
0000
1001
0000
0110
1000
0001
0000
,  // measure 107
1000
1000
1000
1000
,  // measure 108
0010
1000
0001
0010
,  // measure 109
0001
1000
0010
0000
,  // measure 110
1000
0001
0010
0000
,  // measure 111
0001
0010
0001
0000
,  // measure 112
0010
1000
0010
0000
,  // measure 113
1000
0010
1000
0000
,  // measure 114
0010
0001
0010
0000
,  // measure 115
0001
0010
0001
0000
,  // measure 116
0010
1000
0010
0000
,  // measure 117
1000
0010
0100
0000
,  // measure 118
1001
0000
0010
0000
,  // measure 119
1001
0000
0010
0000
,  // measure 120
1001
0000
0010
0000
,  // measure 121
1001
0000
0010
1000
,  // measure 122
0001
0010
0001
1000
,  // measure 123
0010
1000
0001
0010
,  // measure 124
0001
1000
0010
1000
,  // measure 125
0001
0010
0001
1000
,  // measure 126
0000
0000
0010
0000
,  // measure 127
1001
0000
0010
0000
,  // measure 128
0100
0000
0101
0000
,  // measure 129
1100
0000
0001
0100
,  // measure 130
1000
0100
0001
0000
,  // measure 131
0010
0000
1000
0000
,  // measure 132
0010
0000
0001
0000
,  // measure 133
0000
1001
0000
0010
0100
0000
0000
0000
,  // measure 134
0001
0000
0010
0000
,  // measure 135
1001
0000
0010
0000
,  // measure 136
0100
0000
1100
0000
,  // measure 137
0101
0000
1000
0100
,  // measure 138
0001
0100
1000
0000
,  // measure 139
0010
0000
0001
0000
,  // measure 140
0010
0000
1000
0000
,  // measure 141
0000
1001
0000
0010
0100
0000
0000
0000
,  // measure 142
0000
1000
0010
1000
,  // measure 143
0001
0100
0000
0100
,  // measure 144
0000
1000
0100
0001
,  // measure 145
0100
0010
0100
0010
,  // measure 146
1000
0001
0010
0001
,  // measure 147
1000
0100
0000
0100
,  // measure 148
0000
0010
0000
0001
,  // measure 149
0000
0100
0000
0100
,  // measure 150
0000
0010
0000
0010
,  // measure 151
0000
0010
1000
0001
,  // measure 152
1000
0010
0000
1000
,  // measure 153
0001
1000
0000
1001
,  // measure 154
0000
0010
0100
0001
,  // measure 155
1000
0001
0000
1001
,  // measure 156
0000
0010
0100
0001
,  // measure 157
1000
0001
0000
1001
,  // measure 158
0000
0010
0100
0001
,  // measure 159
1000
0010
1000
0001
,  // measure 160
1000
1000
0000
0010
,  // measure 161
1000
0001
1000
1000
,  // measure 162
0000
0010
0100
0001
,  // measure 163
1000
0001
1000
1000
,  // measure 164
0000
0010
0100
0001
,  // measure 165
1000
0001
1000
1000
,  // measure 166
0000
1000
0000
1000
,  // measure 167
0001
0000
0001
1000
,  // measure 168
0100
1001
0000
0000
;

//---------------dance-single - ----------------
#NOTES:
     dance-single:
     :
     Hard:
     13:
     0.285168,0.362985,0.129445,0.000000,0.027252,879.000000,822.000000,57.000000,0.000000,0.000000,0.000000,0.285168,0.362985,0.129445,0.000000,0.027252,879.000000,822.000000,57.000000,0.000000,0.000000,0.000000:
// measure 0
0000
0000
0000
0000
,  // measure 1
0000
0000
0000
0000
,  // measure 2
0000
0000
0000
0000
,  // measure 3
0000
0000
0000
0000
,  // measure 4
0000
0000
0000
0000
,  // measure 5
0101
0000
0000
0000
0000
0100
1000
0010
,  // measure 6
0000
1000
0000
1000
0000
0100
0001
0010
,  // measure 7
0000
0000
0011
0000
0000
0001
0001
1000
,  // measure 8
0000
0100
0000
0010
0000
1000
1000
0010
,  // measure 9
0000
0000
1100
0000
0010
0001
0010
0001
,  // measure 10
0000
0000
0110
0000
1000
0100
1000
0100
,  // measure 11
0000
0010
0010
0000
0010
0000
0010
1000
,  // measure 12
0000
1000
0100
0000
0000
0000
0110
0000
,  // measure 13
0010
0000
0001
0100
0000
0001
1000
0100
,  // measure 14
1000
0010
0000
0100
0000
0000
0000
0000
,  // measure 15
0010
1000
0100
0000
0010
0001
0100
0000
,  // measure 16
0001
1000
0010
0000
1000
0001
0100
0010
,  // measure 17
1000
0000
1000
0010
0100
0000
1000
0000
,  // measure 18
1000
0100
1000
0000
0001
0100
0001
0000
,  // measure 19
0010
1000
0100
0000
0010
0001
0100
0000
,  // measure 20
0110
0000
0001
0000
0110
0000
0010
1000
,  // measure 21
0010
1000
0100
1000
0001
1000
0001
0001
,  // measure 22
1000
0000
1000
0010
0000
0001
0010
0000
,  // measure 23
0100
0000
1000
1100
0000
0000
0000
0000
,  // measure 24
0001
1000
0100
0000
0001
1000
0100
0000
,  // measure 25
0010
1000
0100
1000
0010
0000
0011
0000
,  // measure 26
0001
0010
0100
1000
0000
0000
0110
0000
,  // measure 27
1000
0100
0010
0001
0000
0000
0101
0000
,  // measure 28
1001
1001
0010
0001
,  // measure 29
0001
1000
0100
0100
,  // measure 30
0000
0110
0000
0000
0000
1001
0110
0000
,  // measure 31
1001
0000
0000
0000
0000
0000
0000
1000
,  // measure 32
0001
0000
0000
0000
0000
0000
0000
0100
,  // measure 33
0010
0000
1000
0001
,  // measure 34
0100
0000
0010
0000
1000
0001
0100
0010
,  // measure 35
1000
0001
0000
0100
0000
0010
0100
0001
,  // measure 36
0000
1000
0000
0010
0000
0100
0001
1000
,  // measure 37
0000
0001
0000
0100
0000
0001
1000
0100
,  // measure 38
0000
0010
0000
0100
1000
0001
0010
0001
,  // measure 39
1000
0000
0001
0100
0010
0000
1000
0001
,  // measure 40
0100
0000
0100
0010
1000
0001
0100
0000
,  // measure 41
0010
0000
0010
1000
0001
0000
0001
0100
,  // measure 42
0010
1000
0001
0000
0001
1000
0010
0000
,  // measure 43
0100
0000
0100
0010
1000
0000
1000
0001
,  // measure 44
0010
0000
0010
0001
1000
0000
1000
0100
,  // measure 45
1000
0010
0100
0001
1000
0010
0100
0000
,  // measure 46
1000
0000
0010
0000
0100
0001
1000
0010
,  // measure 47
0100
0000
0000
0000
0010
0000
0000
0010
1000
0000
0000
1000
0001
0000
0100
0000
,  // measure 48
0010
0000
0010
0000
0010
0000
0100
0001
,  // measure 49
0001
0000
0000
0000
0000
0000
0000
0000
0010
0000
0000
0100
1000
0000
0001
0000
,  // measure 50
0010
0100
0010
0100
0010
0100
0010
0010
,  // measure 51
0001
0000
0000
0000
0100
0000
0000
0100
0001
0000
0000
0001
1000
0000
0010
0000
,  // measure 52
0100
0000
0101
0000
0010
0000
0100
0001
,  // measure 53
0001
0000
0000
0000
0000
0000
0000
0000
0010
0000
0000
1000
0100
0000
1000
0000
,  // measure 54
0001
0010
0100
1000
0001
0001
0000
0000
,  // measure 55
1000
0100
0000
0000
0001
0100
0000
0000
1000
0000
0000
0001
0100
0000
0000
0000
,  // measure 56
0001
0100
0000
0000
1000
0100
0000
0000
0001
0000
0000
1000
0100
0000
0000
0000
,  // measure 57
1000
0100
0000
0000
0001
0100
0000
0000
1000
0000
0000
0001
0100
0000
0000
0000
,  // measure 58
0010
0100
0000
0001
0100
0000
1000
0100
0000
0010
0100
0000
1001
0000
0000
0000
,  // measure 59
0110
0000
1000
0001
0000
1000
0100
0100
,  // measure 60
0000
0110
0000
0011
0000
1100
0000
0000
,  // measure 61
1010
0000
0100
0001
0000
0010
0001
0010
,  // measure 62
0000
1100
0000
0011
0000
1100
0000
0000
,  // measure 63
0001
0000
1000
0100
0000
1000
0000
0010
,  // measure 64
0000
0001
0000
1000
0000
0001
0000
0010
,  // measure 65
0000
0001
0100
0000
0010
1000
0100
0000
,  // measure 66
0010
0001
0100
0000
0010
1000
0100
0000
,  // measure 67
0000
0011
0000
1000
0000
1010
0000
0100
,  // measure 68
0000
1001
0000
0101
0000
0010
0010
0000
,  // measure 69
1000
1000
0000
0001
0000
0101
0000
1000
,  // measure 70
0000
1100
0000
0011
0000
0100
0010
0000
,  // measure 71
1000
0100
0001
0000
0001
0100
1000
0000
,  // measure 72
0001
0010
0001
1000
0010
1000
0100
0000
,  // measure 73
0010
0001
1000
0000
0001
0100
0001
0000
,  // measure 74
1000
0100
1000
0100
1000
0001
1000
0000
,  // measure 75
1000
0001
1000
0100
0010
0001
1000
0100
,  // measure 76
1000
0001
0010
0001
0100
0001
0010
0100
,  // measure 77
1000
0001
1000
0001
0100
0010
1000
0100
,  // measure 78
1000
0001
0010
0001
0100
0001
1000
0100
,  // measure 79
0010
0001
1000
0100
0010
0001
1000
0100
,  // measure 80
0000
1010
0000
0101
0000
0010
0100
0000
,  // measure 81
0001
0100
1000
0000
1000
0100
0001
0000
,  // measure 82
0100
0001
1000
0100
1000
0001
0100
0000
,  // measure 83
1000
0100
0001
0100
,  // measure 84
1000
0100
0001
0100
,  // measure 85
1000
0010
0001
0010
,  // measure 86
1000
0000
0000
0000
1000
0000
0000
0000
0010
0100
0010
0100
0010
0000
0000
0000
,  // measure 87
0001
0010
1000
0000
1000
0100
0001
0010
,  // measure 88
1000
0100
0001
0000
0001
0010
1000
0100
,  // measure 89
0011
1010
1100
0101
,  // measure 90
0110
0000
0000
0000
0000
0000
0000
0000
1000
0001
1000
0001
1000
0000
0000
0000
,  // measure 91
0001
0010
0001
0000
0010
0001
1000
0100
,  // measure 92
1000
0010
1000
0000
0010
1000
0001
0100
,  // measure 93
0010
0000
1100
0000
0010
0000
0101
1000
,  // measure 94
0010
0000
1100
0000
0010
1000
0101
0000
,  // measure 95
1000
0100
0001
0000
0001
0010
1000
0000
,  // measure 96
0010
0001
0100
0000
0100
1000
0010
0000
,  // measure 97
0011
0000
0011
0000
1000
0100
1000
0100
,  // measure 98
0001
0000
0000
0000
0000
0000
0000
0000
0000
0000
0100
0010
0100
0000
0000
0000
,  // measure 99
0001
0010
0100
0000
0100
0010
1000
0100
,  // measure 100
1000
0001
0010
0000
0010
1000
0100
0001
,  // measure 101
0010
1000
0100
0001
0010
1000
0100
0000
,  // measure 102
1010
0000
0101
0000
1000
0010
0100
0001
,  // measure 103
1000
0010
0100
0000
0001
0010
0100
0010
,  // measure 104
1000
0001
0010
0000
1000
0001
0010
0100
,  // measure 105
1000
1000
0010
0000
0001
0001
0010
0000
,  // measure 106
0110
0000
1001
0000
0010
0001
0100
0000
,  // measure 107
0100
1000
0100
0010
0001
0010
0001
0100
,  // measure 108
1000
1000
0010
0001
,  // measure 109
0010
1000
0001
1000
,  // measure 110
0100
1000
0010
0000
,  // measure 111
1000
0001
0010
0001
,  // measure 112
0100
0001
0010
0000
,  // measure 113
0001
1000
0010
1000
,  // measure 114
0100
1000
0010
0000
,  // measure 115
1000
0001
0010
0001
,  // measure 116
0100
0001
0010
0000
,  // measure 117
0001
1000
0010
1000
,  // measure 118
0001
0010
0011
0000
,  // measure 119
1000
0010
1010
0000
,  // measure 120
0001
0010
0011
0000
,  // measure 121
1000
0010
1000
0001
,  // measure 122
0010
0100
0001
0100
,  // measure 123
1000
0001
0100
0001
,  // measure 124
1000
0001
0010
0001
,  // measure 125
1000
0000
0010
0000
1000
0001
1000
0001
,  // measure 126
0000
1000
0010
1000
,  // measure 127
0001
1000
0001
1000
,  // measure 128
0100
0010
1000
0010
,  // measure 129
0100
0000
1000
0000
0001
0000
1000
0001
,  // measure 130
1000
0001
1000
0000
0010
0000
0001
0000
,  // measure 131
0100
0010
1000
0100
,  // measure 132
0010
0001
0100
0010
,  // measure 133
0000
1001
0000
0001
1000
0000
0000
0000
,  // measure 134
0000
0001
0010
0001
,  // measure 135
1000
0001
1000
0001
,  // measure 136
0100
0010
0001
0010
,  // measure 137
0100
0000
0001
0000
1000
0000
0001
1000
,  // measure 138
0001
1000
0001
0000
0010
0000
1000
0000
,  // measure 139
0100
0010
0001
0100
,  // measure 140
0010
1000
0100
0010
,  // measure 141
0000
1001
0000
1000
0001
0000
0000
0000
,  // measure 142
0000
0100
0001
1000
,  // measure 143
0100
1000
0001
0100
,  // measure 144
0001
1000
0100
1000
,  // measure 145
0001
0100
0001
1000
,  // measure 146
0100
1000
0001
0100
,  // measure 147
0001
1000
0100
1000
,  // measure 148
0001
0100
0001
1000
,  // measure 149
0100
1000
0001
0100
,  // measure 150
0001
0000
0010
1000
0010
1000
0010
1000
,  // measure 151
0010
1000
0010
1000
0010
1000
0010
1000
,  // measure 152
0010
1000
0010
1000
0000
0000
0000
0000
,  // measure 153
0000
1000
0001
0001
,  // measure 154
0100
0010
0100
0001
,  // measure 155
1000
0001
0100
0001
,  // measure 156
1000
0010
0100
0001
,  // measure 157
1000
0001
0100
0010
,  // measure 158
1000
0100
0010
0000
,  // measure 159
0000
0000
0001
0100
,  // measure 160
0010
1001
0100
0001
,  // measure 161
1000
0001
1000
1000
,  // measure 162
0100
0010
0100
1000
,  // measure 163
0001
1000
0001
0001
,  // measure 164
0100
0010
0100
0001
,  // measure 165
1000
0001
1000
1000
,  // measure 166
0000
0000
1000
0010
1000
0010
1000
0000
,  // measure 167
0010
1000
0010
1000
0010
0000
1000
0001
,  // measure 168
1000
0001
1000
0000
0000
0000
0000
0000
;
