#TITLE:DDR 3rdMIX;
#SUBTITLE:;
#ARTIST:KONAMI;
#TITLETRANSLIT:;
#SUBTITLETRANSLIT:;
#ARTISTTRANSLIT:;
#GENRE:;
#CREDIT:;
#MENUCOLOR:;
#METERTYPE:DDR X;
#BANNER:DDR 3rdMIX.png;
#BACKGROUND:;
#LYRICSPATH:;
#CDTITLE:;
#MUSIC:DDR 3rdMIX.ogg;
#OFFSET:-1.440;
#SAMPLESTART:161.781;
#SAMPLELENGTH:16.277;
#SELECTABLE:YES;
#LISTSORT:;
#BPMS:0.000=125.000,133.000=126.129,209.500=136.008,309.500=150.000,336.000=150.143,375.875=200.000,511.667=190.000;
#STOPS:;
#BGCHANGES:;
#ATTACKS:;

//---------------dance-single - ----------------
#NOTES:
     dance-single:
     :
     Beginner:
     4:
     0.171,0.252,0.084,0.000,0.000: // measure 1
0000
0000
0000
0000
,  // measure 2
0000
0000
0000
0000
,  // measure 3
0000
0000
0000
0000
,  // measure 4
0000
0000
0000
0000
,  // measure 5
0000
0000
0000
0000
,  // measure 6
0000
0000
0000
0100
,  // measure 7
0000
0000
0000
0100
,  // measure 8
0000
0000
0000
0100
,  // measure 9
0000
0000
0000
0100
,  // measure 10
0000
0000
0000
0001
,  // measure 11
0000
0000
0000
1000
,  // measure 12
0000
0000
0000
0001
,  // measure 13
0000
0000
0000
1000
,  // measure 14
0000
0000
0000
0001
,  // measure 15
0000
0000
0000
1000
,  // measure 16
0000
0000
0000
0001
,  // measure 17
0000
0000
0000
1000
,  // measure 18
0000
0010
0000
0100
,  // measure 19
0000
0010
0000
1001
,  // measure 20
0000
0010
0000
0100
,  // measure 21
0000
0010
0000
1001
,  // measure 22
0000
1000
0000
0001
,  // measure 23
0000
0010
0000
0110
,  // measure 24
0000
0001
0000
1000
,  // measure 25
0000
0010
0000
0110
,  // measure 26
0000
0001
0000
0001
,  // measure 27
0000
0001
0001
0001
,  // measure 28
0000
0010
0010
0010
,  // measure 29
0000
0100
0100
0100
,  // measure 30
0000
1000
0000
1000
,  // measure 31
0000
0010
0000
0001
,  // measure 32
0000
0001
0000
0001
,  // measure 33
0000
0100
0000
1000
,  // measure 34
0000
1001
0000
0001
,  // measure 35
0001
0000
0010
0010
,  // measure 36
0000
0100
0100
0000
,  // measure 37
1000
1000
0000
0100
,  // measure 38
0100
0000
0010
0010
,  // measure 39
0000
0001
0001
0000
,  // measure 40
0010
0010
0000
0000
,  // measure 41
1001
0000
0000
0100
,  // measure 42
0000
0000
1001
0000
,  // measure 43
0000
0010
0000
0000
,  // measure 44
1001
0000
0000
0100
,  // measure 45
0000
0000
1001
0000
,  // measure 46
0000
1000
0000
0000
,  // measure 47
0100
0100
0000
0000
,  // measure 48
0001
0000
0100
0100
,  // measure 49
0000
1000
0000
0000
,  // measure 50
0100
0100
0000
0000
,  // measure 51
0001
0000
0100
0100
,  // measure 52
0000
1001
0000
0000
,  // measure 53
0000
1001
0000
0001
,  // measure 54
0000
0100
0000
0001
,  // measure 55
0000
0100
0000
0010
,  // measure 56
0000
0000
0000
0010
,  // measure 57
0000
0000
0000
1000
,  // measure 58
0000
0010
0000
1000
,  // measure 59
0000
0010
0000
0100
,  // measure 60
0000
0000
0000
0100
,  // measure 61
0000
0000
0000
1001
,  // measure 62
0000
0001
0000
0001
,  // measure 63
0000
0001
0000
1001
,  // measure 64
0000
1000
0000
1000
,  // measure 65
0000
1000
0000
0010
,  // measure 66
0000
0001
0000
0001
,  // measure 67
0000
0100
0000
0010
,  // measure 68
0000
1000
0000
1000
,  // measure 69
0000
0100
0000
0001
,  // measure 70
0000
0010
0000
0100
,  // measure 71
0000
0100
0000
1000
,  // measure 72
0000
0010
0000
0100
,  // measure 73
0000
0100
0000
1001
,  // measure 74
0000
0000
0000
1001
,  // measure 75
0000
0000
0000
1001
,  // measure 76
0000
0110
0000
1001
,  // measure 77
0000
0110
0000
0000
,  // measure 78
0000
0000
0000
1001
,  // measure 79
0000
0100
0000
0010
,  // measure 80
0000
1000
0000
0100
,  // measure 81
0000
0001
0000
0100
,  // measure 82
0000
0010
0000
1000
,  // measure 83
1000
0000
0000
0010
,  // measure 84
0010
0000
0000
0001
,  // measure 85
0001
0000
0000
0100
,  // measure 86
0100
0000
0000
0000
,  // measure 87
0000
0000
0000
0000
,  // measure 88
0000
0000
0000
1001
,  // measure 89
0000
1000
1000
1000
,  // measure 90
1000
1000
0000
0110
,  // measure 91
0000
0010
0010
0010
,  // measure 92
0010
0010
0000
1000
,  // measure 93
0000
0010
0000
0100
,  // measure 94
0000
0001
0000
0000
,  // measure 95
1000
0000
0000
0000
,  // measure 96
0000
0000
0000
0000
,  // measure 97
1000
1000
0000
0000
,  // measure 98
0001
0001
0000
0000
,  // measure 99
0100
0100
0000
0000
,  // measure 100
0100
0100
0000
0000
,  // measure 101
1000
1000
0000
0000
,  // measure 102
0001
0001
0000
0000
,  // measure 103
0010
0010
0000
0000
,  // measure 104
0010
0010
0000
0000
,  // measure 105
0001
0000
0000
0000
,  // measure 106
0001
0000
0000
0000
,  // measure 107
1000
0000
0000
0000
,  // measure 108
1000
0000
0000
0000
,  // measure 109
0010
0000
0000
0000
,  // measure 110
0010
0000
0000
0000
,  // measure 111
0100
0000
0000
0000
,  // measure 112
0100
0000
0000
0000
,  // measure 113
0001
0001
0001
0001
,  // measure 114
0001
0001
0001
0000
,  // measure 115
1000
1000
1000
1000
,  // measure 116
1000
1000
1000
0000
,  // measure 117
0010
0010
0010
0010
,  // measure 118
0010
0010
0010
0000
,  // measure 119
0100
0100
0100
0100
,  // measure 120
0100
0100
0100
0000
,  // measure 121
0010
0010
0000
0000
,  // measure 122
0001
0001
0000
0000
,  // measure 123
0010
0010
0000
0000
,  // measure 124
1000
1000
0000
0000
,  // measure 125
0010
0010
0000
0000
,  // measure 126
1000
1000
0000
0000
,  // measure 127
0010
0000
0000
0000
,  // measure 128
0001
0000
0000
0000
,  // measure 129
0100
0000
0000
0000
,  // measure 130
0100
0100
0000
0000
,  // measure 131
0100
0100
0000
0000
,  // measure 132
0100
0100
0000
0000
,  // measure 133
0100
0100
0000
0000
,  // measure 134
0010
0010
0000
0000
,  // measure 135
0010
0010
0000
0000
,  // measure 136
0010
0010
0000
0000
,  // measure 137
0010
0010
0000
0000
,  // measure 138
0001
0000
0000
0000
,  // measure 139
1000
1000
0000
0000
,  // measure 140
1000
1000
0000
0000
,  // measure 141
1000
1000
0000
0000
,  // measure 142
0100
0000
0000
0000
,  // measure 143
0001
0001
0000
0000
,  // measure 144
0001
0001
0000
0000
,  // measure 145
0001
0001
0000
0000
,  // measure 146
0010
0000
0000
0000
,  // measure 147
0010
0000
0000
0000
,  // measure 148
0100
0000
0000
0000
,  // measure 149
0100
0000
0000
0000
,  // measure 150
0010
0000
0000
0000
,  // measure 151
0010
0000
0000
0000
,  // measure 152
0100
0000
0000
0000
,  // measure 153
0010
0010
0010
0010
,  // measure 154
0010
0010
0010
0000
,  // measure 155
0000
0000
0000
0000
,  // measure 156
1000
1000
0000
0000
,  // measure 157
0100
0100
0000
0000
,  // measure 158
0010
0010
0000
0000
,  // measure 159
0010
0010
0000
0000
,  // measure 160
0001
0001
0000
0000
,  // measure 161
1000
1000
0000
0000
,  // measure 162
0001
0001
0000
0000
,  // measure 163
1000
0000
0000
0000
,  // measure 164
0100
0100
0000
0000
,  // measure 165
0010
0010
0010
0000
;

//---------------dance-single - ----------------
#NOTES:
     dance-single:
     :
     Easy:
     7:
     0.296,0.472,0.245,0.000,0.008: // measure 1
0000
0000
0000
0000
,  // measure 2
0000
0000
0000
0000
,  // measure 3
0000
0000
0000
0000
,  // measure 4
0000
0000
0000
0000
,  // measure 5
0000
0000
0000
0000
,  // measure 6
0000
0000
0000
0100
,  // measure 7
0000
0000
0000
0100
,  // measure 8
0000
0000
0000
0100
,  // measure 9
0000
0000
0000
0100
,  // measure 10
0000
0001
0000
1000
,  // measure 11
0000
0001
0000
1000
,  // measure 12
0000
0001
0000
1000
,  // measure 13
0000
0001
0000
1000
,  // measure 14
0000
0001
0000
1000
,  // measure 15
0100
0001
0100
0001
,  // measure 16
1000
0000
0000
0000
,  // measure 17
0100
0000
0000
0000
,  // measure 18
1000
0000
0001
0000
,  // measure 19
1000
0000
0001
0000
,  // measure 20
0010
0000
0000
0000
,  // measure 21
0100
0000
0000
0000
,  // measure 22
1000
0000
0001
0000
,  // measure 23
0010
0000
0010
0000
,  // measure 24
0001
0000
1000
0000
,  // measure 25
1000
0000
0001
0000
,  // measure 26
1000
1000
0001
0001
,  // measure 27
1000
0001
1000
0001
,  // measure 28
0010
0000
0000
0000
,  // measure 29
0100
0000
0000
0000
,  // measure 30
0010
0000
0000
0000
,  // measure 31
1000
0001
1000
0001
,  // measure 32
0100
0001
0100
0001
,  // measure 33
1000
0100
1000
0100
,  // measure 34
0001
1001
0010
1000
,  // measure 35
0100
0001
0010
0100
,  // measure 36
0001
0001
0010
1000
,  // measure 37
1000
0010
0010
0000
,  // measure 38
0100
0100
0000
0001
,  // measure 39
0001
0000
1000
1000
,  // measure 40
0000
1001
0010
0100
,  // measure 41
0010
1000
0001
0110
,  // measure 42
0001
0100
0001
0100
,  // measure 43
1000
0010
0100
0000
,  // measure 44
0100
1000
0000
1000
,  // measure 45
0010
0000
0010
0001
,  // measure 46
0000
0010
1000
0100
,  // measure 47
0001
0010
1001
0010
,  // measure 48
0001
0100
0010
0010
,  // measure 49
1001
0010
1000
0100
,  // measure 50
0001
1000
0110
0001
,  // measure 51
1000
0100
0001
0010
,  // measure 52
1000
1001
0010
0010
,  // measure 53
0010
0000
1000
0001
0000
1000
0010
0000
,  // measure 54
0000
0000
1000
0001
1000
0000
0100
0000
,  // measure 55
0010
0001
1000
0010
,  // measure 56
1000
0100
0001
0000
,  // measure 57
0000
0000
0001
1000
0001
0000
0010
0000
,  // measure 58
0000
0010
0001
0100
,  // measure 59
1000
0010
0001
0100
,  // measure 60
0000
0001
1000
0010
,  // measure 61
0001
0000
1000
0001
1000
0000
0010
0000
,  // measure 62
0000
0000
0000
1000
,  // measure 63
0000
0000
0000
0100
,  // measure 64
0000
0000
0000
0001
,  // measure 65
1000
0001
1000
0010
,  // measure 66
0000
0000
0000
0001
,  // measure 67
0000
0000
0000
0100
,  // measure 68
0000
0000
0000
1000
,  // measure 69
0000
0000
0000
0010
,  // measure 70
0001
0100
1000
0010
,  // measure 71
1000
0100
0001
0010
,  // measure 72
0000
0100
0000
1000
,  // measure 73
0001
0010
0100
1000
,  // measure 74
0000
0001
0000
0010
,  // measure 75
0001
0100
1000
1000
,  // measure 76
0000
0001
0000
0010
,  // measure 77
0100
1000
0001
0000
,  // measure 78
0000
0000
0000
1001
,  // measure 79
0010
0100
0001
0010
,  // measure 80
0010
0100
1000
0010
,  // measure 81
0010
1000
0001
0010
,  // measure 82
0010
0010
1000
1001
,  // measure 83
0100
1000
0100
0010
,  // measure 84
0001
0100
1000
0010
,  // measure 85
0001
1000
0001
0100
,  // measure 86
0100
0100
1001
0000
,  // measure 87
0000
0001
0000
1000
,  // measure 88
0000
1000
0000
1001
,  // measure 89
0010
1000
0100
0010
,  // measure 90
0001
0100
0100
0010
,  // measure 91
1000
0100
0001
0010
,  // measure 92
0010
1000
1000
0010
,  // measure 93
0010
0001
0001
0110
,  // measure 94
0110
1001
1001
0000
,  // measure 95
1000
0000
0100
0000
0001
0000
0100
0000
1000
0000
0100
0000
,  // measure 96
0001
0000
0000
0000
,  // measure 97
0010
0001
1001
1000
,  // measure 98
0100
1000
1001
0001
,  // measure 99
0010
1000
1001
0001
,  // measure 100
0100
0001
1001
1000
,  // measure 101
1100
1000
0100
1100
,  // measure 102
0110
0010
0100
0110
,  // measure 103
0011
0001
0010
0011
,  // measure 104
1001
0001
1000
1001
,  // measure 105
0000
1000
0000
1000
,  // measure 106
0000
0001
0000
1000
,  // measure 107
0000
0010
0000
0010
,  // measure 108
0000
0100
0000
0010
,  // measure 109
0000
0001
0000
0001
,  // measure 110
0000
1000
0000
0001
,  // measure 111
0000
0100
0000
0100
,  // measure 112
0000
0010
0000
0100
,  // measure 113
1001
1000
1001
0001
,  // measure 114
0110
1001
0110
0000
,  // measure 115
1001
1000
1001
0001
,  // measure 116
0110
1001
0110
0000
,  // measure 117
1001
1000
1001
0001
,  // measure 118
0110
1001
0110
0000
,  // measure 119
1001
1000
1001
0001
,  // measure 120
0110
1001
0110
0010
,  // measure 121
1000
0000
1000
0000
,  // measure 122
0001
0000
0001
0000
,  // measure 123
1000
0001
0101
0101
,  // measure 124
0001
1000
1100
1100
,  // measure 125
1000
0000
1000
0000
,  // measure 126
0001
0000
0001
0000
,  // measure 127
1000
0001
0010
0001
,  // measure 128
1000
0010
1000
0001
,  // measure 129
0100
0000
0000
0000
,  // measure 130
0001
0100
0001
1000
,  // measure 131
0100
0000
1000
0000
0000
0010
0000
0010
,  // measure 132
0000
1000
0001
0100
,  // measure 133
0010
0000
0100
0000
0000
0001
0000
0001
,  // measure 134
0000
1000
0001
0100
,  // measure 135
0010
0000
1000
0000
0000
0100
0000
0100
,  // measure 136
0000
0010
0001
0100
,  // measure 137
0010
0000
1000
0000
0000
0100
0000
0100
,  // measure 138
1000
0100
1001
0000
,  // measure 139
0000
0000
0000
0000
,  // measure 140
1000
0001
0100
0001
,  // measure 141
1000
0000
0100
0000
0000
0010
0000
0010
,  // measure 142
0000
0001
1000
0100
,  // measure 143
0010
0000
0100
0000
0000
1000
0000
1000
,  // measure 144
0000
0010
0100
0001
,  // measure 145
1000
0000
0010
0000
0000
0100
0000
0100
,  // measure 146
1001
0000
0100
0000
,  // measure 147
0100
0000
0100
0000
,  // measure 148
1001
0000
0100
0000
,  // measure 149
0100
0000
0100
0000
,  // measure 150
1001
0000
0100
0000
,  // measure 151
0100
0000
1001
0000
,  // measure 152
1001
0000
0000
0000
,  // measure 153
1000
0000
1000
0000
,  // measure 154
1000
0000
1000
0000
,  // measure 155
0000
0000
0000
0000
,  // measure 156
0010
0100
0010
0001
,  // measure 157
0100
0010
0010
0000
1000
0000
0001
0000
,  // measure 158
0100
0010
0010
0010
,  // measure 159
1000
0000
0100
0100
1000
0000
0001
0000
,  // measure 160
1000
0010
0100
0010
,  // measure 161
0100
0000
0001
0000
0010
0010
0100
0000
,  // measure 162
1000
0001
0010
0100
,  // measure 163
0100
0000
0100
0010
0010
0000
0100
0000
,  // measure 164
1001
0110
0110
1001
,  // measure 165
1100
0101
1001
0000
;

//---------------dance-single - ----------------
#NOTES:
     dance-single:
     :
     Medium:
     10:
     0.411,0.504,0.356,0.011,0.027: // measure 1
0000
0000
0000
0000
,  // measure 2
0000
0000
0000
0000
,  // measure 3
0000
0000
0000
0000
,  // measure 4
0000
0000
0000
0000
,  // measure 5
0000
0000
0000
0000
,  // measure 6
0010
1000
0100
0001
,  // measure 7
0100
1000
0010
0001
,  // measure 8
0010
1000
0100
0001
,  // measure 9
0100
1000
0001
0001
,  // measure 10
1000
0000
1000
0000
0001
1000
0100
0000
,  // measure 11
1000
0000
0001
0000
1000
0001
0100
0000
,  // measure 12
0010
0010
1000
0001
,  // measure 13
1000
0000
0100
0100
1000
0000
0001
0000
,  // measure 14
0100
0001
1000
0100
,  // measure 15
1000
0001
0100
0001
,  // measure 16
1000
0000
0000
0000
,  // measure 17
0001
0100
0010
1000
,  // measure 18
0001
1000
0010
0001
0010
1000
0100
0001
,  // measure 19
0100
1000
0010
0001
0010
1000
0001
0000
,  // measure 20
0110
0110
1001
0000
1000
0000
1000
0000
,  // measure 21
1000
1000
0110
0000
0110
0000
0001
0000
,  // measure 22
0100
0000
0100
0000
0100
0000
0100
1000
,  // measure 23
0001
0000
0001
0000
0001
0000
0001
0100
,  // measure 24
0010
0000
0010
0000
0010
0000
0010
1000
,  // measure 25
0001
1000
1000
1000
,  // measure 26
0110
1000
0010
0110
,  // measure 27
1000
0110
0010
0110
,  // measure 28
0110
0110
1001
0000
1000
0000
1000
0000
,  // measure 29
1000
1000
0110
0000
0110
0000
0001
0000
,  // measure 30
0001
0000
1000
0100
0100
0000
1000
0000
,  // measure 31
0010
0000
0010
1000
0001
0000
0100
0000
,  // measure 32
0001
0000
0001
1000
0100
0000
0100
0000
,  // measure 33
0010
0001
1000
0100
,  // measure 34
0100
0000
0100
1000
0010
0000
1000
0000
,  // measure 35
0100
0001
0010
0100
,  // measure 36
0001
1000
0001
0000
0010
0000
1000
0001
,  // measure 37
1000
0100
0100
0000
,  // measure 38
0010
0001
0000
0100
,  // measure 39
1000
0000
0010
0100
,  // measure 40
0000
0000
1001
0000
0010
0001
0100
0000
,  // measure 41
0010
0000
0001
1000
0001
0000
0110
0000
,  // measure 42
0001
0010
0100
0000
0010
0000
1000
0001
,  // measure 43
1000
0011
0010
0000
,  // measure 44
0101
0001
0000
1100
,  // measure 45
0100
0000
1010
1000
,  // measure 46
0000
0010
1000
0100
,  // measure 47
0001
0010
1001
0010
,  // measure 48
0001
0000
0100
0000
0010
0100
0010
0000
,  // measure 49
1001
0010
1000
0100
,  // measure 50
0001
0000
0010
0100
0010
0000
0001
0000
,  // measure 51
1000
0000
0100
0000
0001
0000
0010
1000
,  // measure 52
0001
0000
1001
0000
0000
0010
0000
1001
,  // measure 53
0000
0000
0000
0000
0000
0000
0000
0000
0000
0000
0000
0000
0000
0000
0000
0000
0000
0000
0000
0000
0000
0000
0000
0000
0000
0000
0000
0000
0000
0000
0000
0000
0000
0000
0000
0000
0000
0000
0000
0000
0000
0000
0000
0000
0000
0000
0000
0000
0010
0000
0000
0000
0000
0000
0000
0000
0000
0000
0000
0000
0000
0000
0000
0000
0000
0000
0000
0000
0000
0000
0000
0000
0001
0000
0000
0000
0000
0000
0000
0000
0000
0000
0000
0000
0000
0000
0000
0000
0000
0000
0000
0000
0000
0000
0000
0000
0000
0000
0000
0000
0000
0000
0000
0000
0000
0000
0000
0000
0000
0000
0000
0000
0000
0000
0000
0000
0000
0000
0000
0000
0000
0000
0000
1000
0000
0000
0000
0000
0000
0000
0000
0000
0000
0000
0000
0000
0000
0000
0000
0000
0000
0000
0000
0000
0000
0000
0000
0000
0100
0000
0010
0000
0000
0000
0000
0000
0000
0000
0000
0000
0000
0000
0000
0000
0000
0000
0000
0000
0000
0000
0000
0000
0000
0000
0000
0000
0000
0000
0000
0000
0000
0000
0000
0000
0000
0000
0000
0000
0000
0000
0000
0000
,  // measure 54
0000
0000
1000
0001
1000
0000
0100
0000
,  // measure 55
0010
0000
0001
1000
0001
0000
0010
0000
,  // measure 56
1000
0100
0110
0000
,  // measure 57
0000
0000
0001
1000
0001
0000
0110
0000
,  // measure 58
0000
0010
0001
0100
,  // measure 59
1000
0010
0001
0110
,  // measure 60
0000
0000
1000
0001
1000
0000
0010
0000
,  // measure 61
0001
0000
0001
1000
0001
0000
0010
0000
,  // measure 62
0001
0100
1000
0100
,  // measure 63
0001
0010
1000
0110
,  // measure 64
0000
0100
1000
0001
,  // measure 65
1000
0001
1000
0010
,  // measure 66
1000
0100
0001
0010
,  // measure 67
0001
0100
1000
0110
,  // measure 68
0000
0100
0001
0010
,  // measure 69
0001
0100
1000
0010
,  // measure 70
0001
0100
1000
0010
,  // measure 71
1000
0100
0001
0110
,  // measure 72
0000
1001
0000
0010
,  // measure 73
0001
0100
1000
1000
,  // measure 74
0000
0001
0000
0010
,  // measure 75
0001
0100
1000
0110
,  // measure 76
0000
1001
0000
0010
,  // measure 77
0001
0100
1000
0001
,  // measure 78
0000
0100
0000
0010
,  // measure 79
0010
0100
0001
0010
,  // measure 80
2000
3100
0001
0010
,  // measure 81
0010
1000
0001
0010
,  // measure 82
0010
0000
0010
0000
1001
0000
0010
0100
,  // measure 83
0010
1000
1100
0010
,  // measure 84
1000
0000
0001
0000
0100
1000
0010
0000
,  // measure 85
0001
1000
0101
0010
,  // measure 86
0010
0000
0000
0000
1000
0000
0000
0000
0001
0000
0000
0000
0010
0000
0000
0010
,  // measure 87
0000
0000
1000
0000
0001
0000
0000
0000
0000
0000
0000
0000
0010
0000
0000
0010
,  // measure 88
0000
0001
1000
0000
0000
0000
0001
0100
,  // measure 89
0010
0000
1000
0000
0100
0000
1000
0100
,  // measure 90
1000
0001
0100
0100
,  // measure 91
0001
1000
0100
0011
,  // measure 92
0100
0000
0010
1000
0001
0000
1010
0000
,  // measure 93
0100
0000
0001
1000
0001
0000
0010
1000
,  // measure 94
0100
0001
0010
1000
0100
0001
0000
0000
,  // measure 95
0001
0000
0100
0000
1000
0000
0100
0000
0001
0000
0100
0000
,  // measure 96
1000
0000
0000
0000
,  // measure 97
0010
0010
1100
0101
,  // measure 98
1001
0100
1000
0100
,  // measure 99
0001
0001
1100
0101
,  // measure 100
1001
0010
0010
0100
,  // measure 101
0001
1000
1100
0101
,  // measure 102
1001
0010
0001
0100
,  // measure 103
0010
1000
1100
0101
,  // measure 104
1002
0103
0100
0100
,  // measure 105
1001
0001
0000
0100
,  // measure 106
0000
1000
0000
0100
,  // measure 107
1100
0100
0000
0001
,  // measure 108
0000
0100
0000
1000
,  // measure 109
1001
1000
0000
0100
,  // measure 110
0000
0001
0000
0100
,  // measure 111
0101
0100
0000
1000
,  // measure 112
0000
0100
0000
0001
,  // measure 113
0110
1001
1100
1001
,  // measure 114
0101
1001
0110
0000
,  // measure 115
0110
1001
1100
1001
,  // measure 116
0101
1001
0110
0000
,  // measure 117
0110
1001
1100
1001
,  // measure 118
0101
1001
0110
0000
,  // measure 119
0110
1001
1100
1001
,  // measure 120
0101
1001
0110
0000
,  // measure 121
1000
0000
0100
0000
,  // measure 122
0001
0000
0010
1000
,  // measure 123
0100
0001
0010
1000
,  // measure 124
0100
0001
0100
0000
,  // measure 125
0001
0000
0100
0000
,  // measure 126
1000
0000
0010
0001
,  // measure 127
0100
1000
0010
0001
,  // measure 128
0100
1000
0100
0001
,  // measure 129
1100
0001
0000
0000
,  // measure 130
1000
0100
0010
0000
0010
0001
0100
0000
,  // measure 131
0100
0010
1000
0000
0000
0001
0000
0001
,  // measure 132
0010
0100
1000
0000
1000
0010
0100
0000
,  // measure 133
0100
0001
0010
0000
0000
0010
0000
0010
,  // measure 134
0100
1000
0001
0000
0100
0010
1000
0000
,  // measure 135
0100
0010
0001
0000
0000
0000
1000
0100
,  // measure 136
0010
0100
1000
0000
0000
0000
0001
0010
,  // measure 137
0001
0100
0010
0000
0000
0000
0010
0100
,  // measure 138
1001
0100
0010
0000
,  // measure 139
0001
0010
0001
0000
0000
0100
0000
0100
,  // measure 140
0001
0100
0010
0000
1000
0100
0010
0000
,  // measure 141
0010
0001
0100
0000
0000
0010
0000
0010
,  // measure 142
1000
0100
0010
0000
0010
0001
0200
0300
,  // measure 143
0010
1000
0100
0000
0000
0000
0000
0010
,  // measure 144
0001
1000
0100
0010
0000
0000
0100
1000
,  // measure 145
0000
0000
0100
0000
0000
0000
0100
0010
,  // measure 146
0001
1000
0100
0000
0000
0100
0000
0000
,  // measure 147
0000
0100
0000
0000
0000
0100
0000
0000
,  // measure 148
1000
0010
0100
0000
0000
0100
0000
0000
,  // measure 149
0000
0100
0000
0000
0000
0100
0000
0000
,  // measure 150
0001
0010
0100
0000
0000
0100
0000
0000
,  // measure 151
0000
0100
0000
0000
0000
1001
0000
1001
,  // measure 152
0000
1001
0000
0000
,  // measure 153
1000
0000
0000
1000
0000
0000
1000
0000
1000
0000
0000
1000
0000
0000
1000
0000
,  // measure 154
1000
0000
0000
1000
0000
0000
1000
0000
1000
0000
0000
0000
0000
0000
0000
0000
,  // measure 155
0001
1000
0001
0000
0010
0000
0100
0000
,  // measure 156
1000
0000
0010
0100
0000
0001
0100
0000
,  // measure 157
0010
0100
0001
1000
0000
0100
0100
0000
,  // measure 158
1000
0000
0010
0100
0000
0001
0100
0000
,  // measure 159
0010
0100
0001
1000
0000
0100
0100
0000
,  // measure 160
1000
0000
0010
0100
0000
0001
0100
0000
,  // measure 161
0010
0100
0001
1000
0000
0100
0100
0000
,  // measure 162
1000
0000
0010
0100
0000
0001
0100
0000
,  // measure 163
0010
0100
0001
1000
0000
0100
0100
0000
,  // measure 164
1001
0000
0000
0110
0000
0000
1001
0000
0000
0000
0000
0000
0000
0000
0000
0000
,  // measure 165
1001
0000
0000
0110
0000
0000
1001
0000
0000
0000
0000
0000
0000
0000
0000
0000
;

//---------------dance-single - ----------------
#NOTES:
     dance-single:
     :
     Hard:
     13:
     0.538,0.566,0.375,0.000,0.073: // measure 1
0000
0000
0000
0000
,  // measure 2
0000
0000
0000
0000
,  // measure 3
0000
0000
0000
0000
,  // measure 4
0000
0000
0000
0000
,  // measure 5
0000
0000
0000
0000
,  // measure 6
0001
0000
1000
0100
0100
0000
0001
0000
,  // measure 7
0010
0000
0001
1000
1000
0000
0100
0000
,  // measure 8
1000
0000
0001
0100
0100
0000
1000
0000
,  // measure 9
0010
0000
1000
0000
0001
0001
0100
0000
,  // measure 10
1000
0100
0010
0001
0100
0001
1000
0010
,  // measure 11
1000
0100
0010
0001
0100
0001
1000
0100
,  // measure 12
1000
0100
0010
0001
0100
0001
1000
0010
,  // measure 13
1000
0100
0010
0001
0100
0100
0100
0000
,  // measure 14
0001
0100
0010
1000
0100
1000
0001
0010
,  // measure 15
0001
0100
0010
1000
0100
1000
0001
0100
,  // measure 16
0001
0100
0010
1000
0001
0100
0010
1000
,  // measure 17
0100
0000
0000
0000
1000
0100
0010
0001
,  // measure 18
1000
0100
0010
0001
0100
0000
0001
0000
,  // measure 19
1000
0100
0010
0001
1000
0000
0100
0000
,  // measure 20
0001
0010
0100
1000
0010
0000
1000
0000
,  // measure 21
0001
0010
0100
1000
0001
0000
0100
0000
,  // measure 22
0010
0000
0010
0000
0010
0000
1000
0001
,  // measure 23
0100
0000
0100
0000
0100
0000
0001
1000
,  // measure 24
0001
0000
0001
0000
0001
0000
0010
0100
,  // measure 25
1000
1000
1000
1000
,  // measure 26
0010
1000
0001
0000
0010
0001
1000
0000
,  // measure 27
0010
0001
0010
1000
0100
0100
0100
0000
,  // measure 28
0010
0010
0010
0010
0010
0010
0010
0000
,  // measure 29
1001
0000
1001
0000
1001
0100
0010
0000
,  // measure 30
1000
0100
0001
0100
,  // measure 31
1001
0000
0100
0100
0100
0000
0100
0000
,  // measure 32
1000
0100
0001
0100
,  // measure 33
1001
0000
0100
0100
0100
0000
0010
0000
,  // measure 34
0000
0110
0001
0000
0000
0000
1000
0001
,  // measure 35
0100
0000
0000
1000
0001
0000
0000
0000
0010
0000
1000
0000
0100
0000
0000
0001
,  // measure 36
1000
0000
0000
0000
0001
0000
0100
0000
0010
0000
0000
0001
1000
0000
0000
0000
,  // measure 37
0001
0000
1000
0000
0100
0000
0000
0001
0100
0000
0001
0000
0100
0000
1000
0000
,  // measure 38
0010
0000
0000
1000
0001
0000
0000
0000
0100
0000
0001
0000
0100
0000
0000
0001
,  // measure 39
1000
0000
0001
0000
0100
0000
1000
0000
0010
0000
0000
1000
0100
0000
0001
0000
,  // measure 40
0100
0000
1001
0000
0010
0001
0100
0000
,  // measure 41
1010
0000
0001
1000
0001
0000
0010
0000
,  // measure 42
0001
0010
0100
0000
0011
0000
1000
0001
,  // measure 43
0100
0000
0000
0000
1000
0000
0010
0100
0000
0010
0100
0000
0001
0000
0000
0000
,  // measure 44
0001
0000
0010
0100
0000
0010
0100
0000
1000
0000
0001
0000
1000
0000
0010
0100
,  // measure 45
0000
0010
0100
0000
0001
0000
0000
0000
0001
0000
0010
0100
0000
0010
0100
0000
,  // measure 46
1000
0001
0010
0000
1000
0001
0100
0000
,  // measure 47
0001
0000
0010
0000
1001
0000
0010
0100
,  // measure 48
0001
1000
0010
0100
0001
0100
0010
0000
,  // measure 49
0100
0000
0000
0010
0000
0001
0000
0100
,  // measure 50
0000
1000
0010
0100
0010
0000
1000
0001
,  // measure 51
0100
0001
1000
0001
0010
0000
1000
0100
,  // measure 52
0001
0000
1001
0000
0000
0110
0000
1001
,  // measure 53
0000
0000
0000
0000
0000
0000
0000
0000
0000
0000
0000
0000
0000
0000
0000
0000
0000
0000
0000
0000
0000
0000
0000
0000
0000
0000
0000
0000
0000
0000
0000
0000
0000
0000
0000
0000
0000
0000
0000
0000
0000
0000
0000
0000
0000
0000
0000
0000
0101
0000
0000
0000
0000
0000
0000
0000
0000
0000
0000
0000
0000
0000
0000
0000
0000
0000
0000
0000
0000
0000
0000
0000
1100
0000
0000
0000
0000
0000
0000
0000
0000
0000
0000
0000
0000
0000
0000
0000
0000
0000
0000
0000
0000
0000
0000
0000
0000
0000
0000
0000
0000
0000
0000
0000
0000
0000
0000
0000
0000
0000
0000
0000
0000
0000
0000
0000
0000
0000
0000
0000
0000
0000
0000
0000
0000
0000
0000
0000
1001
0000
0000
0000
0000
0000
0000
0000
0000
0000
0000
0000
0000
0000
0000
0000
0000
0000
0000
0000
0000
0000
0010
0000
0000
0000
0000
0000
0000
0000
0000
0000
0000
0000
0000
0000
0000
0000
0000
0000
0000
0000
0000
1000
0000
0000
0000
0000
0000
0000
0000
0000
0000
0000
0000
0000
0000
0000
0000
0000
0000
0000
0000
0000
,  // measure 54
0000
0010
0000
0000
0000
0000
0000
0000
0000
0000
0000
0000
0000
0000
0000
0000
0100
0000
0000
0000
0000
0000
0000
0000
0010
0000
0000
0000
0000
0000
0000
0000
0100
0000
0000
0000
0000
0000
0000
0000
0000
0000
0000
0000
0000
0000
0000
0000
0100
0000
0000
0000
0000
0000
0000
0000
0001
0000
0000
0000
0000
0000
0000
0000
,  // measure 55
0100
0001
1000
0001
1000
0000
0010
0000
,  // measure 56
1000
0000
0100
0010
0100
0000
0001
0000
,  // measure 57
0000
0000
0001
1000
0001
0000
0110
0000
,  // measure 58
0000
0010
0001
0100
,  // measure 59
1000
0000
0010
0001
0010
0000
0110
0000
,  // measure 60
0000
0000
1000
0001
1000
0000
0010
0000
,  // measure 61
0001
0000
0001
1000
0001
0000
0010
1000
,  // measure 62
0010
0000
0100
0010
0100
0000
0100
0001
,  // measure 63
0100
0001
1000
0001
1000
0000
0010
0000
,  // measure 64
1001
0110
1001
0010
,  // measure 65
1001
0100
1001
0010
,  // measure 66
1000
0100
0001
0010
,  // measure 67
0001
0000
0100
0000
1000
0000
0010
1000
,  // measure 68
0010
1000
0100
0010
0100
0010
0100
0001
,  // measure 69
0100
0001
1000
0001
1000
0000
0010
0000
,  // measure 70
1000
0100
0001
0010
,  // measure 71
0001
0100
1000
0100
,  // measure 72
0001
0010
1000
0100
,  // measure 73
1001
0110
1001
0010
,  // measure 74
1001
0100
1001
0010
,  // measure 75
0001
0100
1000
0110
,  // measure 76
0000
1001
0000
0010
,  // measure 77
1001
0110
1001
0001
,  // measure 78
0000
0100
0000
0010
,  // measure 79
0100
0000
0001
0000
1000
0001
0100
0000
,  // measure 80
0000
0010
0000
0010
0000
1000
0010
0000
,  // measure 81
0100
0001
1000
0010
,  // measure 82
0010
0010
1001
0011
,  // measure 83
0100
0000
0010
0000
1000
0010
0001
0000
,  // measure 84
0000
0010
0000
0010
0000
1000
0001
0100
,  // measure 85
0001
1000
0010
0001
1000
0000
0010
1000
,  // measure 86
0001
0000
0100
0000
0010
0000
1000
0000
0001
0000
0000
0000
0010
0000
0000
0010
,  // measure 87
0000
0000
1000
0000
0001
0000
0000
0000
0000
0000
0000
0000
0010
0000
0000
0010
,  // measure 88
0000
0001
1000
0000
0000
0000
0010
0100
,  // measure 89
0010
0000
0001
1000
0010
1000
0010
0001
,  // measure 90
0010
0000
1000
0001
1000
0001
0100
0010
,  // measure 91
0100
0000
1000
0001
0100
0001
0100
0001
,  // measure 92
1000
0000
0001
1000
0001
0000
1010
0000
,  // measure 93
0100
0000
0000
0000
0000
0000
0001
0000
0000
1000
0000
0000
0001
0000
0000
0000
0000
0000
0010
0000
0001
0000
1000
0000
,  // measure 94
0100
0010
0001
1000
0100
0010
0001
1000
0100
0000
0000
0000
,  // measure 95
1001
0000
0110
0000
1100
0000
0101
0000
0011
0000
1010
0000
,  // measure 96
0110
0000
0000
0000
,  // measure 97
0010
0000
0100
0000
0100
0001
0001
0000
,  // measure 98
0010
0000
0100
0000
0100
1000
1000
0000
,  // measure 99
0100
0000
0010
0000
0001
0010
0001
0000
,  // measure 100
0100
0000
0010
0000
1000
0010
1000
0000
,  // measure 101
0001
0000
1000
0000
0100
0001
1000
0000
,  // measure 102
1000
0000
0001
0000
0100
1000
0001
0000
,  // measure 103
0010
0000
1000
0000
0010
1000
0010
0000
,  // measure 104
0010
0000
0001
0000
0010
0001
0010
0000
,  // measure 105
1000
0100
1000
0100
0001
0100
0001
0100
,  // measure 106
1000
0010
1000
0010
0001
0010
0001
0010
,  // measure 107
1000
0010
0001
1000
0100
0001
1000
0010
,  // measure 108
0001
1000
0100
0001
1000
0010
0001
0000
,  // measure 109
1000
0100
1000
0100
0001
0100
0001
0100
,  // measure 110
1000
0010
1000
0010
0001
0010
0001
0010
,  // measure 111
1000
0010
0001
1000
0100
0001
1000
0010
,  // measure 112
0001
1000
0100
0001
1000
0010
0001
0000
,  // measure 113
0110
1001
0110
1001
,  // measure 114
1100
0101
1001
0000
,  // measure 115
0110
1001
0110
1001
,  // measure 116
1100
0101
1001
0000
,  // measure 117
0110
1001
0110
1001
,  // measure 118
1100
0101
1001
0000
,  // measure 119
0110
1001
0110
1001
,  // measure 120
1100
0101
1001
0000
,  // measure 121
0010
1000
0001
0010
0100
1000
0001
0100
,  // measure 122
0010
1000
0100
0010
0001
0100
0010
0000
,  // measure 123
1001
1100
1001
0101
,  // measure 124
1000
0100
1000
0010
0001
1000
0100
0000
,  // measure 125
0010
0001
1000
0010
0100
0001
1000
0100
,  // measure 126
0010
0001
0100
0010
1000
0100
0010
0000
,  // measure 127
1001
0101
1001
1100
,  // measure 128
0001
0100
0001
0010
1000
0001
0100
0000
,  // measure 129
1001
0000
0000
0000
,  // measure 130
1000
0100
0010
0000
0010
0001
0100
0000
,  // measure 131
0100
0010
1000
0000
1000
0001
0010
0000
,  // measure 132
0010
0100
1000
0000
1000
0010
0100
0000
,  // measure 133
0100
0001
0010
0000
0010
0100
0010
0000
,  // measure 134
0100
1000
0001
0000
0100
0010
1000
0000
,  // measure 135
0100
0010
0001
0000
0100
0010
1000
0000
,  // measure 136
0100
0010
0001
0000
1000
0100
0010
0000
,  // measure 137
0001
0100
0010
0000
1000
0100
0001
0000
,  // measure 138
0100
0000
1000
0100
1000
0000
0000
0000
,  // measure 139
0001
0100
0001
0010
0100
1000
0000
1000
,  // measure 140
0010
0100
0001
0010
0100
0010
0100
1000
,  // measure 141
0010
0100
0001
0010
0100
1000
0000
1000
,  // measure 142
0100
0010
0001
0100
0010
0100
0001
0010
,  // measure 143
0100
1000
0100
0010
0001
0100
0000
0100
,  // measure 144
0010
1000
0100
0010
0001
0100
0010
0100
,  // measure 145
0001
1000
0100
0010
0001
1000
0000
1000
,  // measure 146
0100
0010
0001
0100
,  // measure 147
1001
0000
0100
0010
0000
0010
0001
0000
,  // measure 148
0001
0100
0010
1000
,  // measure 149
0100
0000
0100
1000
0100
1000
0001
0000
,  // measure 150
1000
0010
0100
0001
,  // measure 151
1001
0000
0010
0100
0000
0001
1000
0000
,  // measure 152
0100
0010
0001
1000
,  // measure 153
1000
0000
0000
0100
0000
0000
0001
0000
1000
0000
0000
0100
0000
0000
0010
0000
,  // measure 154
1000
0000
0000
0001
0000
0000
0010
0000
0100
0000
0000
0000
0000
0000
0000
0000
,  // measure 155
1000
0100
0001
0000
1001
0000
1001
0000
,  // measure 156
0010
1000
0010
0100
0000
1001
0000
0000
,  // measure 157
0100
0010
0100
1000
0000
1001
0000
0000
,  // measure 158
1000
0100
0010
0001
0000
1100
0000
0000
,  // measure 159
0001
0100
0001
0010
0000
0110
0000
0000
,  // measure 160
1000
0001
0100
0010
0000
1001
0000
0000
,  // measure 161
0100
0010
0001
0100
0000
0110
0000
0000
,  // measure 162
1000
0100
0010
0001
0000
0101
0000
0000
,  // measure 163
0010
1000
0100
0010
0000
0011
0000
0000
,  // measure 164
1001
0000
0000
0101
0000
0000
0101
0000
0000
0000
0010
0000
1000
0000
0100
0000
,  // measure 165
1001
0000
0000
1001
0000
0000
0110
0000
0000
0000
0000
0000
0000
0000
0000
0000
;
