#TITLE:DDR 1st+2ndMIX;
#SUBTITLE:;
#ARTIST:KONAMI;
#TITLETRANSLIT:;
#SUBTITLETRANSLIT:;
#ARTISTTRANSLIT:;
#GENRE:;
#CREDIT:;
#BANNER:DDR 1st+2ndMIX.png;
#BACKGROUND:;
#LYRICSPATH:;
#CDTITLE:;
#MUSIC:DDR 1st+2ndMIX.ogg;
#OFFSET:-0.000000;
#SAMPLESTART:97.019875;
#SAMPLELENGTH:20.928207;
#SELECTABLE:YES;
#BPMS:0.000000=119.179001
,80.000000=120.000000
,164.000000=130.000000
,180.000000=139.000000
,180.833328=130.000000
,227.333328=150.000000
,334.000000=160.000000
,352.000000=160.179993
,431.500000=180.000000
;
#STOPS:
;
#BGCHANGES:;
#KEYSOUNDS:;
#ATTACKS:;

//---------------dance-single - ----------------
#NOTES:
     dance-single:
     :
     Beginner:
     4:
     0.171457,0.208193,0.075802,0.000000,0.000000,285.000000,267.000000,18.000000,0.000000,0.000000,0.000000,0.171457,0.208193,0.075802,0.000000,0.000000,285.000000,267.000000,18.000000,0.000000,0.000000,0.000000:
// measure 0
0000
0000
0000
0000
,  // measure 1
0000
0000
0000
0000
,  // measure 2
0000
0000
0000
0000
,  // measure 3
0000
0000
0000
0000
,  // measure 4
0000
0000
0000
0000
,  // measure 5
1000
0000
0000
0000
,  // measure 6
0100
0000
0000
0000
,  // measure 7
0001
0001
0000
0000
,  // measure 8
0001
0001
0001
0000
,  // measure 9
0001
0000
0000
0000
,  // measure 10
0100
0000
0000
0000
,  // measure 11
1000
1000
0000
0000
,  // measure 12
1000
1000
1000
0000
,  // measure 13
1001
0000
0000
0000
,  // measure 14
0001
0000
1000
0000
,  // measure 15
1001
0000
0000
0000
,  // measure 16
0001
0001
0001
0000
,  // measure 17
1001
0000
0000
0000
,  // measure 18
0001
0000
1000
0000
,  // measure 19
1001
0000
0000
0000
,  // measure 20
1000
1000
1000
0000
,  // measure 21
1000
0000
0010
0000
,  // measure 22
0100
0100
0100
0000
,  // measure 23
0010
0000
0010
0000
,  // measure 24
0100
0000
0100
0000
,  // measure 25
0001
0000
0010
0000
,  // measure 26
0100
0100
0100
0000
,  // measure 27
0010
0000
0010
0000
,  // measure 28
0100
0000
0100
0000
,  // measure 29
1000
1000
0000
0000
,  // measure 30
1000
1000
0000
0000
,  // measure 31
0100
0100
0000
0000
,  // measure 32
0100
0100
0000
0000
,  // measure 33
1001
0000
0000
0000
,  // measure 34
1001
0000
0000
0000
,  // measure 35
0001
0001
0000
0000
,  // measure 36
0001
0001
0000
0000
,  // measure 37
0010
0000
0000
0000
,  // measure 38
0010
0000
0010
0000
,  // measure 39
0100
0000
0000
0000
,  // measure 40
0100
0000
0100
0000
,  // measure 41
0000
0000
0000
0000
,  // measure 42
0000
0000
0000
0000
,  // measure 43
0010
0000
0010
0000
,  // measure 44
1000
0000
0100
0000
,  // measure 45
0000
0100
0000
1000
,  // measure 46
0000
0010
0000
0100
,  // measure 47
0000
1000
0000
0010
,  // measure 48
0000
0001
0000
1000
,  // measure 49
0000
1000
0000
0110
,  // measure 50
0000
0001
0000
0110
,  // measure 51
0000
0100
0000
0010
,  // measure 52
0010
0000
0100
0000
,  // measure 53
0010
0000
0001
0001
,  // measure 54
0000
0001
0000
0100
,  // measure 55
0000
1001
0000
1000
,  // measure 56
1000
0000
0010
0000
,  // measure 57
0000
0001
0000
0010
,  // measure 58
0000
1000
0000
1001
,  // measure 59
0000
0001
0000
0010
,  // measure 60
0000
1000
0000
1001
,  // measure 61
0000
1000
0000
0100
,  // measure 62
0000
0001
0000
1001
,  // measure 63
0000
1000
0000
0100
,  // measure 64
0000
0001
0001
0001
,  // measure 65
0001
0000
1000
0000
,  // measure 66
0010
0000
1001
0000
,  // measure 67
0010
0000
0010
0000
,  // measure 68
0100
0000
0100
0000
,  // measure 69
0001
0000
1000
0000
,  // measure 70
0010
0000
1001
0000
,  // measure 71
0010
0000
0010
0000
,  // measure 72
0100
0000
0100
0000
,  // measure 73
0010
0000
0010
0000
,  // measure 74
0000
1000
0000
1000
,  // measure 75
1000
0000
0001
0000
,  // measure 76
0000
0010
0010
0010
,  // measure 77
0010
0000
0010
0000
,  // measure 78
0000
1000
0000
1000
,  // measure 79
1000
0000
0001
0000
,  // measure 80
0000
0010
0010
0010
,  // measure 81
0010
0000
0000
0000
,  // measure 82
1000
0000
0001
0001
,  // measure 83
0001
0000
0000
0000
,  // measure 84
0010
0000
0000
0000
,  // measure 85
0000
1000
0000
1000
,  // measure 86
1000
0000
0000
0000
,  // measure 87
0000
0001
0000
0001
,  // measure 88
0001
0000
0000
0000
,  // measure 89
0000
0100
0000
0100
,  // measure 90
0100
0000
0000
0000
,  // measure 91
0000
0010
0000
0010
,  // measure 92
0010
0000
0000
0000
,  // measure 93
1000
0000
0001
0001
,  // measure 94
0001
0000
0000
0000
,  // measure 95
0100
0000
0010
0010
,  // measure 96
0010
0000
0000
0000
,  // measure 97
1000
0000
1000
1000
,  // measure 98
1000
0000
0000
0000
,  // measure 99
0001
0000
0000
0000
,  // measure 100
0001
0000
0000
0100
,  // measure 101
0100
0000
0000
0000
,  // measure 102
1000
0000
0001
0000
,  // measure 103
1000
0000
0001
0000
,  // measure 104
0100
0000
0000
0100
,  // measure 105
0100
0000
0001
0000
,  // measure 106
1000
0000
1000
0000
,  // measure 107
0010
0000
0000
0000
,  // measure 108
0000
0000
0001
0001
,  // measure 109
0000
1000
1000
1000
,  // measure 110
0000
0001
0000
1000
,  // measure 111
0000
0010
0010
0010
,  // measure 112
0000
1000
0000
0010
,  // measure 113
0000
0100
0100
0100
,  // measure 114
0000
0010
0000
0100
,  // measure 115
0000
0001
0001
0001
,  // measure 116
0000
0100
0000
0001
,  // measure 117
0000
1000
1000
1000
,  // measure 118
0000
1001
0000
0010
,  // measure 119
0000
0100
0000
1000
,  // measure 120
0000
1001
0000
0010
,  // measure 121
0000
0100
0000
0001
,  // measure 122
0000
1001
0000
0010
,  // measure 123
0000
0100
0000
1000
,  // measure 124
0000
1001
0000
0010
,  // measure 125
0000
0100
0000
0001
,  // measure 126
0001
0000
0100
0000
,  // measure 127
0100
0000
0100
0000
,  // measure 128
0001
0000
0100
0000
,  // measure 129
0100
0000
0100
0000
,  // measure 130
0001
0000
0100
0000
,  // measure 131
0100
0000
0100
0000
,  // measure 132
0001
0000
0100
0000
,  // measure 133
0100
0000
0100
0000
,  // measure 134
0100
0000
0001
0001
,  // measure 135
0000
1000
1000
1000
,  // measure 136
0000
0001
0001
0001
,  // measure 137
0000
1000
1000
1000
,  // measure 138
0000
0010
0000
0001
,  // measure 139
0000
0010
0000
1000
,  // measure 140
0000
1000
0000
0001
,  // measure 141
0000
1000
0000
0000
;

//---------------dance-single - ----------------
#NOTES:
     dance-single:
     :
     Easy:
     8:
     0.341110,0.417123,0.189506,0.000000,0.000000,567.000000,522.000000,45.000000,0.000000,0.000000,0.000000,0.341110,0.417123,0.189506,0.000000,0.000000,567.000000,522.000000,45.000000,0.000000,0.000000,0.000000:
// measure 0
0000
0000
0000
0000
,  // measure 1
0000
0000
0000
0000
,  // measure 2
0000
0000
0000
0000
,  // measure 3
0000
0000
0000
0000
,  // measure 4
0000
0000
0000
0000
,  // measure 5
0101
0001
0001
0000
0001
0001
0001
0000
,  // measure 6
0001
0001
0010
0100
,  // measure 7
0000
0011
1001
0101
,  // measure 8
0001
0000
0001
0001
0001
0000
0000
0000
,  // measure 9
1100
1000
1000
0000
1000
1000
1000
0000
,  // measure 10
1000
0000
1000
0000
0010
1000
0100
0000
,  // measure 11
0000
1010
1001
1100
,  // measure 12
1000
0000
1000
1000
1000
1000
0100
0000
,  // measure 13
0000
0000
1001
0000
1100
1000
1000
0000
,  // measure 14
0000
1000
0001
1000
,  // measure 15
0010
0000
1001
0000
0101
0001
0001
0000
,  // measure 16
0100
0000
0100
0000
0100
0000
0001
0100
,  // measure 17
0100
1001
0101
1100
,  // measure 18
0000
0001
1000
0001
,  // measure 19
0010
1001
1100
0101
,  // measure 20
0100
0000
0100
0000
0100
0100
0100
0000
,  // measure 21
0010
0100
1000
0001
,  // measure 22
1000
0100
0100
0001
,  // measure 23
0010
0001
0100
0100
,  // measure 24
0010
0001
0100
1000
,  // measure 25
0010
0100
1000
0001
,  // measure 26
1000
0100
0100
0001
,  // measure 27
0010
0001
0100
0100
,  // measure 28
0010
0001
0100
1000
,  // measure 29
1000
0010
0100
0001
,  // measure 30
0001
0010
0100
1000
,  // measure 31
0001
0100
0001
0100
,  // measure 32
1000
0100
0001
0100
,  // measure 33
0010
1000
0100
0000
0000
0000
0100
0000
,  // measure 34
0010
0001
0100
1000
,  // measure 35
0001
1000
0100
0100
,  // measure 36
0001
0010
1000
0100
,  // measure 37
0001
0100
0000
0100
,  // measure 38
0000
0010
0000
0010
,  // measure 39
0000
1000
0000
1000
,  // measure 40
0000
0100
0000
0100
,  // measure 41
0000
0000
0000
0000
,  // measure 42
0000
0000
0000
0000
,  // measure 43
0010
1000
0010
1001
,  // measure 44
1000
0001
0100
1001
,  // measure 45
0001
0100
0010
1000
,  // measure 46
0100
0010
0001
0100
,  // measure 47
0010
1000
0100
0010
,  // measure 48
0001
0001
1000
1000
,  // measure 49
0010
1000
0100
0110
,  // measure 50
0010
0001
0100
0110
,  // measure 51
1000
0100
0001
0010
,  // measure 52
1010
0001
0011
1000
,  // measure 53
0010
0000
1000
0000
0001
0100
0001
0000
,  // measure 54
0010
0000
0001
0000
0100
0100
0100
0000
,  // measure 55
1001
0000
1001
0000
1000
0100
1000
0000
,  // measure 56
1000
0000
0100
0000
0010
0001
0100
0000
,  // measure 57
0010
0000
0010
0000
,  // measure 58
0010
0100
0110
0000
,  // measure 59
0010
0000
0010
0000
,  // measure 60
0001
0100
1000
0000
,  // measure 61
0010
0100
0001
0100
,  // measure 62
1000
0100
1001
0000
,  // measure 63
0010
0100
1000
0010
,  // measure 64
0001
0010
0001
0100
,  // measure 65
0010
0000
0010
0000
,  // measure 66
0010
0000
0100
0000
0001
1000
0100
0000
,  // measure 67
0010
0001
0100
1000
,  // measure 68
0010
0001
0010
1000
,  // measure 69
0010
0000
0100
0000
0001
1000
0100
0000
,  // measure 70
0010
0001
0100
1000
,  // measure 71
0010
0001
0010
1000
,  // measure 72
0010
0000
0100
0000
0010
0001
1000
0000
,  // measure 73
0010
0100
0010
0110
,  // measure 74
0000
0100
0001
0100
,  // measure 75
0010
0100
0010
1001
,  // measure 76
0000
1000
0100
0001
,  // measure 77
0010
0001
0010
0110
,  // measure 78
0000
0001
0100
1000
,  // measure 79
0010
0100
0010
1001
,  // measure 80
0000
1000
1000
1000
,  // measure 81
0100
0100
0000
0000
0000
0000
0000
0001
,  // measure 82
0001
0001
0000
0001
0001
0001
0001
0001
,  // measure 83
0001
0000
0000
0000
,  // measure 84
0000
0010
0000
0010
,  // measure 85
0000
1000
0100
0001
,  // measure 86
0010
1000
0100
0000
0001
0000
1000
0000
,  // measure 87
0001
0100
0001
0101
,  // measure 88
0000
0010
0000
0010
,  // measure 89
0000
0001
0100
1000
,  // measure 90
0010
0001
0100
0000
1000
0000
0001
0000
,  // measure 91
1000
0100
1000
1100
,  // measure 92
1001
0000
0100
0000
0010
0100
0010
0000
,  // measure 93
1000
0000
0001
0000
0010
0100
0010
0000
,  // measure 94
0010
0000
0001
0000
1000
0010
0001
0000
,  // measure 95
0110
1001
0100
1000
,  // measure 96
0001
0000
0100
0000
,  // measure 97
1000
0000
0010
0100
,  // measure 98
0001
1000
0100
0100
,  // measure 99
0001
0001
0001
0001
,  // measure 100
0001
0010
0000
0000
0000
0000
0001
0100
,  // measure 101
0000
0010
0001
0100
0000
0000
0000
0000
,  // measure 102
0000
0000
0100
0000
0000
0100
0000
0000
,  // measure 103
0010
0001
1000
0010
,  // measure 104
0100
0001
1000
0100
,  // measure 105
0000
0100
1000
0010
1000
0100
0000
0000
,  // measure 106
0000
0000
0100
0000
0000
0100
0000
0000
,  // measure 107
1000
0001
0100
0010
,  // measure 108
0010
0000
0001
0001
,  // measure 109
0000
1000
1000
1000
,  // measure 110
0100
0001
1000
1000
,  // measure 111
0100
0010
0010
0010
,  // measure 112
0001
1000
0010
0010
,  // measure 113
1000
0100
0100
0100
,  // measure 114
1000
0010
0100
0100
,  // measure 115
0010
0001
0001
0001
,  // measure 116
0010
0100
0001
0001
,  // measure 117
0100
1000
1000
1000
,  // measure 118
0110
1001
0000
0010
,  // measure 119
0000
0100
0001
1000
,  // measure 120
0110
1001
0000
0010
,  // measure 121
0000
0100
1000
0001
,  // measure 122
0110
1001
0000
0010
,  // measure 123
0000
0100
0001
1000
,  // measure 124
0110
1001
0000
0010
,  // measure 125
0000
0100
1000
0001
,  // measure 126
0001
0100
1000
0000
0100
0000
0001
0000
,  // measure 127
0100
1000
0100
0001
,  // measure 128
0001
0100
1000
0000
0100
0000
0001
0000
,  // measure 129
0100
1000
0100
0001
,  // measure 130
0001
1000
0100
0001
,  // measure 131
0100
1000
0100
0001
,  // measure 132
0001
0100
1000
0000
0100
0000
0001
0000
,  // measure 133
0100
1000
0100
0001
,  // measure 134
0100
0001
0001
0000
0001
0000
0001
0000
,  // measure 135
0100
1000
1000
0000
1000
0000
1000
0000
,  // measure 136
0100
0001
0001
0000
0001
0001
0001
0000
,  // measure 137
0100
1000
1000
0000
1000
1000
1000
0000
,  // measure 138
0001
0010
0100
0001
,  // measure 139
1000
0010
0100
1000
,  // measure 140
0010
1000
0100
0001
,  // measure 141
0010
1000
0100
0000
;

//---------------dance-single - ----------------
#NOTES:
     dance-single:
     :
     Medium:
     9:
     0.410295,0.536301,0.379011,0.000000,0.000000,682.000000,592.000000,90.000000,0.000000,0.000000,0.000000,0.410295,0.536301,0.379011,0.000000,0.000000,682.000000,592.000000,90.000000,0.000000,0.000000,0.000000:
// measure 0
0000
0000
0000
0000
,  // measure 1
0000
0000
0000
0000
,  // measure 2
0000
0000
0000
0000
,  // measure 3
0000
0000
0000
0000
,  // measure 4
0000
0000
0000
0000
,  // measure 5
0100
0001
0001
0000
0001
0001
0001
0000
,  // measure 6
0001
0001
0001
0000
0010
0000
0100
0000
,  // measure 7
0000
0011
1001
0101
,  // measure 8
0001
0001
0001
0001
0001
0000
0000
0000
,  // measure 9
0100
1000
1000
0000
1000
1000
1000
0000
,  // measure 10
1000
1000
1000
0000
0010
1000
0100
0000
,  // measure 11
0000
1010
1001
1100
,  // measure 12
0100
0000
1000
1000
1000
0100
1000
0100
,  // measure 13
0000
0000
1001
0000
0100
1000
1000
0100
,  // measure 14
0000
0000
1000
0000
0001
1000
0001
0000
,  // measure 15
0100
0000
1001
0000
0010
0001
0001
0010
,  // measure 16
0001
0100
1000
0100
0001
0100
1000
0001
,  // measure 17
0100
0100
1001
0000
0010
0001
1000
0100
,  // measure 18
0000
0000
0001
0000
1000
0001
1000
0000
,  // measure 19
0100
0000
1001
0000
0100
1000
0001
0010
,  // measure 20
1000
0100
1000
0010
0001
0000
0101
0000
,  // measure 21
0010
1000
0100
0000
0001
0000
0100
0000
,  // measure 22
1000
0010
0001
0100
,  // measure 23
1000
0100
0001
0100
,  // measure 24
0010
0001
1100
0101
,  // measure 25
0010
1000
0100
0000
0001
0000
0100
0000
,  // measure 26
1000
0010
0001
0100
,  // measure 27
1000
0100
0001
0100
,  // measure 28
0010
0001
1100
0101
,  // measure 29
0010
1000
0100
0000
0001
0000
0100
0000
,  // measure 30
0010
0001
0100
0000
1000
0000
0100
0000
,  // measure 31
0001
0100
0001
0100
,  // measure 32
1000
0100
0001
0100
,  // measure 33
0010
1000
0001
0000
0100
0000
0100
0000
,  // measure 34
0010
0001
0100
1000
,  // measure 35
0001
1100
0100
0100
,  // measure 36
0001
0010
1000
0100
,  // measure 37
0001
0010
0100
0010
,  // measure 38
0001
0001
1000
1000
,  // measure 39
1000
0010
0100
0010
,  // measure 40
1000
1000
0001
0001
,  // measure 41
0000
0000
0000
0000
,  // measure 42
0000
0000
0000
0000
,  // measure 43
1000
0100
1000
0000
0010
1000
0001
0000
,  // measure 44
0001
0100
0001
0000
0100
0000
1001
0000
,  // measure 45
0100
0000
0010
0000
1000
0100
0010
0000
,  // measure 46
0001
0000
0100
0000
0010
1000
0100
0000
,  // measure 47
0010
0000
0001
0000
0100
0010
1000
0000
,  // measure 48
1001
0000
1001
0000
0100
0001
1000
0000
,  // measure 49
0010
1000
0100
0110
,  // measure 50
0010
0001
0100
0110
,  // measure 51
1000
0100
1000
0000
0001
0100
0001
0000
,  // measure 52
1000
0100
1000
0000
0001
0100
0001
0000
,  // measure 53
1000
0000
0001
0000
1000
1000
0100
0000
,  // measure 54
0001
0000
1000
0000
0001
0001
0100
0000
,  // measure 55
0011
0000
1001
0000
0001
1000
0100
0000
,  // measure 56
0010
0000
1001
0000
0010
0100
0010
0000
,  // measure 57
0010
0100
1010
1100
,  // measure 58
0010
0100
1001
0000
,  // measure 59
0001
1000
0011
1010
,  // measure 60
0001
1000
0110
0000
,  // measure 61
0100
0010
0101
0011
,  // measure 62
0100
0010
1001
0000
,  // measure 63
1000
0001
1100
0101
,  // measure 64
1000
0001
1100
0101
,  // measure 65
0010
0000
0010
0000
,  // measure 66
0011
0000
1100
0000
0001
1000
0100
0000
,  // measure 67
0010
0001
0011
0100
,  // measure 68
0010
1001
0010
1010
,  // measure 69
1010
0000
0101
0000
1000
0100
0001
0000
,  // measure 70
0010
1000
1010
0100
,  // measure 71
0010
1001
0010
0011
,  // measure 72
0010
0000
0100
0000
0010
0001
1000
0000
,  // measure 73
0001
0100
1000
0100
,  // measure 74
0001
1100
1000
0101
,  // measure 75
1000
0100
0001
0100
,  // measure 76
1000
0101
0001
1100
,  // measure 77
0010
0100
0010
0110
,  // measure 78
0010
0001
0100
1000
,  // measure 79
0010
0001
0100
1001
,  // measure 80
0000
1000
1000
1000
,  // measure 81
0100
1000
0000
0000
0000
0000
0000
0100
,  // measure 82
1000
0010
0000
1000
0100
1000
0010
1000
,  // measure 83
0001
0000
0000
0000
,  // measure 84
0010
0000
0010
0000
0000
1000
0100
0001
,  // measure 85
0000
1000
0010
0001
,  // measure 86
1000
0010
0001
0000
1000
0000
0100
0000
,  // measure 87
1001
0100
0010
1001
,  // measure 88
0010
0000
0010
0000
0000
0001
0100
1000
,  // measure 89
0000
0001
0010
1000
,  // measure 90
0001
0010
1000
0000
0001
0000
0100
0000
,  // measure 91
1001
0100
0010
1001
,  // measure 92
0001
0000
0010
0000
0100
0010
0001
0000
,  // measure 93
1000
0000
0010
0000
0100
0010
1000
0000
,  // measure 94
0010
0010
0100
0010
0000
0100
0010
0000
,  // measure 95
0011
1100
0101
0110
,  // measure 96
1001
0010
0001
1000
,  // measure 97
1001
1000
0001
0100
,  // measure 98
0001
1000
0100
0100
,  // measure 99
0010
0001
0100
1000
0100
0001
0010
0000
,  // measure 100
0001
0010
1000
0000
0000
0000
0001
0100
,  // measure 101
0000
1000
0001
0100
0000
0000
0000
0000
,  // measure 102
0010
0000
0100
0000
0000
0100
0000
0000
,  // measure 103
1000
0100
0010
1000
,  // measure 104
0001
0100
0010
0001
,  // measure 105
0000
0001
0100
0010
1000
0100
0000
0000
,  // measure 106
0000
0000
0100
0000
0000
0100
0000
0000
,  // measure 107
1000
0100
0010
0001
,  // measure 108
0010
0000
0001
0001
,  // measure 109
0000
1000
1000
1000
,  // measure 110
0100
0011
1000
1000
,  // measure 111
0101
0010
0010
0010
,  // measure 112
0001
1100
0010
0010
,  // measure 113
1001
0100
0100
0100
,  // measure 114
1000
0011
0100
0100
,  // measure 115
1010
0001
0001
0001
,  // measure 116
0010
1100
0001
0001
,  // measure 117
0110
1000
1000
1000
,  // measure 118
1000
0001
0000
0010
,  // measure 119
0000
0100
0101
1100
,  // measure 120
0001
1000
0000
0010
,  // measure 121
0000
0100
1100
0101
,  // measure 122
1000
0001
0000
0010
,  // measure 123
0000
0100
0101
1100
,  // measure 124
0001
1000
0000
0010
,  // measure 125
0000
0100
1100
0101
,  // measure 126
0001
0100
1000
0000
0100
0000
0001
0000
,  // measure 127
0100
0000
0110
0000
1000
0100
0001
0000
,  // measure 128
0001
0100
1000
0000
0100
0000
0001
0000
,  // measure 129
0100
0000
0110
0000
1000
0100
0001
0000
,  // measure 130
0001
1000
0100
0001
,  // measure 131
0100
0000
0110
0000
1000
0100
0001
0000
,  // measure 132
0001
0100
1000
0000
0100
0000
0001
0000
,  // measure 133
0100
0000
0110
0000
1000
0100
0001
0000
,  // measure 134
0100
0001
0001
0000
0001
0001
0001
0000
,  // measure 135
0100
1000
1000
0000
1000
1000
1000
0000
,  // measure 136
0100
0001
0001
0001
0001
0001
0001
0000
,  // measure 137
0100
1000
1000
1000
1000
1000
1000
0000
,  // measure 138
0011
0100
1000
0010
,  // measure 139
1010
0100
0001
0010
,  // measure 140
1100
0001
0110
1001
,  // measure 141
0101
1000
0110
0000
;

//---------------dance-single - ----------------
#NOTES:
     dance-single:
     :
     Hard:
     11:
     0.496926,0.715068,0.362166,0.000000,0.014739,826.000000,740.000000,86.000000,0.000000,0.000000,0.000000,0.496926,0.715068,0.362166,0.000000,0.014739,826.000000,740.000000,86.000000,0.000000,0.000000,0.000000:
// measure 0
0000
0000
0000
0000
,  // measure 1
0000
0000
0000
0000
,  // measure 2
0000
0000
0000
0000
,  // measure 3
0000
0000
0000
0000
,  // measure 4
0000
0000
0000
0000
,  // measure 5
0100
0001
0001
0000
0001
0001
0101
0000
,  // measure 6
0001
0001
0001
0000
0010
0000
0100
0000
,  // measure 7
0000
0011
1001
0101
,  // measure 8
0001
0100
0001
1000
0101
0000
0000
0000
,  // measure 9
0100
1000
1000
0000
1000
1000
1100
0000
,  // measure 10
1000
1000
1100
0000
0010
1000
0100
0000
,  // measure 11
0000
1010
1001
1100
,  // measure 12
0100
0100
0100
1000
1000
0001
0001
0101
,  // measure 13
0000
0100
1001
0000
1000
0100
0001
0100
,  // measure 14
0000
0000
1000
1000
0001
0001
1000
0000
,  // measure 15
0100
0000
1001
0000
0010
1000
0010
0001
,  // measure 16
1000
1100
0100
0101
0001
0011
1010
1100
,  // measure 17
0100
0100
1001
0000
0010
1100
0001
1010
,  // measure 18
0000
0000
0001
0001
1000
1000
0001
0000
,  // measure 19
0100
0000
1001
0000
1010
0011
0101
1100
,  // measure 20
1010
1000
1000
1001
1100
1000
1001
0000
,  // measure 21
0010
0100
0001
0100
1000
0100
0100
0000
,  // measure 22
0100
1000
1000
0000
0010
0010
0001
0000
,  // measure 23
0100
0010
0001
0010
0100
0010
1000
0000
,  // measure 24
0100
0000
0001
0100
1000
0001
0100
0000
,  // measure 25
0010
0100
1000
0100
0001
0100
0100
0000
,  // measure 26
0100
0001
0001
0000
0010
0010
1000
0000
,  // measure 27
0100
0010
1000
0010
0100
0010
0001
0000
,  // measure 28
0100
0000
1000
0100
0001
1000
0100
0000
,  // measure 29
0010
1000
0100
0010
0001
0100
0100
0000
,  // measure 30
0010
0001
0100
0010
1000
0100
0100
0000
,  // measure 31
0001
0010
1000
0000
0001
0010
1000
0000
,  // measure 32
0001
0100
1000
0000
0001
0010
1000
0000
,  // measure 33
0010
1000
0001
0000
0100
0010
0100
0000
,  // measure 34
0010
0001
0001
0000
0100
0100
1000
0000
,  // measure 35
0001
1000
0100
0000
0100
0010
0100
0000
,  // measure 36
0001
0010
0010
0000
1000
1000
0100
0000
,  // measure 37
0001
0010
0100
0010
0001
0010
0100
0000
,  // measure 38
0001
0000
0001
0010
1000
0000
1000
0000
,  // measure 39
1000
0010
0100
0010
1000
0010
0100
0000
,  // measure 40
1000
0000
1000
0010
0001
0000
0001
0000
,  // measure 41
0000
0000
0000
0000
,  // measure 42
0000
0000
0000
0000
,  // measure 43
0100
0001
0100
0001
0100
1000
0100
1000
,  // measure 44
0100
0001
0100
0001
0100
1000
0100
1000
,  // measure 45
0000
1000
0000
1000
0000
0001
0000
0001
,  // measure 46
0000
0010
0000
1100
0000
0010
0000
0101
,  // measure 47
0000
0100
0000
1001
0000
0100
0000
1001
,  // measure 48
0000
0100
0000
0100
0000
0010
1001
0000
,  // measure 49
0100
1000
0100
1000
0001
0010
0001
0010
,  // measure 50
0001
0100
0001
0100
0010
1000
1010
0000
,  // measure 51
0100
1000
0010
1000
0001
0100
0010
1000
,  // measure 52
0100
0010
0001
0100
0010
0100
1001
0000
,  // measure 53
0010
0000
1000
0000
0001
1001
1001
0000
,  // measure 54
1001
0000
0100
0000
1001
1000
0100
0000
,  // measure 55
0010
1000
0100
0010
0001
0100
0100
0000
,  // measure 56
1100
0000
1010
0000
0010
0001
0101
0000
,  // measure 57
0010
0000
0100
0000
0010
1000
0001
0000
0100
0000
0000
0000
0001
0000
0000
0000
,  // measure 58
0010
0000
0100
0000
0010
1000
0001
0000
0100
0000
0000
0000
0010
0000
0000
0000
,  // measure 59
0001
0000
1000
0000
0001
1000
0100
0000
0001
0000
0000
0000
0100
0000
0000
0000
,  // measure 60
1000
0000
0001
0000
1000
0000
0100
0001
1000
0000
0000
0000
0100
0000
0000
0000
,  // measure 61
0010
0000
0100
0000
0010
1000
0001
0000
0100
0000
0000
0000
0001
0000
0000
0000
,  // measure 62
0010
0000
0100
0000
0010
1000
0001
0000
0100
0000
0000
0000
0010
0000
0000
0000
,  // measure 63
0001
0000
1000
0000
0001
1000
0100
0000
0001
0000
0000
0000
0000
0000
0000
0000
,  // measure 64
0010
0001
0100
1000
0010
0001
0100
1000
,  // measure 65
0010
0000
0100
0000
0010
0010
0010
0000
,  // measure 66
0011
0000
1100
0000
0001
1000
0100
0000
,  // measure 67
0010
0000
0010
0000
0010
1000
0100
0000
,  // measure 68
0010
0000
1000
0000
0001
0001
1000
0000
,  // measure 69
1010
0000
0101
0000
1100
0101
1100
0000
,  // measure 70
0010
0010
1000
0000
1001
0000
1100
0000
,  // measure 71
0110
0000
1001
0000
0110
0000
0010
0100
,  // measure 72
0010
0100
0010
1000
,  // measure 73
0001
0100
1000
0100
,  // measure 74
0001
0000
1100
0000
0101
0000
1000
0100
,  // measure 75
0001
0101
1100
0101
,  // measure 76
1000
0000
0011
0000
1010
0000
0001
0010
,  // measure 77
1000
0100
0010
0110
,  // measure 78
0010
0010
0100
1000
,  // measure 79
0010
0001
0100
1000
,  // measure 80
0010
0001
0100
1000
,  // measure 81
0100
1000
0100
0000
1000
0000
0100
0000
,  // measure 82
1000
0010
0100
0000
0100
1000
0010
1000
,  // measure 83
0001
0000
0000
0000
,  // measure 84
0010
0100
0010
0000
0000
0001
0100
1000
,  // measure 85
0000
0000
0001
1000
0001
1000
0100
0000
,  // measure 86
0001
0010
1000
0000
0001
0000
0100
0000
,  // measure 87
0001
1000
0100
0010
0100
1000
0001
0000
,  // measure 88
0010
0100
0010
0000
0000
1000
0100
0001
,  // measure 89
0000
0000
1000
0001
1000
0001
0100
0000
,  // measure 90
1000
0010
0001
0000
1000
0000
0100
0000
,  // measure 91
1000
0001
0100
0010
0100
0001
1000
0000
,  // measure 92
0001
0010
0100
0100
0100
0010
0001
0000
,  // measure 93
1000
0010
0100
0100
0100
0010
1000
0000
,  // measure 94
0010
0001
1000
0100
0000
0001
1000
0000
,  // measure 95
0101
1100
0011
1010
,  // measure 96
1001
0000
0010
0000
0001
0001
1000
1000
,  // measure 97
1001
0000
1000
1000
0001
0001
0100
0000
,  // measure 98
0001
0000
1000
0000
0100
0100
0100
0000
,  // measure 99
0010
0001
0010
0100
0010
1000
0010
0100
,  // measure 100
0001
0100
1000
0000
0000
0000
0001
1000
,  // measure 101
0000
0001
1000
0100
0000
0000
0000
0000
,  // measure 102
0010
0001
0001
0000
0000
0100
0000
0000
,  // measure 103
1000
0100
0010
1000
,  // measure 104
0001
0100
0010
0001
,  // measure 105
0000
0001
0100
0010
1000
0100
0000
0000
,  // measure 106
0000
0000
0100
0000
0000
0100
0000
0000
,  // measure 107
0001
0010
0100
1000
,  // measure 108
0010
0000
0000
0000
0001
0010
1000
0000
,  // measure 109
0000
0000
0001
0100
1000
0100
0001
0000
,  // measure 110
0001
0000
1010
0000
0100
0001
0010
0000
,  // measure 111
1001
0000
0100
1000
0010
1000
0100
0000
,  // measure 112
0100
0000
0011
0000
1000
0100
0001
0000
,  // measure 113
0110
0000
1000
0010
0001
0010
1000
0000
,  // measure 114
1000
0000
0101
0000
0010
1000
0100
0000
,  // measure 115
1001
0000
0010
0001
0100
0001
0010
0000
,  // measure 116
0010
0000
1100
0000
0001
0010
1000
0000
,  // measure 117
0110
0000
0001
0100
1000
0100
0001
0000
,  // measure 118
1000
0100
0001
0000
0000
0000
0010
0000
,  // measure 119
0000
0101
0100
1100
,  // measure 120
0001
0100
1000
0000
0000
0000
0010
0000
,  // measure 121
0000
1100
0100
0101
,  // measure 122
1000
0100
0001
0000
0000
0000
0010
0000
,  // measure 123
0000
0101
0100
1100
,  // measure 124
0001
0100
1000
0000
0000
0000
0010
0000
,  // measure 125
0000
1100
0100
0101
,  // measure 126
0001
0010
1000
0000
0100
0000
0001
0000
,  // measure 127
1000
0100
0001
0000
0100
1000
0010
0000
,  // measure 128
0001
0010
1000
0000
0100
0000
0001
0000
,  // measure 129
1000
0100
0001
0000
0100
1000
0010
0000
,  // measure 130
0001
1000
0100
0001
,  // measure 131
1000
0100
0001
0000
0100
1000
0010
0000
,  // measure 132
0001
0010
1000
0000
0100
0000
0001
0000
,  // measure 133
1000
0100
0001
0000
0100
1000
0010
0000
,  // measure 134
0010
0001
0001
0001
0010
0001
0001
0000
,  // measure 135
0010
1000
1000
1000
0010
1000
1000
0000
,  // measure 136
0100
1000
0100
1000
1000
1000
1000
0000
,  // measure 137
0100
0001
0100
0001
0001
0001
0001
0000
,  // measure 138
0010
0000
1000
0000
0100
0000
0001
0010
,  // measure 139
1000
0000
0100
0000
0001
0000
0010
1000
,  // measure 140
0100
0000
0001
0000
0010
0000
1000
0100
,  // measure 141
0001
0010
1000
0000
;
