#TITLE:Caterpillar;
#SUBTITLE:;
#ARTIST:Eagle;
#TITLETRANSLIT:;
#SUBTITLETRANSLIT:;
#ARTISTTRANSLIT:;
#GENRE:;
#CREDIT:;
#BANNER:Caterpillar.png;
#BACKGROUND:Caterpillar-jacket.png;
#LYRICSPATH:;
#CDTITLE:;
#MUSIC:Caterpillar.ogg;
#OFFSET:-0.080000;
#SAMPLESTART:18.488234;
#SAMPLELENGTH:14.057646;
#SELECTABLE:YES;
#DISPLAYBPM:85.000000:170.000000;
#BPMS:0.000000=170.000000
,68.000000=85.000000
,100.000000=170.000000
,132.000000=85.000000
,156.000000=170.000000
,220.000000=85.000000
,236.000000=170.000000
;
#STOPS:
;
#BGCHANGES:;
#KEYSOUNDS:;
#ATTACKS:;

//---------------dance-single - ----------------
#NOTES:
     dance-single:
     :
     Hard:
     15:
     0.855655,1.291504,0.390625,0.358073,1.143392,736.000000,688.000000,48.000000,44.000000,0.000000,0.000000,0.855655,1.291504,0.390625,0.358073,1.143392,736.000000,688.000000,48.000000,44.000000,0.000000,0.000000:
0000
0000
0000
0000
,
0000
0000
0000
0000
,
0000
0000
0000
0000
,
0000
0000
0000
0000
,
0000
0000
0000
0000
,
0000
0000
0000
0000
,
0000
0000
0000
0000
,
0000
0000
0000
0000
,
0000
0000
0000
0000
,
1001
0000
0000
0001
1000
0000
0001
0000
0001
0000
0001
1000
0001
0000
1000
0000
,
0010
0000
0000
0010
0100
0000
0010
0000
0010
0000
0010
0100
0010
0000
0100
0000
,
0001
0000
0000
0001
1000
0000
0001
0000
0001
0000
0001
1000
0001
0000
1000
0000
,
0100
0000
0000
0100
1000
0000
0100
0000
0100
0000
0100
1000
0100
1000
0100
0000
,
1000
0000
0010
0100
0010
0100
0010
0000
0001
0000
0100
0010
0100
0010
0100
0000
,
1000
0000
0010
0100
0010
0100
0010
0000
0001
0000
0100
0010
0100
0010
0100
0000
,
0001
1000
0001
1000
0010
0100
0010
0000
1000
0100
1000
0100
0010
0001
0010
0001
,
0100
0100
0100
0100
0100
0100
0200
0000
,
0301
0000
0000
0001
0000
0000
0001
0000
1000
0000
0001
1000
0001
1000
0001
0000
1000
0000
0010
1000
0010
1000
0010
0000
0100
0000
0001
0100
0001
0100
0001
0000
,
2000
0000
0000
0000
3001
0000
0100
0010
0100
0010
0100
0000
0001
1000
0001
1000
0001
0000
1000
0000
0100
1000
0100
1000
0100
0000
0010
0000
1001
0000
0010
0000
,
0100
0000
0000
0000
2002
0000
3003
0000
0100
0000
0010
1000
0010
1000
0010
0000
0100
0000
0001
0010
0001
0010
0001
0000
1000
0100
1000
0100
1000
0000
0010
0000
,
0200
0000
0000
0000
0301
1000
0001
1000
0001
0100
0001
0100
0001
0000
0010
0000
1000
0100
1000
0100
1000
0010
1000
0010
1000
0000
0100
0000
0010
0000
0001
0000
,
2000
0000
0000
0000
3002
0000
0000
0000
0103
0000
0010
0100
0010
0000
1000
0100
1000
0000
0001
0000
0010
0000
1000
0100
1000
0000
0010
0100
0010
0000
1000
0000
,
0200
0000
0000
0000
0000
0000
0000
0000
0301
0000
1000
0001
1000
0000
0010
0000
0100
0001
0100
0001
0100
0000
0010
0000
1000
0100
1000
0000
0010
0000
0100
0000
,
2002
0000
0000
0000
0000
0000
0000
0000
0000
0000
0000
0000
0000
0000
0000
0000
0003
0000
0000
0000
0000
0000
0000
0000
3200
0000
0000
0000
0000
0000
0000
0000
0000
0000
0000
0000
0000
0000
0000
0000
0300
0000
0000
0000
0000
0000
0000
0000
0010
0000
0000
0000
0000
0000
1000
0000
0000
0000
0000
0000
0010
0000
0000
0000
0000
0000
1000
0000
0000
0000
0000
0000
0010
0000
0000
0000
0000
0000
1000
0000
0000
0000
0000
0000
0001
0000
0000
0000
0000
0000
0000
0000
0000
0000
0000
0000
0100
0000
0000
0000
0000
0000
0010
0000
0000
0000
0000
0000
0100
0000
0000
0000
0000
0000
0010
0000
0000
0000
0000
0000
0100
0000
0000
0000
0000
0000
0010
0000
0000
0000
0000
0000
1000
0000
0000
0000
0000
0000
0000
0000
0000
0000
0000
0000
0002
0000
0000
0000
0000
0000
0000
0000
0000
0000
0000
0000
0003
0000
0000
0000
0000
0000
0000
0000
0000
0000
0000
0000
0100
0000
0000
0000
0000
0000
0000
0000
0000
0000
0000
0000
0100
0000
0000
0000
0000
0000
0000
0000
0000
0000
0000
0000
,
1001
0000
1100
0001
0010
0100
1001
0000
0110
0001
1000
0010
0100
0001
1100
0000
,
0101
0000
0000
0001
1000
0000
0001
1000
0001
1000
0000
0010
1000
0010
1000
0000
,
0001
0100
0000
0001
1000
0010
1000
0000
0001
1000
0000
0010
0100
0000
0010
0000
,
1001
0000
0000
0010
0100
0000
0010
0000
1000
0010
0000
0001
0100
0001
0100
0000
,
0010
1000
0000
0010
0100
0010
0100
0000
1000
0100
0000
0010
0001
0100
0001
0010
,
0001
0000
1000
0100
1000
0000
0010
0100
0010
0100
0000
0001
0100
0001
0100
0001
,
0100
0001
0000
0100
1000
0100
1000
0100
0010
0000
0100
0001
0100
0000
0010
1000
,
0010
0100
0010
1000
0010
0100
0010
1000
0001
0100
0001
0010
0001
0100
0001
1000
,
0010
0100
0010
0100
0001
0100
0001
1000
0010
1000
0010
1000
0100
0000
0000
0000
,
2001
0000
0000
0000
0000
0000
0000
0000
3002
0003
0020
0030
0200
0300
0010
0001
,
0200
0000
0300
0000
0002
0003
2000
0000
3000
0010
0000
0100
0002
0000
1003
0000
,
0010
0000
1000
0100
0001
0100
1000
0000
0020
0030
0200
0300
0001
0000
1000
0010
,
0100
0000
0000
0000
0002
0003
2000
3000
0010
0100
0000
0001
2000
0000
3010
0000
,
1002
0000
0000
0000
0003
0000
1001
0000
0100
0000
0000
0100
0000
0000
0100
0000
0010
0000
1000
0000
0010
0000
0001
0000
0010
0000
0000
1000
0100
0000
0010
0000
,
0001
0000
1000
0000
0000
0000
1000
0000
0100
0000
0000
0100
0000
0000
0100
0000
0010
0000
1000
0000
0000
0000
0001
0000
0100
0000
0000
0000
0000
0000
0000
0000
,
1002
0000
0103
0010
1000
0001
0100
0010
,
1000
0000
0001
0100
0001
0000
1000
0000
0010
0000
0100
0010
0100
0000
1000
0000
,
0100
0000
0010
0100
0010
0000
0001
0000
1000
0000
0100
0001
0100
0000
0001
0000
,
0010
0000
1000
0100
1000
0000
0001
0100
0001
0000
0100
0010
0100
0000
0001
0000
,
1001
1000
1000
0001
0010
0100
1000
1000
,
1001
0001
0001
1000
0100
0010
0001
0001
,
1000
0100
1000
0100
0010
0001
0010
0001
0100
0010
0100
0010
1000
0100
0010
0001
,
0100
0100
0100
0100
0100
0100
0200
0000
,
0320
0000
0000
0000
0230
0000
0302
0000
1003
0100
0000
0010
1000
0010
1000
0000
,
0100
0001
0000
0100
0001
0100
0001
0000
0100
1000
0000
0010
0100
0000
0000
0000
,
0001
1000
0000
0001
0100
0001
0100
0000
0010
1000
0000
0100
0001
0100
0001
0000
,
1000
0010
0000
0001
0100
0001
0100
0000
1010
0000
0000
0101
0000
0000
1010
0000
,
0101
0000
0000
0000
0200
0000
0320
0000
1030
0002
0000
0103
0010
0100
0020
0000
,
1030
0200
0000
1300
0100
1000
0200
0000
0310
0002
0000
0103
0001
0100
0002
0000
,
1003
0002
0000
0100
0013
1000
0020
0000
0130
0002
0000
1003
0010
1000
0200
0000
,
1300
0010
0000
0001
0000
0001
0001
0000
1001
0000
0000
0000
0110
0000
0000
0000
,
1000
0000
0101
0010
1000
0000
0101
0010
1000
0000
0110
0001
1000
0000
0110
1000
,
0001
0000
1010
0100
0001
0000
1010
0100
0001
0000
1100
0010
0001
0000
1001
0000
,
0101
0000
0011
1000
0100
0000
0011
0100
1000
0000
1010
0100
0001
0000
1010
0001
,
0100
0000
1100
0010
0001
0000
1100
0001
0010
0000
0101
0010
1000
0000
1001
0000
,
1001
0000
0000
0010
0100
0000
1001
0000
0100
0000
1010
0000
0100
0001
0010
0001
,
0100
0000
0000
0001
1000
0000
0101
0000
1000
0000
0110
0000
1000
0100
0010
0100
,
1000
0000
0000
0001
0100
0000
0011
0000
0100
0000
1010
0000
0100
0001
0100
0010
,
0100
0000
0000
0001
1000
0000
0110
0000
1000
0001
0100
0001
1000
0001
0100
0001
,
1000
0000
0010
1000
0100
0000
0010
0000
0100
0000
0010
0001
0100
0000
0010
0000
,
1000
0000
0001
0100
1000
0000
0010
0000
1000
0000
0100
0001
1000
0000
0010
0000
,
1000
0100
1000
0100
0010
0001
0010
0001
1000
0100
0010
0001
0100
0010
1000
0001
,
0100
0010
0100
0001
1000
0010
1000
0100
1000
0001
0100
0010
1000
0100
0010
0001
,
2000
0000
0000
0000
,
0000
0000
0000
0000
,
3000
0000
0000
0000
;

//---------------dance-single - ----------------
#NOTES:
     dance-single:
     :
     Medium:
     11:
     0.455729,0.589600,0.390625,0.081380,0.073242,392.000000,344.000000,48.000000,10.000000,0.000000,0.000000,0.455729,0.589600,0.390625,0.081380,0.073242,392.000000,344.000000,48.000000,10.000000,0.000000,0.000000:
0000
0000
0000
0000
,
0000
0000
0000
0000
,
0000
0000
0000
0000
,
0000
0000
0000
0000
,
0000
0000
0000
0000
,
0000
0000
0000
0000
,
0000
0000
0000
0000
,
0000
0000
0000
0000
,
0000
0000
0000
0000
,
1001
0000
0010
0100
1000
0100
0010
0000
,
0011
0000
1010
0000
0101
0000
1000
0010
,
0110
1000
0101
0101
,
0010
1000
0000
0010
0100
0000
1001
0000
,
1000
0100
1000
0001
1000
0100
1000
0000
,
0001
0100
0001
1000
0001
0100
0001
0000
,
0010
0100
1000
0100
0010
0001
0100
0000
,
0010
0010
0100
0100
0010
0000
1001
0000
,
1000
0000
0000
0000
0001
0000
0010
0000
1000
0000
0100
0000
0010
0001
0010
0000
,
0100
0000
0000
0000
0001
0000
1000
0000
0010
0000
0100
0000
1000
0100
1000
0000
,
0001
0000
0001
0000
1000
0100
1000
0000
0010
0000
0010
0000
0001
0100
0001
0000
,
1000
0000
0000
0000
0001
0100
0001
0000
1000
0010
1000
0000
0001
0000
0100
0000
,
2000
0000
0000
0000
3001
0000
0100
0000
0010
1000
0010
0000
0100
0000
0001
0000
,
0020
0000
0000
0000
0130
0000
0001
0000
1000
0001
1000
0000
0010
0000
0100
0000
,
0002
0000
0000
0000
1003
0000
0100
0000
0010
0100
0010
0000
1000
0000
0001
0000
,
0100
0000
0100
0010
0100
0000
0001
0000
1000
0000
0001
0000
0001
0000
0100
0000
,
0010
0000
0000
1000
0001
0000
0000
0000
0100
0000
0000
0001
1000
0000
0000
0000
,
0010
0000
0000
1000
0010
0000
0100
0000
0010
0000
0000
1000
0010
0000
0000
0000
,
0100
0000
0000
0001
0100
0000
0000
0000
0100
0000
0000
0001
0100
0000
0000
0000
,
0010
0000
0000
1000
0010
0000
0100
0000
0010
0000
0000
1000
0010
0000
0000
0000
,
1000
1001
0010
0110
,
0001
1001
0100
0110
,
0001
0100
0001
0000
1000
0100
1000
0000
,
0010
0100
0010
0100
0010
0100
0010
0000
,
2002
0000
3003
0000
0010
0100
0010
0100
,
0010
0000
1000
0100
0000
0001
0100
0000
,
0001
0100
0010
0100
0001
0000
1000
0010
,
0100
0000
0001
1000
0000
0001
1000
0000
,
0010
0100
0001
0100
0010
0100
0001
0000
,
1000
0000
0001
0100
0000
0001
0100
0000
,
1000
0000
1000
0000
1000
0001
1000
0000
,
0010
0000
0010
0000
0100
0010
0100
0000
,
1001
1001
1100
1100
,
0001
0100
0001
0100
0001
0000
1001
0000
,
0110
0000
1000
0100
0001
0100
1000
0000
,
0110
0000
0001
0010
1000
0010
0001
0000
,
1001
0000
0100
0010
0100
0010
0100
0000
,
0002
2003
3200
0300
,
1001
0000
1001
0000
1000
0100
1000
0000
,
0001
0100
0001
0000
1000
0100
1000
0000
,
0110
0000
0110
0000
0001
0010
0001
0000
,
1000
0010
1000
0000
0001
0010
0001
0000
,
1010
0000
1010
0000
0001
0100
0001
0000
,
0100
0000
0010
0000
1000
0100
1000
0000
,
0001
0100
0001
0000
1000
0010
1000
0000
,
0010
0010
1001
1001
,
0100
1001
0000
1100
0000
0101
0000
1100
,
0000
0011
0000
1010
0000
0001
0100
1000
,
0000
0110
0000
0110
0000
1001
0000
1001
,
0000
1000
0100
0010
0000
0001
0010
0100
,
1000
0000
1001
0000
0001
0100
0001
0000
,
1000
0100
1000
0000
0010
0100
0010
0000
,
1001
0000
1001
0000
0010
0100
0010
0000
,
1000
0100
1000
0000
0001
0100
0001
0000
,
1001
0000
1001
0000
0010
0100
1000
0000
,
1001
0000
1001
0000
0100
0010
0001
0000
,
1000
0001
1000
0000
0001
1000
0001
0000
,
0100
0010
0100
0000
0010
0100
0010
0000
,
2002
0000
0000
0000
,
0000
0000
0000
0000
,
3003
0000
0000
0000
;

//---------------dance-single - ----------------
#NOTES:
     dance-single:
     :
     Easy:
     6:
     0.296456,0.393066,0.301107,0.105794,0.000000,255.000000,218.000000,37.000000,13.000000,0.000000,0.000000,0.296456,0.393066,0.301107,0.105794,0.000000,255.000000,218.000000,37.000000,13.000000,0.000000,0.000000:
0000
0000
0000
0000
,
0000
0000
0000
0000
,
0000
0000
0000
0000
,
0000
0000
0000
0000
,
0000
0000
0000
0000
,
0000
0000
0000
0000
,
0000
0000
0000
0000
,
0000
0000
0000
0000
,
0000
0000
0000
0000
,
1001
1000
1000
0010
,
0001
0001
0001
0100
,
1000
1000
1000
0010
,
0001
0001
0001
0100
,
1001
0100
0100
0100
,
1001
0010
0010
0010
,
1000
1000
0001
0001
,
0100
0100
0200
0300
,
0010
1001
1000
1000
,
0010
1001
0001
0001
,
0100
1001
1000
1000
,
0100
0000
1001
0000
0010
0010
0010
0000
,
1000
1100
0001
0100
,
0001
0101
1000
0100
,
0010
1001
0100
0010
,
0100
0010
1001
0001
,
0100
0100
0100
0100
,
0010
0010
0010
0010
,
1001
1001
0100
0100
,
0010
0010
0001
0001
,
1001
0010
0010
0100
,
1001
0100
0100
0010
,
1001
1000
1001
0001
,
1001
1001
1001
0000
,
0020
0000
0000
0030
,
1000
0001
0200
0300
,
0001
1000
0010
0010
,
1000
0001
0200
0300
,
0010
1000
0100
0010
,
0001
0100
0020
0030
,
1000
1000
0001
0001
,
0100
0100
0100
0000
,
0001
0000
1000
1000
,
0001
1000
0001
0000
,
0100
0100
0001
1000
,
0010
0010
1000
0001
,
0110
0110
1001
1001
,
0010
0010
0020
0030
,
1000
1001
0001
0001
,
0100
0100
1000
1000
,
0001
1001
1000
1000
,
0100
0100
0002
0103
,
1001
1001
0010
0010
,
0100
0100
0010
0010
,
1000
0001
0010
0010
,
1000
0001
2002
3003
,
0010
1000
0000
0001
0000
1000
0000
0001
,
0000
0100
0000
0010
0000
0100
0000
0010
,
0000
1000
0000
0100
0000
0010
0000
0001
,
0000
1000
0000
0010
0000
0100
0001
0100
,
0001
0000
0100
0010
0000
0000
1001
0000
,
0000
0000
0010
0100
0000
0000
1001
0000
,
0000
0000
0100
0100
0000
0000
1001
0000
,
0000
0000
0010
0010
0000
0000
1001
0000
,
1000
0000
1000
1000
1000
0000
0000
0000
,
0001
0000
0001
0001
0001
0000
0000
0000
,
0200
0300
0020
0030
,
1000
1001
1001
1001
,
2002
0000
0000
0000
,
0000
0000
0000
0000
,
3003
0000
0000
0000
;

//---------------dance-single - ----------------
#NOTES:
     dance-single:
     :
     Beginner:
     4:
     0.183687,0.252686,0.048828,0.048828,0.000000,158.000000,152.000000,6.000000,6.000000,0.000000,0.000000,0.183687,0.252686,0.048828,0.048828,0.000000,158.000000,152.000000,6.000000,6.000000,0.000000,0.000000:
// measure 0
0000
0000
0000
0000
,  // measure 1
0000
0000
0000
0000
,  // measure 2
0000
0000
0000
0000
,  // measure 3
0000
0000
0000
0000
,  // measure 4
0000
0000
0000
0000
,  // measure 5
0000
0000
0000
0000
,  // measure 6
0000
0000
0000
0000
,  // measure 7
0000
0000
0000
0000
,  // measure 8
0000
0000
0000
0000
,  // measure 9
1000
0000
1000
0000
,  // measure 10
0001
0001
0001
0000
,  // measure 11
0100
0000
0100
0000
,  // measure 12
0010
0010
0010
0000
,  // measure 13
1000
0000
1000
0000
,  // measure 14
0001
0001
0001
0000
,  // measure 15
0100
0000
0100
0000
,  // measure 16
0010
0010
0010
0010
,  // measure 17
0000
2002
0000
3003
,  // measure 18
0000
0010
0010
0010
,  // measure 19
0000
0100
0100
0100
,  // measure 20
0000
0001
0001
0001
,  // measure 21
0000
1000
0000
1000
,  // measure 22
0000
0001
0000
0001
,  // measure 23
0000
0100
0000
0100
,  // measure 24
0000
0010
0000
0010
,  // measure 25
0010
0000
1000
1000
,  // measure 26
1000
1000
1000
0000
,  // measure 27
1001
0000
0001
0001
,  // measure 28
0001
0001
0001
0000
,  // measure 29
0110
0000
0100
0100
,  // measure 30
0100
0100
0100
0000
,  // measure 31
0110
0000
0010
0010
,  // measure 32
0010
0010
0010
0000
,  // measure 33
2002
0000
3003
0000
,  // measure 34
0010
0010
0000
0010
,  // measure 35
0000
0100
0100
0100
,  // measure 36
0100
0100
0000
0001
,  // measure 37
0001
0000
1000
0000
,  // measure 38
0001
0000
1000
0000
,  // measure 39
0001
0001
0001
0000
,  // measure 40
0001
0001
0001
0000
,  // measure 41
1000
1000
1000
0000
,  // measure 42
1000
1000
1000
0000
,  // measure 43
0010
0010
0010
0000
,  // measure 44
0100
0100
0100
0000
,  // measure 45
0010
0010
0010
0000
,  // measure 46
0200
0000
0000
0300
,  // measure 47
0100
0000
0001
0001
,  // measure 48
0001
0001
0001
0001
,  // measure 49
0001
0000
1000
1000
,  // measure 50
1000
1000
1000
1000
,  // measure 51
1000
0000
0010
0010
,  // measure 52
0010
0010
0010
0010
,  // measure 53
0010
0000
0100
0100
,  // measure 54
0100
0000
1001
0000
,  // measure 55
0010
0010
0000
0010
,  // measure 56
0000
0100
0000
0100
,  // measure 57
0000
0001
0000
0001
,  // measure 58
0000
1000
0000
1000
,  // measure 59
0000
0001
0000
0001
,  // measure 60
0000
0100
0000
0100
,  // measure 61
0000
0010
0000
0010
,  // measure 62
0000
1000
0000
1000
,  // measure 63
0000
0001
0000
0001
,  // measure 64
0000
0100
0000
0100
,  // measure 65
0000
0010
0000
0010
,  // measure 66
0000
0100
0100
0100
,  // measure 67
0200
0000
0000
0000
,  // measure 68
0000
0000
0000
0000
,  // measure 69
0300
0000
0000
0000
;

//---------------dance-double - ----------------
#NOTES:
     dance-double:
     :
     Easy:
     6:
     0.341797,0.505371,0.577799,0.130208,0.000000,294.000000,223.000000,71.000000,16.000000,0.000000,0.000000,0.341797,0.505371,0.577799,0.130208,0.000000,294.000000,223.000000,71.000000,16.000000,0.000000,0.000000:
00000000
00000000
00000000
00000000
,
00000000
00000000
00000000
00000000
,
00000000
00000000
00000000
00000000
,
00000000
00000000
00000000
00000000
,
00000000
00000000
00000000
00000000
,
00000000
00000000
00000000
00000000
,
00000000
00000000
00000000
00000000
,
00000000
00000000
00000000
00000000
,
00000000
00000000
00000000
00000000
,
00011000
00010000
00010000
00000100
,
00000010
00000010
00000010
00000100
,
00010000
00010000
00001000
00001000
,
01000000
01000000
00100000
00100000
,
10010000
10010000
10010000
00000000
,
00011000
00011000
00011000
00000000
,
00001001
00001001
00001001
00000000
,
00010000
00010000
00010000
00000000
,
00001000
00000000
01000000
00000000
00000000
00000000
01000000
00100000
,
00001000
00000000
00010000
00000000
00000000
00000000
00010000
00000100
,
00001000
00000000
00000010
00000000
00000000
00000000
00000001
00000100
,
00001000
00000000
00000100
00000000
00000000
00010000
00001000
00100000
,
01000000
00000000
10010000
00100000
00000000
00100000
00000000
00100000
,
10000000
00010000
01010000
00010000
00000000
00010000
00000000
00010000
,
00000100
00001000
00001001
00000100
00000000
00000100
00000000
00000100
,
00000010
00001000
00000100
00000100
00010000
00001000
01000000
01000000
,
01000000
11000000
11000000
01010000
,
00100000
00101000
00101000
00011000
,
00010000
00001100
00001100
00001010
,
00000001
00000110
00000110
00001001
,
00001100
00001100
00000101
00000101
,
00010100
00010100
01010000
01010000
,
10000000
11000000
00010000
01010000
,
00100000
00011000
00000010
00011000
,
00200000
00000000
00000000
00300000
,
10000000
00010000
02000000
03000000
,
00002000
00003000
00020000
00030000
,
00000010
00001000
00000002
00000003
,
00000020
00000030
00020000
00030000
,
00002000
00003000
00200000
00300000
,
00010000
00000000
10000000
00000000
,
00010000
00000000
10000000
00000000
,
00001000
00000000
00010000
00000000
,
00001000
00000000
00010000
00001000
,
00000100
00000001
00000001
00000100
,
00001000
00010000
00010000
01000000
,
10000000
00100000
00100000
00010000
,
00020000
00000000
00000000
00030000
,
00000010
00000010
00001001
00001001
,
00000100
00000100
00001001
00001001
,
00000100
00000100
00011000
00011000
,
01000000
01000000
00011000
00011000
,
10000000
10000000
10100000
10100000
,
01000000
01000000
00110000
00110000
,
01001000
01001000
01001000
00011000
,
00020200
00030300
00002002
00003003
,
00000010
00001000
00000001
00001000
00000000
00001000
00000100
00001000
,
00000000
00000100
00010000
00001000
00000000
00001000
00100000
00001000
,
00000000
00100000
00010000
01000000
00000000
00100000
10000000
01000000
,
00000000
00100000
00010000
00001000
00000000
00000100
00000010
00000001
,
00001000
00001001
00000110
00000110
,
00000001
00001001
00000110
00000110
,
00001000
00001100
00101000
00101000
,
00100000
00110000
00010100
00010100
,
00001000
00010000
00100000
01000000
,
10010000
01000000
00100000
00010000
,
00011000
00000100
00000010
00000001
,
00001100
00000000
00010000
00000000
,
00022000
00000000
00000000
00000000
,
00000000
00000000
00000000
00000000
,
00033000
00000000
00000000
00000000
;

//---------------dance-double - ----------------
#NOTES:
     dance-double:
     :
     Medium:
     11:
     0.489444,0.673828,0.504557,0.130208,0.048828,421.000000,359.000000,62.000000,16.000000,0.000000,0.000000,0.489444,0.673828,0.504557,0.130208,0.048828,421.000000,359.000000,62.000000,16.000000,0.000000,0.000000:
00000000
00000000
00000000
00000000
,
00000000
00000000
00000000
00000000
,
00000000
00000000
00000000
00000000
,
00000000
00000000
00000000
00000000
,
00000000
00000000
00000000
00000000
,
00000000
00000000
00000000
00000000
,
00000000
00000000
00000000
00000000
,
00000000
00000000
00000000
00000000
,
00000000
00000000
00000000
00000000
,
00011000
00000000
00100000
01000000
10000000
01000000
00100000
00000000
,
01000000
00000000
00100000
00000000
00010000
00000000
00001000
00000100
,
00000010
00000001
00001000
00000010
,
00001000
00000100
00000000
00000100
00010000
00000000
00001000
00000000
,
01000000
00000000
00010000
00100000
01000000
00000000
10010000
00000000
,
01000000
00000000
00100000
00001000
00010000
00000000
00001000
00010000
,
00000100
00001000
00000010
00000001
,
00000100
00000010
00000100
00000010
00000100
00000010
00000100
00000000
,
00000001
00000000
00001001
00001000
00000100
00000100
00010000
00010000
,
00001000
00100000
00010000
01000000
10000000
10000000
10010000
10010000
,
00100000
00100000
00011000
00010000
00000100
00000100
00001000
00000010
,
00000001
00000001
00001000
00001000
00000010
00001000
00000100
00010000
,
00002000
00003000
00110000
00010000
01000000
01000000
10000000
10000000
,
20020000
30030000
10000000
10000000
00100000
00100000
01000000
00010000
,
00022000
00033000
00000100
00000100
00001000
00001000
00000010
00000010
,
00002002
00003003
00000010
00000010
00001000
00000100
00011000
00000000
,
00011000
00000000
00010000
00001000
00100000
00000000
00100000
00010000
,
01000000
00000000
10000000
01000000
00010000
00000000
01100000
00000000
,
10010000
00000000
01000000
00010000
00100000
00000000
00100000
00001000
,
00010000
00000000
00010000
00000100
00001000
00000010
00001000
00000001
,
00000100
00000000
00000010
00001000
00000100
00000000
00000100
00010000
,
00001000
00000000
00001000
01000000
00010000
01000000
00100000
00000000
,
11000000
01010000
00010100
00001100
,
00000101
00001100
00010100
01010000
,
12000000
00000000
03000000
00000000
00010000
00010000
00010000
00100000
,
00001000
00000000
00010000
00000100
00000000
00001000
00000010
00000000
,
00000001
00000100
00000100
00000100
00000010
00000010
00001000
00000000
,
00000100
00000000
00010000
00010000
00000000
00001000
00001000
00000000
,
01100000
00010000
00100000
01000000
10000000
01000000
00100000
00001000
,
00010000
00000010
00000100
00001000
00000010
00000100
00001000
00010000
,
00100000
00000000
10010000
00000000
01000000
00100000
01000000
00000000
,
10010000
00000000
01010000
00000000
00110000
00000000
00100000
00001000
,
00010000
00010000
00010100
00001100
,
00001000
00000010
00000100
00000001
00001001
00000000
00000110
00000000
,
00001010
00000000
00000100
00010000
00001000
00010000
00000100
00000000
,
00011000
00000000
00001000
00100000
00010000
00100000
00001000
00000000
,
00110000
00000000
00010000
01000000
10000000
01000000
00010000
00000000
,
01000000
00100000
01000000
00100000
01000000
00100000
01000000
00000000
,
11000000
00000000
00000000
00000000
11000000
00000000
00000000
00000000
01010000
00000000
00000000
00010000
01000000
00000000
00000000
00000000
,
11000000
00000000
00000000
10000000
01000000
00000000
00000000
00000000
01010000
00000000
00000000
00010000
01000000
00000000
00000000
00000000
,
00110000
00000000
00000000
00100000
00010000
00000000
00000000
00000000
00101000
00000000
00000000
00100000
00001000
00000000
00000000
00000000
,
00011000
00000000
00000000
00010000
00000100
00000000
00000000
00000000
00001100
00000000
00000000
00001000
00000010
00000000
00000100
00000000
,
00001001
00000000
00000000
00000000
00000010
00000000
00000100
00000000
00001000
00000000
00000000
00000001
00000100
00000000
00000100
00000000
,
00000001
00000000
00000000
00001000
00000100
00000000
00000100
00000000
00001000
00000000
00000000
00000100
00010000
00000000
00010000
00000000
,
00001000
00000000
00000000
00100000
00010000
00000000
00000000
00000000
00100000
00000000
00000000
00010000
01000000
00000000
00000000
00000000
,
00100000
10000000
01000000
00100000
00001000
00010000
00000100
00001000
,
00000010
00001001
00000100
00001001
00000010
00001100
00000010
00000101
,
00000010
00001000
00000100
00011000
00000100
00100000
00010000
01010000
,
00100000
11000000
00100000
01010000
00100000
00011000
00100000
00010100
,
00001000
00000010
00000100
00001001
00000010
00000100
00001000
00011000
,
00100000
00000000
00020000
01000000
01030000
00000000
20000000
00100000
,
30100000
00000000
02000000
00010000
03010000
00000000
00110000
00000000
,
00011000
00000000
00020000
00000100
00000100
00030000
00002000
00000010
,
00003010
00000000
00000200
00000001
00000301
00000000
00001001
00000000
,
00000110
00000000
00001000
00000100
00000010
00000000
00000001
00000100
,
00001000
00000000
00000100
00010000
00001000
00000000
00100000
00010000
,
01000000
00000000
00100000
10000000
01000000
00000000
00100000
00001000
,
00010000
00000000
00000100
00001000
00000010
00000100
00010000
00000000
,
00022000
00000000
00000000
00000000
,
00000000
00000000
00000000
00000000
,
00033000
00000000
00000000
00000000
;

//---------------dance-double - ----------------
#NOTES:
     dance-double:
     :
     Hard:
     15:
     0.871931,1.319580,0.528971,0.496419,1.155599,750.000000,685.000000,65.000000,61.000000,0.000000,0.000000,0.871931,1.319580,0.528971,0.496419,1.155599,750.000000,685.000000,65.000000,61.000000,0.000000,0.000000:
00000000
00000000
00000000
00000000
,
00000000
00000000
00000000
00000000
,
00000000
00000000
00000000
00000000
,
00000000
00000000
00000000
00000000
,
00000000
00000000
00000000
00000000
,
00000000
00000000
00000000
00000000
,
00000000
00000000
00000000
00000000
,
00000000
00000000
00000000
00000000
,
00000000
00000000
00000000
00000000
,
00011000
00000000
00000000
00000000
00100000
00000000
00010000
00000000
01000000
00000000
00000000
00100000
00000000
00000000
10000000
00000000
,
01000000
00000000
00010000
00100000
00010000
00000000
00100000
00000000
00001000
00000000
00010000
00000100
00010000
00000000
00000100
00000000
,
00001000
00000010
00000001
00000100
00001000
00000100
00010000
00001000
,
00100000
00000000
00010000
01000000
00010000
00000000
10000000
00000000
00100000
00000000
01000000
00100000
01000000
00000000
10000000
00000000
,
01000000
00000000
00010000
01000000
00010000
01000000
00010000
00000000
00100000
00000000
00001000
00010000
00001000
00010000
00001000
00000000
,
00010000
00000000
00000010
00000100
00000010
00000100
00000010
00000000
00001000
00000000
00000001
00000100
00000001
00000100
00000001
00000000
,
00000010
00001000
00000010
00001000
00000100
00001000
00000100
00001000
00000100
00010000
00001000
00010000
00001000
00100000
00001000
01000000
,
00010000
00010000
00010000
00010000
00010000
00010000
00020000
00000000
,
10030000
00000000
00000000
00000000
00100000
00000000
01000000
00000000
00010000
00000000
00100000
00001000
00100000
00001000
00100000
00000000
00001000
00000000
00010000
00000010
00010000
00000010
00010000
00000000
00000001
00000000
00001000
00000010
00001000
00000010
00001000
00000000
,
00000100
00000000
00010000
00000000
00001000
00000000
01000000
00010000
01000000
00010000
01000000
00000000
10000000
00000000
00100000
01000000
00100000
01000000
00100000
00000000
10000000
00000000
00010000
01000000
00010000
01000000
00001000
00000000
00010000
00000000
00000100
00000000
,
00001000
00000000
00000000
00000000
00002002
00000000
00003003
00000000
00000010
00000000
00000100
00000010
00001000
00000010
00000100
00000000
00001000
00000000
00000100
00010000
00001000
00010000
00000100
00000000
00010000
00000000
00001000
01000000
00001000
00100000
00001000
00000000
,
00100000
00000000
00010000
00000000
01000000
00000000
00100000
10000000
00100000
10000000
00100000
00000000
01000000
00000000
00010000
00100000
00010000
00100000
00010000
00000000
00100000
00000000
00001000
00010000
00000100
00010000
00001000
00000000
00000100
00001000
00000010
00001000
,
00000100
00000000
00000000
00000000
00000011
00000000
00000000
00000000
00001000
00000001
00000000
00001000
00000000
00000001
00001000
00000100
00000000
00001000
00000000
00000100
00000000
00010000
00001000
00010000
00000000
00001000
00000000
00100000
00000000
00010000
01000000
00100000
,
20000000
00000000
00000000
00000000
00000000
00000000
00000000
00000000
30010000
00100000
00000000
01000000
00000000
10000000
01000000
10000000
00100000
10000000
00000000
00010000
00000000
01000000
00010000
00100000
00010000
00100000
00000000
00001000
00000000
00010000
00000100
00010000
,
00002000
00000000
00000000
00000000
00000000
00000000
00000000
00000000
00000000
00000000
00000000
00000000
00000000
00000000
00000000
00000000
00000000
00000000
00000000
00000000
00000000
00000000
00000000
00000000
00003020
00000000
00000000
00000000
00000000
00000000
00000000
00000000
00000030
00000000
00000000
00000000
00000000
00000000
00000000
00000000
00000000
00000000
00000000
00000000
00000000
00000000
00000000
00000000
00000100
00000000
00000000
00000000
00000000
00000000
00000001
00000000
00000000
00000000
00000000
00000000
00000000
00000000
00000000
00000000
00000000
00000000
00000100
00000000
00000000
00000000
00000000
00000000
00000000
00000000
00000000
00000000
00000000
00000000
00000001
00000000
00000000
00000000
00000000
00000000
00001000
00000000
00000000
00000000
00000000
00000000
00000001
00000000
00000000
00000000
00000000
00000000
00001000
00000000
00000000
00000000
00000000
00000000
00000001
00000000
00000000
00000000
00000000
00000000
00000000
00000000
00000000
00000000
00000000
00000000
00001000
00000000
00000000
00000000
00000000
00000000
00000000
00000000
00000000
00000000
00000000
00000000
00000100
00000000
00000000
00000000
00000000
00000000
00001000
00000000
00000000
00000000
00000000
00000000
00000100
00000000
00000000
00000000
00000000
00000000
00001000
00000000
00000000
00000000
00000000
00000000
00000100
00000000
00000000
00000000
00000000
00000000
00000000
00000000
00000000
00000000
00000000
00000000
00010000
00000000
00000000
00000000
00000000
00000000
00000000
00000000
00000000
00000000
00000000
00000000
00001000
00000000
00000000
00000000
00000000
00000000
00100000
00000000
00000000
00000000
00000000
00000000
00010000
00000000
00000000
00000000
00000000
00000000
,
01000000
01000000
10000000
00100000
00010000
00100000
00001000
00010000
00000100
00001000
00000010
00000001
00000100
00001000
00010000
01000000
,
10010000
00000000
00000000
10000000
00010000
00000000
10010000
00000000
10010000
00000000
00000000
00100000
01000000
00000000
01100000
00000000
,
01100000
00000000
00000000
00100000
00001000
00000000
00011000
00000000
00011000
00000000
00010000
00000010
00000100
00000000
00001010
00000000
,
00001010
00000000
00000000
00000001
00000100
00000000
00001010
00000000
00001000
00000010
00000000
00000100
00001000
00000000
00001100
00000000
,
00000100
00010000
00000000
00001000
00010000
00000000
00011000
00000000
01000000
00001000
00000000
01000000
00100000
00000000
10010000
00000000
,
01100000
00000000
20000000
00100000
31000000
00000000
02000000
00010000
03100000
00000000
00200000
00001000
00310000
00000000
00000200
00010000
,
00001300
00000000
00020000
00000010
00031000
00000000
00002000
00000001
00003100
00000000
00000200
00000001
00001300
00000000
00000002
00001000
,
00000103
00000001
00000100
00000001
00001000
00000100
00001000
00000100
00010000
00001000
00010000
00001000
01000000
00010000
01000000
00010000
,
10000000
01000000
10000000
00100000
10000000
00010000
01000000
00010000
01000000
00001000
01000000
00001000
00010000
00001000
00010000
00000100
,
00020000
00000000
00000000
00000000
00031000
00000100
00000010
00000000
00000002
00000003
00002000
00003000
00000020
00000030
00001000
00000100
,
00010000
00000000
00000000
00000000
00002000
00003000
00200000
00300000
00010000
01000000
00000000
00200000
20000000
30300000
00000000
00000000
,
02000000
00000000
00010000
13000000
00200000
10000000
00320000
00000000
02030000
03000000
00002000
00003000
00020000
00030000
00000010
00000100
,
00000002
00000000
00000000
00000000
00000000
00000000
00000003
00000000
00000000
00000000
00000000
00000000
00000020
00000000
00000000
00000030
00000000
00000000
00000200
00000000
00000000
00000000
00000000
00000000
00000301
00000000
00000000
00001000
00000000
00000000
00000000
00000000
00000000
00000200
00000000
00000000
00020000
00000000
00000000
00000300
00030000
00000000
00020200
00000000
00000000
00030300
00000000
00000000
,
00001000
00000000
00000000
00000000
00100000
00000000
00010000
00000000
01000000
00000000
00000000
01000000
00000000
00000000
01000000
00000000
01000000
00000000
00000000
00000000
00100000
00000000
00000000
00000000
10000000
00000000
00010000
00000000
01000000
00000000
00001000
00000000
,
00010000
00000000
00000000
00000000
00010000
00000000
00000100
00000000
00001000
00000000
00000000
00001000
00000010
00000000
00000100
00000000
00000001
00000000
00001000
00000000
00000100
00000000
00010000
00000000
00001000
00000000
00000000
00100000
00010000
00000000
00000000
00000000
,
20020000
00000000
00000000
00000000
30030000
00000000
00000000
00000000
00000000
01000000
00000000
00000000
00100000
00000000
00000000
00000000
00000000
00000000
11000000
00000000
00000000
00000000
00000000
00000000
11000000
00000000
00000000
00000000
00000000
00000000
00010000
00000000
00000000
01000000
00000000
00000000
00010000
00000000
00000000
00000000
00000000
00000000
01000000
00000000
00000000
00000000
00000000
00000000
,
01010000
00000000
00000000
00100000
00001000
00000000
00010000
00000000
00010100
00000000
00000100
00001000
00000010
00000000
00000100
00000000
,
00001001
00000000
00000001
00000010
00000100
00000000
00001000
00000000
00001100
00000000
00001000
00000010
00000100
00000000
00001000
00000000
,
00001100
00000000
00000100
00010000
00001000
00000000
01000000
00000000
01010000
00000000
00010000
10000000
01000000
00000000
10010000
00000000
,
10000000
00100000
01000000
00000000
01000000
00010000
00100000
00000000
00100000
00001000
00010000
00000000
00010000
00000100
00001000
00000000
,
00001000
00000010
00000100
00000000
00000100
00000001
00001000
00000000
00000100
00010000
00001000
00000000
00001000
01000000
00010000
00000000
,
00010000
10000000
01000000
00000000
10000000
00010000
00100000
00000000
00100000
00001000
00010000
00000000
00010000
00000010
00000100
00000000
,
00000001
00000001
00000001
00000001
00000001
00000001
00002002
00003003
,
00002200
00000000
00003300
00000000
00000202
00000000
00000303
00000000
00000100
00000020
00000000
00002030
00000000
00003100
00001000
00000000
,
00000100
00020000
00000000
00032000
00000000
00013000
00000100
00000000
00010000
00002000
00000000
00203000
00000000
00301000
00010000
00000000
,
00202000
00000000
00303000
00000000
02020000
00000000
03030000
00000000
10000000
00020000
00000000
02030000
00000000
03100000
20000000
00000000
,
30010000
00200000
00000000
00302000
00000000
00013000
00000100
00000000
00001000
00000010
00000000
00000010
00000100
00000001
00001000
00000010
,
00000100
00000000
00000000
00000000
00000011
00000000
00001010
00000000
00000010
00001000
00000000
00000100
00000000
00010000
00001000
00100000
,
00001000
00010000
00000000
00001000
00000000
01000000
00010000
00100000
00010000
01000000
00000000
00100000
00000000
10000000
01000000
00100000
,
00010000
01000000
00000000
00010000
00100000
00001000
00010000
00000000
00001000
00010000
00000100
00001000
00000010
00000000
00001001
00000000
,
00000010
00001000
00000100
00010000
00001000
00100000
00010000
01000000
,
20020000
30030000
01100000
00010000
10000000
00000000
01100000
10000000
00010000
00000000
00110000
01000000
00010000
00000000
00011000
00010000
,
00000100
00000000
00001010
00000001
00000100
00000000
00001100
00000010
00000001
00000000
00001010
00000100
00001000
00000000
00001100
00000100
,
00010000
00000000
00011000
00001000
01000000
00000000
01010000
10000000
01000000
00000000
00110000
00001000
00010000
00000000
00010100
00001000
,
00000010
00000000
00000101
00000010
00001000
00000000
00001100
00000010
00001000
00000100
00001000
00000100
00001000
00000000
00000100
00000000
,
00011000
00000000
00000000
00100000
00010000
00000000
01000000
00000000
10010000
00000000
00000000
10000000
01000000
00000000
00100000
00000000
,
00101000
00000000
00000000
00010000
00001000
00000000
00000100
00000000
00000110
00000000
00000000
00000001
00000100
00000000
00001000
00000000
,
00001100
00000000
00000000
00000100
00010000
00000000
00001000
00000000
01000000
00000000
00000000
00010000
10000000
00000000
00100000
00000000
,
10010000
00000000
00000000
10000000
00100000
00000000
01000000
00000000
00110000
00000000
00000000
01000000
00001000
00000000
00010000
00000000
,
00000100
00000000
00001000
00000010
00001000
00000000
00000101
00000000
00001001
00000000
00000010
00001000
00000100
00000000
00001100
00000000
,
00010100
00000000
00010000
00001000
00100000
00000000
00110000
00000000
01010000
00000000
00100000
10000000
01000000
00000000
10010000
00000000
,
10000000
00100000
01000000
00010000
10000000
00100000
01000000
00001000
00010000
00000100
00010000
00001000
00010000
00000010
00000100
00000001
,
00001000
00000100
00000010
00000001
00000100
00000010
00001000
00000100
00010000
00001000
01000000
00010000
10000000
01000000
00100000
00010000
,
00002000
00000000
00000000
00000000
,
00000000
00000000
00000000
00000000
,
00003000
00000000
00000000
00000000
;
